osu file format v14

[General]
AudioFilename: audio.mp3
AudioLeadIn: 1000
PreviewTime: 33887
Countdown: 0
SampleSet: Normal
StackLeniency: 0.3
Mode: 1
LetterboxInBreaks: 0
WidescreenStoryboard: 0

[Editor]
DistanceSpacing: 0.9
BeatDivisor: 4
GridSize: 4
TimelineZoom: 2.6

[Metadata]
Title:FUNKY SUMMER BEACH
TitleUnicode:FUNKY SUMMER BEACH
Artist:P*Light
ArtistUnicode:P*Light
Creator:kanpakyin
Version:Oni
Source:jubeat saucer fulfill
Tags:climbb65588 yuki_momoiro722 pop'n music DanceDanceRevolution instrumental electronic Dance Revolution DDR pichnopop beatnation Records video game
BeatmapID:2248020
BeatmapSetID:428287

[Difficulty]
HPDrainRate:5
CircleSize:5
OverallDifficulty:5
ApproachRate:5
SliderMultiplier:1.4
SliderTickRate:1

[Events]
//Background and Video events
0,0,"bg.jpg",0,-50
//Break Periods
//Storyboard Layer 0 (Background)
//Storyboard Layer 1 (Fail)
//Storyboard Layer 2 (Pass)
//Storyboard Layer 3 (Foreground)
//Storyboard Layer 4 (Overlay)
//Storyboard Sound Samples

[TimingPoints]
1030,342.857142857143,4,1,1,70,1,0
33944,-100,4,1,1,70,0,1
44572,-100,4,1,1,70,0,0
44915,-100,4,1,1,70,0,1
55887,-100,4,1,1,70,0,0
80572,-100,4,1,1,70,0,1
91201,-100,4,1,1,70,0,0
91544,-100,4,1,1,70,0,1
102515,-100,4,1,1,70,0,0

[HitObjects]
388,103,1030,5,4,0:0:0:0:
388,103,1372,1,8,0:0:0:0:
388,103,1715,1,0,0:0:0:0:
388,103,2058,1,8,0:0:0:0:
374,104,2230,1,8,0:0:0:0:
374,105,2401,1,0,0:0:0:0:
374,105,2572,1,8,0:0:0:0:
388,103,2658,1,0,0:0:0:0:
375,104,2744,1,8,0:0:0:0:
375,104,3087,1,8,0:0:0:0:
375,104,3430,1,8,0:0:0:0:
367,105,3772,1,0,0:0:0:0:
367,105,3858,1,8,0:0:0:0:
364,104,3944,1,8,0:0:0:0:
365,105,4115,1,8,0:0:0:0:
370,108,4287,1,0,0:0:0:0:
361,105,4458,1,8,0:0:0:0:
361,106,4801,1,8,0:0:0:0:
350,107,4972,1,8,0:0:0:0:
350,107,5144,1,0,0:0:0:0:
351,106,5401,1,0,0:0:0:0:
364,104,5658,1,0,0:0:0:0:
365,105,5830,1,8,0:0:0:0:
357,107,6001,1,0,0:0:0:0:
361,105,6172,1,8,0:0:0:0:
361,106,6515,1,4,0:0:0:0:
360,104,6858,1,8,0:0:0:0:
366,109,7030,1,0,0:0:0:0:
360,104,7201,1,0,0:0:0:0:
365,105,7544,1,8,0:0:0:0:
360,104,7715,1,0,0:0:0:0:
361,105,7887,1,0,0:0:0:0:
361,106,8230,1,0,0:0:0:0:
360,100,8572,1,8,0:0:0:0:
360,104,8915,1,8,0:0:0:0:
365,105,9258,1,0,0:0:0:0:
364,104,9515,1,0,0:0:0:0:
361,106,9772,1,0,0:0:0:0:
361,106,9944,1,8,0:0:0:0:
360,108,10287,1,8,0:0:0:0:
360,104,10458,1,0,0:0:0:0:
360,104,10630,1,4,0:0:0:0:
356,104,10801,1,8,0:0:0:0:
356,104,10972,1,0,0:0:0:0:
336,100,11315,1,0,0:0:0:0:
356,104,11487,1,0,0:0:0:0:
356,104,11572,1,0,0:0:0:0:
356,104,11658,1,8,0:0:0:0:
340,92,11830,1,8,0:0:0:0:
352,100,11915,1,8,0:0:0:0:
352,108,12001,1,0,0:0:0:0:
348,96,12172,1,0,0:0:0:0:
348,96,12344,1,8,0:0:0:0:
344,108,12515,1,0,0:0:0:0:
344,92,12601,1,0,0:0:0:0:
344,92,12687,1,8,0:0:0:0:
344,96,12858,1,0,0:0:0:0:
336,92,13030,1,8,0:0:0:0:
340,100,13372,1,0,0:0:0:0:
340,92,13544,1,0,0:0:0:0:
304,124,13630,1,0,0:0:0:0:
328,108,13715,1,8,0:0:0:0:
328,104,13887,1,0,0:0:0:0:
328,96,14058,1,0,0:0:0:0:
344,96,14230,1,8,0:0:0:0:
344,96,14315,1,0,0:0:0:0:
344,92,14401,1,8,0:0:0:0:
332,96,14744,1,0,0:0:0:0:
320,100,14830,1,0,0:0:0:0:
320,100,14915,1,8,0:0:0:0:
320,100,15001,1,0,0:0:0:0:
320,100,15087,1,8,0:0:0:0:
320,100,15258,1,0,0:0:0:0:
328,116,15430,1,0,0:0:0:0:
324,116,15601,1,8,0:0:0:0:
320,116,15687,1,0,0:0:0:0:
324,116,15772,1,8,0:0:0:0:
348,104,15944,1,0,0:0:0:0:
348,104,16115,1,0,0:0:0:0:
332,104,16458,1,8,0:0:0:0:
328,104,16544,1,8,0:0:0:0:
328,104,16630,1,0,0:0:0:0:
328,104,16801,1,8,0:0:0:0:
328,104,16972,1,0,0:0:0:0:
328,104,17144,1,8,0:0:0:0:
328,104,17230,1,8,0:0:0:0:
328,104,17315,1,0,0:0:0:0:
328,104,17487,1,12,0:0:0:0:
339,102,17830,1,8,0:0:0:0:
339,102,18001,1,0,0:0:0:0:
339,103,18172,1,0,0:0:0:0:
339,103,18258,1,0,0:0:0:0:
339,103,18344,1,8,0:0:0:0:
339,103,18515,1,8,0:0:0:0:
342,110,18601,1,0,0:0:0:0:
342,110,18687,1,8,0:0:0:0:
342,110,18772,1,0,0:0:0:0:
342,110,18858,1,0,0:0:0:0:
342,110,19030,1,0,0:0:0:0:
342,110,19201,1,8,0:0:0:0:
342,110,19372,1,0,0:0:0:0:
342,110,19544,1,8,0:0:0:0:
342,110,19630,1,0,0:0:0:0:
342,110,19715,1,8,0:0:0:0:
342,110,19887,1,8,0:0:0:0:
342,110,19972,1,8,0:0:0:0:
342,110,20058,1,0,0:0:0:0:
342,110,20230,1,0,0:0:0:0:
342,110,20401,1,0,0:0:0:0:
342,110,20572,1,8,0:0:0:0:
329,104,20915,1,0,0:0:0:0:
329,104,21087,1,0,0:0:0:0:
329,104,21172,1,0,0:0:0:0:
329,104,21258,1,8,0:0:0:0:
338,99,21430,1,0,0:0:0:0:
334,113,21601,1,8,0:0:0:0:
334,113,21944,1,8,0:0:0:0:
334,113,22115,1,0,0:0:0:0:
318,133,22287,1,8,0:0:0:0:
318,133,22458,1,8,0:0:0:0:
318,133,22630,1,8,0:0:0:0:
318,133,22801,1,8,0:0:0:0:
318,133,22972,1,4,0:0:0:0:
318,133,23230,1,8,0:0:0:0:
318,133,23487,1,0,0:0:0:0:
318,133,23658,1,0,0:0:0:0:
318,133,23830,1,8,0:0:0:0:
318,133,24001,1,8,0:0:0:0:
318,133,24344,1,0,0:0:0:0:
320,136,24601,1,8,0:0:0:0:
320,136,24858,1,0,0:0:0:0:
320,136,25030,1,8,0:0:0:0:
320,136,25201,1,0,0:0:0:0:
320,136,25372,1,12,0:0:0:0:
320,136,25715,1,12,0:0:0:0:
324,132,25972,1,8,0:0:0:0:
324,132,26230,1,8,0:0:0:0:
324,152,26401,1,0,0:0:0:0:
320,152,26572,1,8,0:0:0:0:
328,148,26744,1,8,0:0:0:0:
318,140,26830,1,0,0:0:0:0:
318,140,26915,1,8,0:0:0:0:
328,148,27087,1,12,0:0:0:0:
324,152,27430,1,12,0:0:0:0:
328,148,27601,1,0,0:0:0:0:
328,148,27772,1,12,0:0:0:0:
328,148,27944,1,0,0:0:0:0:
328,148,28115,1,12,0:0:0:0:
328,148,28287,1,0,0:0:0:0:
328,148,28372,1,0,0:0:0:0:
324,152,28458,1,8,0:0:0:0:
328,148,28715,1,0,0:0:0:0:
328,148,28801,1,8,0:0:0:0:
328,148,28972,1,0,0:0:0:0:
328,148,29058,1,8,0:0:0:0:
328,148,29144,1,0,0:0:0:0:
324,152,29315,1,8,0:0:0:0:
324,152,29487,1,0,0:0:0:0:
328,148,29830,1,4,0:0:0:0:
328,156,30087,1,0,0:0:0:0:
328,156,30172,1,8,0:0:0:0:
332,152,30344,1,8,0:0:0:0:
332,152,30515,1,0,0:0:0:0:
332,152,30601,1,0,0:0:0:0:
332,152,30687,1,0,0:0:0:0:
328,148,30772,1,0,0:0:0:0:
332,152,30858,1,8,0:0:0:0:
328,156,31201,1,4,0:0:0:0:
344,152,31458,1,8,0:0:0:0:
342,152,31544,1,8,0:0:0:0:
344,152,31715,1,8,0:0:0:0:
344,152,31887,1,4,0:0:0:0:
344,152,32144,1,8,0:0:0:0:
341,156,32230,1,8,0:0:0:0:
336,152,32401,1,8,0:0:0:0:
344,160,32572,1,4,0:0:0:0:
344,160,32744,1,8,0:0:0:0:
344,160,32915,1,0,0:0:0:0:
328,149,33087,1,8,0:0:0:0:
344,160,33258,1,0,0:0:0:0:
344,157,33344,1,0,0:0:0:0:
344,160,33430,1,0,0:0:0:0:
344,160,33515,1,0,0:0:0:0:
344,160,33601,1,8,0:0:0:0:
340,152,33944,1,4,0:0:0:0:
332,152,34201,1,8,0:0:0:0:
332,152,34287,1,0,0:0:0:0:
332,152,34458,1,8,0:0:0:0:
332,152,34630,1,0,0:0:0:0:
332,152,34801,1,8,0:0:0:0:
332,152,34972,1,0,0:0:0:0:
332,152,35058,1,8,0:0:0:0:
332,152,35144,1,8,0:0:0:0:
332,152,35315,1,0,0:0:0:0:
336,156,35572,1,8,0:0:0:0:
336,156,35658,1,0,0:0:0:0:
336,156,35830,1,0,0:0:0:0:
336,156,36001,1,8,0:0:0:0:
336,156,36087,1,0,0:0:0:0:
328,168,36172,1,8,0:0:0:0:
336,160,36344,1,8,0:0:0:0:
332,160,36430,1,0,0:0:0:0:
336,156,36515,1,8,0:0:0:0:
336,156,36687,1,0,0:0:0:0:
332,160,36944,1,0,0:0:0:0:
332,160,37030,1,8,0:0:0:0:
332,160,37201,1,0,0:0:0:0:
336,160,37372,1,0,0:0:0:0:
332,160,37544,1,8,0:0:0:0:
332,160,37715,1,8,0:0:0:0:
332,160,37801,1,8,0:0:0:0:
331,153,37887,1,0,0:0:0:0:
332,160,38058,1,8,0:0:0:0:
332,160,38315,1,8,0:0:0:0:
332,160,38401,1,0,0:0:0:0:
332,160,38487,1,0,0:0:0:0:
332,160,38572,1,8,0:0:0:0:
332,160,38744,1,8,0:0:0:0:
332,160,38915,1,0,0:0:0:0:
332,160,39087,1,8,0:0:0:0:
332,160,39430,1,4,0:0:0:0:
332,160,39601,1,0,0:0:0:0:
332,160,39772,1,8,0:0:0:0:
355,182,39858,1,0,0:0:0:0:
332,160,39944,1,0,0:0:0:0:
332,160,40115,1,0,0:0:0:0:
332,160,40287,1,8,0:0:0:0:
332,160,40458,1,8,0:0:0:0:
332,160,40544,1,0,0:0:0:0:
332,160,40630,1,8,0:0:0:0:
332,160,40801,1,0,0:0:0:0:
332,160,40972,1,0,0:0:0:0:
332,160,41058,1,0,0:0:0:0:
332,160,41144,1,8,0:0:0:0:
332,160,41315,1,0,0:0:0:0:
332,160,41487,1,8,0:0:0:0:
332,160,41658,1,0,0:0:0:0:
332,160,41830,1,8,0:0:0:0:
332,160,41915,1,8,0:0:0:0:
332,164,42001,1,8,0:0:0:0:
332,160,42172,1,0,0:0:0:0:
332,164,42430,1,0,0:0:0:0:
324,164,42515,1,8,0:0:0:0:
332,168,42687,1,0,0:0:0:0:
324,164,42858,1,0,0:0:0:0:
328,172,43030,1,8,0:0:0:0:
324,172,43201,1,0,0:0:0:0:
328,172,43287,1,8,0:0:0:0:
324,172,43372,1,8,0:0:0:0:
324,172,43544,1,12,0:0:0:0:
328,172,43801,1,12,0:0:0:0:
328,172,44058,1,8,0:0:0:0:
328,172,44230,1,0,0:0:0:0:
324,172,44401,1,8,0:0:0:0:
324,172,44572,1,8,0:0:0:0:
328,172,44915,1,0,0:0:0:0:
320,176,45087,1,8,0:0:0:0:
320,176,45172,1,8,0:0:0:0:
320,176,45258,1,0,0:0:0:0:
320,176,45430,1,8,0:0:0:0:
320,176,45601,1,0,0:0:0:0:
320,176,45772,1,8,0:0:0:0:
346,168,45944,1,8,0:0:0:0:
320,176,46030,1,0,0:0:0:0:
320,176,46115,1,8,0:0:0:0:
320,176,46287,1,0,0:0:0:0:
320,176,46630,1,0,0:0:0:0:
320,176,46801,1,8,0:0:0:0:
320,176,46887,1,8,0:0:0:0:
320,176,46972,1,0,0:0:0:0:
320,176,47144,1,8,0:0:0:0:
320,176,47315,1,0,0:0:0:0:
320,176,47401,1,8,0:0:0:0:
320,176,47487,1,8,0:0:0:0:
320,176,47658,1,0,0:0:0:0:
320,176,47830,1,8,0:0:0:0:
320,176,47915,1,8,0:0:0:0:
324,180,48001,1,0,0:0:0:0:
320,176,48172,1,8,0:0:0:0:
320,176,48344,1,0,0:0:0:0:
320,176,48515,1,8,0:0:0:0:
327,178,48601,1,8,0:0:0:0:
320,176,48687,1,0,0:0:0:0:
320,176,48772,1,0,0:0:0:0:
320,176,48858,1,8,0:0:0:0:
320,176,49030,1,8,0:0:0:0:
320,176,49201,1,0,0:0:0:0:
320,176,49287,1,0,0:0:0:0:
320,176,49372,1,8,0:0:0:0:
320,176,49544,1,8,0:0:0:0:
320,176,49715,1,0,0:0:0:0:
312,172,49887,1,0,0:0:0:0:
312,172,49972,1,8,0:0:0:0:
312,172,50058,1,0,0:0:0:0:
320,176,50401,1,0,0:0:0:0:
319,164,50487,1,0,0:0:0:0:
312,172,50572,1,0,0:0:0:0:
312,172,50658,1,0,0:0:0:0:
316,180,50744,1,8,0:0:0:0:
312,172,50915,1,8,0:0:0:0:
312,172,51087,1,0,0:0:0:0:
312,172,51172,1,0,0:0:0:0:
312,172,51258,1,8,0:0:0:0:
312,172,51430,1,8,0:0:0:0:
312,173,51515,1,0,0:0:0:0:
312,172,51601,1,8,0:0:0:0:
312,172,51772,1,0,0:0:0:0:
318,174,51858,1,0,0:0:0:0:
312,172,51944,1,0,0:0:0:0:
312,172,52030,1,0,0:0:0:0:
312,172,52115,1,8,0:0:0:0:
312,172,52287,1,8,0:0:0:0:
316,175,52372,1,0,0:0:0:0:
320,134,52458,1,8,0:0:0:0:
312,172,52630,1,0,0:0:0:0:
312,172,52801,1,8,0:0:0:0:
309,155,52887,1,0,0:0:0:0:
309,155,52972,1,8,0:0:0:0:
312,172,53144,1,0,0:0:0:0:
312,172,53315,1,8,0:0:0:0:
312,176,53658,1,8,0:0:0:0:
312,176,53830,1,0,0:0:0:0:
312,176,54001,1,8,0:0:0:0:
307,164,54172,1,8,0:0:0:0:
307,164,54258,1,0,0:0:0:0:
312,176,54344,1,8,0:0:0:0:
312,176,54515,1,8,0:0:0:0:
305,161,54601,1,0,0:0:0:0:
308,172,54687,1,0,0:0:0:0:
312,176,54772,1,8,0:0:0:0:
312,176,54944,1,0,0:0:0:0:
312,176,55030,1,8,0:0:0:0:
290,171,55115,1,8,0:0:0:0:
312,176,55201,1,0,0:0:0:0:
331,174,55372,1,0,0:0:0:0:
308,172,55544,1,8,0:0:0:0:
308,172,55715,1,8,0:0:0:0:
312,176,55772,1,8,0:0:0:0:
312,176,55830,1,8,0:0:0:0:
312,176,55887,1,0,0:0:0:0:
308,176,58630,1,6,0:0:0:0:
297,173,58972,1,0,0:0:0:0:
308,176,59144,1,2,0:0:0:0:
312,180,59315,1,2,0:0:0:0:
312,180,59487,1,0,0:0:0:0:
312,180,59658,1,2,0:0:0:0:
312,180,59830,1,2,0:0:0:0:
312,180,60001,1,2,0:0:0:0:
312,180,60344,1,0,0:0:0:0:
312,180,60687,1,2,0:0:0:0:
312,180,60858,1,2,0:0:0:0:
312,180,61030,1,0,0:0:0:0:
312,180,61372,1,0,0:0:0:0:
312,180,61544,1,2,0:0:0:0:
312,180,61715,1,2,0:0:0:0:
312,180,61887,1,2,0:0:0:0:
312,180,62058,1,0,0:0:0:0:
312,180,62230,1,0,0:0:0:0:
312,180,62401,1,2,0:0:0:0:
312,180,62572,1,2,0:0:0:0:
312,180,62744,1,2,0:0:0:0:
312,180,63087,1,0,0:0:0:0:
312,180,63258,1,2,0:0:0:0:
312,180,63430,1,2,0:0:0:0:
316,184,63772,1,0,0:0:0:0:
316,184,64115,1,0,0:0:0:0:
316,184,64287,1,8,0:0:0:0:
316,184,64458,1,8,0:0:0:0:
316,184,64630,1,0,0:0:0:0:
316,184,64801,1,2,0:0:0:0:
316,184,65144,1,0,0:0:0:0:
316,184,65315,1,2,0:0:0:0:
316,184,65487,1,2,0:0:0:0:
316,184,65658,1,2,0:0:0:0:
316,184,65830,1,0,0:0:0:0:
316,184,66001,1,2,0:0:0:0:
316,184,66172,1,0,0:0:0:0:
316,184,66515,1,0,0:0:0:0:
316,184,66687,1,2,0:0:0:0:
316,184,66858,1,0,0:0:0:0:
316,184,67030,1,0,0:0:0:0:
316,184,67201,1,2,0:0:0:0:
316,184,67372,1,2,0:0:0:0:
316,184,67715,1,2,0:0:0:0:
316,184,68058,1,0,0:0:0:0:
366,142,69601,5,4,0:0:0:0:
366,142,69944,1,0,0:0:0:0:
366,142,70115,1,8,0:0:0:0:
366,142,70287,1,8,0:0:0:0:
361,134,70630,1,8,0:0:0:0:
361,134,70801,1,4,0:0:0:0:
361,134,70972,1,4,0:0:0:0:
366,142,71315,1,8,0:0:0:0:
366,142,71658,1,4,0:0:0:0:
366,142,71830,1,4,0:0:0:0:
366,142,72001,1,4,0:0:0:0:
359,141,72344,1,4,0:0:0:0:
353,136,72687,1,8,0:0:0:0:
369,137,72858,1,8,0:0:0:0:
353,136,73030,1,0,0:0:0:0:
353,136,73201,1,8,0:0:0:0:
353,136,73372,1,8,0:0:0:0:
353,136,73544,1,4,0:0:0:0:
369,137,73715,1,4,0:0:0:0:
365,136,74058,1,4,0:0:0:0:
369,136,74401,1,12,0:0:0:0:
369,137,74572,1,4,0:0:0:0:
374,137,74744,1,4,0:0:0:0:
372,141,74915,1,0,0:0:0:0:
371,141,75001,1,0,0:0:0:0:
372,141,75087,1,8,0:0:0:0:
360,138,75258,1,0,0:0:0:0:
369,145,75430,1,8,0:0:0:0:
369,145,75515,1,8,0:0:0:0:
371,146,75601,1,0,0:0:0:0:
369,145,75772,1,8,0:0:0:0:
371,142,76115,1,0,0:0:0:0:
375,143,76201,1,0,0:0:0:0:
397,120,76287,1,0,0:0:0:0:
376,143,76372,1,0,0:0:0:0:
370,148,76458,1,8,0:0:0:0:
370,148,76630,1,0,0:0:0:0:
383,145,76715,1,0,0:0:0:0:
369,135,76801,1,8,0:0:0:0:
363,133,76972,1,8,0:0:0:0:
363,133,77144,1,0,0:0:0:0:
376,139,77487,1,8,0:0:0:0:
371,142,77572,1,8,0:0:0:0:
373,142,77658,1,0,0:0:0:0:
367,142,77744,1,0,0:0:0:0:
376,150,77830,1,8,0:0:0:0:
376,143,78001,1,0,0:0:0:0:
376,151,78087,1,0,0:0:0:0:
381,143,78172,1,8,0:0:0:0:
376,157,78258,1,0,0:0:0:0:
355,143,78344,1,8,0:0:0:0:
400,137,78515,1,8,0:0:0:0:
375,147,78687,1,0,0:0:0:0:
376,146,78772,1,0,0:0:0:0:
376,150,78858,1,8,0:0:0:0:
376,157,78944,1,8,0:0:0:0:
383,140,79030,1,8,0:0:0:0:
383,140,79115,1,8,0:0:0:0:
381,142,79201,1,0,0:0:0:0:
378,151,79372,1,0,0:0:0:0:
382,150,79544,1,8,0:0:0:0:
299,152,79715,1,0,0:0:0:0:
382,150,79887,1,8,0:0:0:0:
355,150,79972,1,8,0:0:0:0:
382,150,80058,1,0,0:0:0:0:
355,150,80144,1,0,0:0:0:0:
382,150,80230,1,8,0:0:0:0:
357,158,80572,1,12,0:0:0:0:
318,162,80830,1,8,0:0:0:0:
386,150,81087,1,8,0:0:0:0:
386,150,81172,1,0,0:0:0:0:
382,150,81344,1,8,0:0:0:0:
384,113,81515,1,0,0:0:0:0:
383,114,81601,1,8,0:0:0:0:
383,114,81772,1,8,0:0:0:0:
383,114,81944,1,0,0:0:0:0:
368,117,82201,1,8,0:0:0:0:
300,124,82287,1,0,0:0:0:0:
308,124,82458,1,8,0:0:0:0:
308,124,82630,1,0,0:0:0:0:
304,119,82715,1,8,0:0:0:0:
296,118,82972,1,8,0:0:0:0:
300,124,83144,1,0,0:0:0:0:
300,124,83315,1,8,0:0:0:0:
300,124,83487,1,0,0:0:0:0:
300,124,83572,1,0,0:0:0:0:
300,124,83658,1,8,0:0:0:0:
300,124,83830,1,0,0:0:0:0:
300,124,84087,1,8,0:0:0:0:
364,108,84172,1,0,0:0:0:0:
300,124,84258,1,0,0:0:0:0:
300,124,84344,1,8,0:0:0:0:
300,124,84515,1,0,0:0:0:0:
300,124,84687,1,8,0:0:0:0:
312,136,84944,1,8,0:0:0:0:
312,136,85030,1,0,0:0:0:0:
312,136,85201,1,8,0:0:0:0:
316,136,85372,1,0,0:0:0:0:
316,136,85458,1,8,0:0:0:0:
316,136,85630,1,0,0:0:0:0:
316,136,85715,1,8,0:0:0:0:
316,136,85887,1,8,0:0:0:0:
316,136,86058,1,0,0:0:0:0:
316,136,86315,1,8,0:0:0:0:
316,136,86572,1,8,0:0:0:0:
316,136,86830,1,8,0:0:0:0:
316,136,86915,1,0,0:0:0:0:
316,136,87001,1,0,0:0:0:0:
316,136,87087,1,8,0:0:0:0:
316,136,87258,1,8,0:0:0:0:
316,136,87430,1,8,0:0:0:0:
316,136,87601,1,0,0:0:0:0:
316,136,87687,1,8,0:0:0:0:
316,136,87944,1,8,0:0:0:0:
316,136,88115,1,0,0:0:0:0:
316,136,88201,1,8,0:0:0:0:
316,136,88372,1,0,0:0:0:0:
316,136,88458,1,8,0:0:0:0:
316,136,88630,1,8,0:0:0:0:
316,136,88801,1,0,0:0:0:0:
316,136,89058,1,8,0:0:0:0:
316,136,89144,1,0,0:0:0:0:
316,136,89315,1,2,0:0:0:0:
316,136,89487,1,0,0:0:0:0:
316,136,89572,1,8,0:0:0:0:
316,136,89658,1,8,0:0:0:0:
316,136,89830,1,8,0:0:0:0:
316,136,90001,1,0,0:0:0:0:
316,136,90172,1,12,0:0:0:0:
316,136,90430,1,12,0:0:0:0:
316,136,90687,1,12,0:0:0:0:
316,136,90944,1,12,0:0:0:0:
316,136,91201,1,12,0:0:0:0:
333,130,91372,1,8,0:0:0:0:
309,131,91458,1,8,0:0:0:0:
344,141,91544,1,0,0:0:0:0:
316,136,91715,1,8,0:0:0:0:
316,136,91887,1,0,0:0:0:0:
316,136,92058,1,8,0:0:0:0:
316,136,92230,1,0,0:0:0:0:
316,136,92572,1,8,0:0:0:0:
316,136,92744,1,0,0:0:0:0:
326,145,92830,1,0,0:0:0:0:
316,136,92915,1,8,0:0:0:0:
316,136,93087,1,0,0:0:0:0:
306,140,93172,1,0,0:0:0:0:
320,144,93258,1,8,0:0:0:0:
320,144,93430,1,8,0:0:0:0:
320,144,93601,1,0,0:0:0:0:
320,144,93944,1,8,0:0:0:0:
320,144,94115,1,8,0:0:0:0:
320,144,94287,1,0,0:0:0:0:
310,134,94458,1,0,0:0:0:0:
320,144,94544,1,8,0:0:0:0:
320,144,94630,1,8,0:0:0:0:
320,144,94801,1,8,0:0:0:0:
320,144,94972,1,0,0:0:0:0:
320,144,95144,1,8,0:0:0:0:
320,144,95230,1,0,0:0:0:0:
320,144,95315,1,8,0:0:0:0:
320,144,95487,1,0,0:0:0:0:
320,144,95658,1,8,0:0:0:0:
320,144,95830,1,0,0:0:0:0:
320,144,95915,1,8,0:0:0:0:
320,144,96087,1,0,0:0:0:0:
320,144,96172,1,8,0:0:0:0:
320,144,96344,1,0,0:0:0:0:
320,144,96430,1,8,0:0:0:0:
321,133,96515,1,0,0:0:0:0:
320,144,96601,1,0,0:0:0:0:
321,131,96687,1,8,0:0:0:0:
326,130,96858,1,0,0:0:0:0:
320,144,97030,1,4,0:0:0:0:
320,144,97372,1,8,0:0:0:0:
320,144,97544,1,8,0:0:0:0:
320,144,97715,1,8,0:0:0:0:
320,144,97801,1,8,0:0:0:0:
320,144,97887,1,8,0:0:0:0:
320,144,97972,1,8,0:0:0:0:
320,144,98058,1,0,0:0:0:0:
320,144,98230,1,0,0:0:0:0:
320,144,98315,1,8,0:0:0:0:
320,144,98401,1,0,0:0:0:0:
335,150,98572,1,0,0:0:0:0:
320,144,98658,1,8,0:0:0:0:
320,144,98744,1,8,0:0:0:0:
320,144,98915,1,8,0:0:0:0:
313,144,99001,1,8,0:0:0:0:
320,144,99172,1,0,0:0:0:0:
320,144,99258,1,8,0:0:0:0:
320,144,99430,1,0,0:0:0:0:
320,144,99515,1,8,0:0:0:0:
320,144,99601,1,0,0:0:0:0:
320,144,99687,1,8,0:0:0:0:
320,144,99772,1,0,0:0:0:0:
320,144,99944,1,0,0:0:0:0:
320,144,100115,1,0,0:0:0:0:
320,144,100287,1,0,0:0:0:0:
320,144,100458,1,8,0:0:0:0:
320,144,100544,1,8,0:0:0:0:
320,144,100630,1,0,0:0:0:0:
320,144,100715,1,8,0:0:0:0:
320,144,100801,1,0,0:0:0:0:
320,144,100972,1,8,0:0:0:0:
320,144,101058,1,8,0:0:0:0:
320,144,101144,1,0,0:0:0:0:
320,144,101315,1,8,0:0:0:0:
320,144,101658,1,8,0:0:0:0:
336,161,101830,1,0,0:0:0:0:
326,136,101915,1,0,0:0:0:0:
326,136,102001,1,0,0:0:0:0:
326,136,102087,1,0,0:0:0:0:
326,136,102172,1,0,0:0:0:0:
326,136,102258,1,0,0:0:0:0:
326,136,102344,1,8,0:0:0:0:
320,144,102515,1,4,0:0:0:0:
