osu file format v14

[General]
AudioFilename: P-Light - FUNKY SUMMER BEACH.mp3
AudioLeadIn: 0
PreviewTime: 58923
Countdown: 1
SampleSet: Normal
StackLeniency: 0.2
Mode: 0
LetterboxInBreaks: 1
WidescreenStoryboard: 1

[Editor]
DistanceSpacing: 1
BeatDivisor: 4
GridSize: 4
TimelineZoom: 2.799999

[Metadata]
Title:FUNKY SUMMER BEACH
TitleUnicode:FUNKY SUMMER BEACH
Artist:P*Light
ArtistUnicode:P*Light
Creator:Chordzi
Version:Umi
Source:jubeat saucer fulfill
Tags:yf_bmp fanzhen0019 Lama Poluna
BeatmapID:556757
BeatmapSetID:240675

[Difficulty]
HPDrainRate:7
CircleSize:4.3
OverallDifficulty:9
ApproachRate:9.4
SliderMultiplier:2
SliderTickRate:1

[Events]
//Background and Video events
0,0,"45259808.jpg",0,0
//Break Periods
//Storyboard Layer 0 (Background)
//Storyboard Layer 1 (Fail)
//Storyboard Layer 2 (Pass)
//Storyboard Layer 3 (Foreground)
//Storyboard Sound Samples

[TimingPoints]
1323,342.857142857143,4,1,1,60,1,0
1323,-200,4,1,1,60,0,0
1665,-200,4,1,1,80,0,0
2008,-200,4,1,1,60,0,0
3037,-125,4,1,1,60,0,0
3380,-100,4,1,1,60,0,0
3723,-76.9230769230769,4,1,1,60,0,0
4065,-200,4,1,1,60,0,0
4408,-200,4,1,1,80,0,0
4751,-200,4,1,1,60,0,0
5437,-83.3333333333333,4,1,1,60,0,0
6123,-100,4,1,1,60,0,0
6808,-125,4,1,1,60,0,0
7151,-125,4,1,1,80,0,0
7323,-125,4,1,1,60,0,0
8008,-125,4,1,1,60,0,0
8180,-100,4,1,1,60,0,0
8694,-100,4,1,1,40,0,0
8865,-83.3333333333333,4,1,1,60,0,0
9551,-66.6666666666667,4,1,1,60,0,0
10065,-100,4,1,1,60,0,0
10923,-200,4,1,1,60,0,0
11608,-100,4,1,1,60,0,0
12808,-66.6666666666667,4,1,1,60,0,0
13151,-100,4,1,1,60,0,0
13323,-66.6666666666667,4,1,1,60,0,0
14008,-83.3333333333333,4,1,1,60,0,0
14694,-66.6666666666667,4,1,1,60,0,0
15208,-100,4,1,1,60,0,0
15551,-66.6666666666667,4,1,1,60,0,0
16065,-83.3333333333333,4,1,1,60,0,0
17437,-66.6666666666667,4,1,1,60,0,0
17951,-100,4,1,1,60,0,0
18123,-66.6666666666667,4,1,1,60,0,0
19323,-100,4,1,1,60,0,0
19494,-66.6666666666667,4,1,1,60,0,0
19837,-100,4,1,1,60,0,0
20180,-66.6666666666667,4,1,1,60,0,0
20523,-83.3333333333333,4,1,1,60,0,0
21551,-66.6666666666667,4,1,1,60,0,0
21808,-100,4,1,1,60,0,0
23265,-125,4,1,1,50,0,0
24637,-100,4,1,1,50,0,0
25323,-125,4,1,1,60,0,0
25665,-200,4,1,1,60,0,0
26008,-83.3333333333333,4,1,1,45,0,0
26180,-125,4,1,1,60,0,0
27380,-125,4,1,1,60,0,0
28065,-66.6666666666667,4,1,1,60,0,0
28751,-125,4,1,1,60,0,0
29780,-58.8235294117647,4,1,1,60,0,0
30123,-100,4,1,1,60,0,0
30808,-125,4,1,1,60,0,0
31151,-50,4,1,1,60,0,0
31494,-100,4,1,1,60,0,0
32865,-66.6666666666667,4,1,2,60,0,0
33894,-50,4,1,2,60,0,0
34237,-100,4,1,2,60,0,1
34494,-66.6666666666667,4,1,2,60,0,1
35865,-83.3333333333333,4,1,2,60,0,1
36294,-125,4,1,2,60,0,1
36637,-83.3333333333333,4,1,2,60,0,1
37237,-66.6666666666667,4,1,2,60,0,1
37494,-100,4,1,2,60,0,1
38351,-55.5555555555556,4,1,2,60,0,1
38865,-83.3333333333333,4,1,2,60,0,1
39380,-100,4,1,2,60,0,0
39723,-83.3333333333333,4,1,2,60,0,1
42123,-100,4,1,2,60,0,1
42208,-100,4,1,2,45,0,1
42294,-100,4,1,2,60,0,1
42380,-100,4,1,2,45,0,1
42465,-83.3333333333333,4,1,2,60,0,1
43151,-100,4,1,2,60,0,1
43494,-66.6666666666667,4,1,2,60,0,1
43837,-66.6666666666667,4,1,2,60,0,1
44865,-200,4,1,2,60,0,0
45208,-100,4,1,2,60,0,1
51723,-66.6666666666667,4,1,2,60,0,1
52065,-66.6666666666667,4,1,2,50,0,1
53437,-100,4,1,2,60,0,1
54808,-66.6666666666667,4,1,2,60,0,1
55494,-83.3333333333333,4,1,2,60,0,1
56180,-83.3333333333333,4,1,2,60,0,0
56201,-83.3333333333333,4,1,2,5,0,0
56523,-83.3333333333333,4,1,2,10,0,0
56865,-83.3333333333333,4,1,2,20,0,0
57208,-83.3333333333333,4,1,2,30,0,0
57551,-83.3333333333333,4,1,2,40,0,0
57894,-83.3333333333333,4,1,2,50,0,0
58837,-83.3333333333333,4,2,2,5,0,0
58923,-133.333333333333,4,2,2,60,0,0
59180,-133.333333333333,4,2,2,5,0,0
59265,-200,4,2,2,60,0,0
61323,-133.333333333333,4,2,2,60,0,0
62694,-83.3333333333333,4,2,2,60,0,0
63380,-133.333333333333,4,2,2,60,0,0
64408,-200,4,2,2,60,0,0
65094,-133.333333333333,4,2,2,60,0,0
65437,-100,4,2,2,60,0,0
65780,-200,4,2,2,60,0,0
66465,-133.333333333333,4,2,2,60,0,0
67151,-133.333333333333,4,2,2,60,0,0
68351,-200,4,2,2,60,0,0
69894,-66.6666666666667,4,1,2,60,0,0
71608,-100,4,1,2,60,0,0
72337,-100,4,1,2,20,0,0
72465,-100,4,1,2,40,0,0
72551,-100,4,1,2,50,0,0
72637,-66.6666666666667,4,1,2,60,0,0
73837,-66.6666666666667,4,1,2,60,0,0
75037,-66.6666666666667,4,1,2,60,0,0
75380,-100,4,1,2,85,0,0
75465,-100,4,1,2,60,0,0
76065,-100,4,1,2,85,0,0
76151,-100,4,1,2,60,0,0
76751,-100,4,1,2,85,0,0
76837,-100,4,1,2,60,0,0
77437,-100,4,1,2,85,0,0
77523,-100,4,1,2,60,0,0
79494,-200,4,1,2,60,0,0
80180,-66.6666666666667,4,1,2,60,0,0
80865,-100,4,1,2,60,0,1
81123,-166.666666666667,4,1,2,60,0,1
81380,-83.3333333333333,4,1,2,60,0,1
81637,-100,4,1,2,60,0,1
81894,-50,4,1,2,60,0,1
82237,-66.6666666666667,4,1,2,60,0,1
82751,-83.3333333333333,4,1,2,60,0,1
83608,-100,4,1,2,60,0,1
83865,-133.333333333333,4,1,2,60,0,1
84123,-100,4,1,2,60,0,1
84380,-66.6666666666667,4,1,2,60,0,1
84637,-50,4,1,2,60,0,1
84980,-66.6666666666667,4,1,2,60,0,1
86008,-83.3333333333333,4,1,2,60,0,1
86865,-133.333333333333,4,1,2,60,0,1
87380,-66.6666666666667,4,1,2,60,0,1
87723,-83.3333333333333,4,1,2,60,0,1
88237,-133.333333333333,4,1,2,60,0,1
89094,-66.6666666666667,4,1,2,60,0,1
89608,-83.3333333333333,4,1,2,60,0,1
90465,-133.333333333333,4,1,2,60,0,1
90723,-66.6666666666667,4,1,2,60,0,1
91237,-333.333333333333,4,1,2,60,0,1
91494,-50,4,1,2,60,0,1
91751,-50,4,1,2,60,0,0
91837,-66.6666666666667,4,1,2,75,0,1
92608,-50,4,1,2,75,0,1
93465,-66.6666666666667,4,1,2,75,0,1
93723,-50,4,1,2,75,0,1
93894,-66.6666666666667,4,1,2,75,0,1
94408,-50,4,1,2,75,0,1
94580,-66.6666666666667,4,1,2,75,0,1
94923,-83.3333333333333,4,1,2,75,0,1
95094,-66.6666666666667,4,1,2,75,0,1
95351,-50,4,1,2,75,0,1
95608,-66.6666666666667,4,1,2,75,0,1
95951,-50,4,1,2,75,0,1
96294,-66.6666666666667,4,1,2,75,0,1
96465,-50,4,1,2,75,0,1
96723,-66.6666666666667,4,1,2,75,0,1
96980,-100,4,1,2,75,0,1
97323,-66.6666666666667,4,1,2,60,0,0
98351,-83.3333333333333,4,1,2,60,0,0
98951,-66.6666666666667,4,1,2,60,0,0
100065,-133.333333333333,4,1,2,60,0,0
100408,-100,4,1,2,60,0,0

[Colours]
Combo1 : 0,196,223
Combo2 : 252,192,248
Combo3 : 242,252,124
Combo4 : 169,173,192

[HitObjects]
384,200,1323,6,0,L|392:280,1,75,4|0,0:0|2:0,0:0:0:0:
436,340,1665,5,2,3:0:0:0:
428,136,1837,1,0,3:0:0:0:
472,204,2008,1,8,0:0:0:0:
436,44,2351,5,2,3:0:0:0:
384,200,2523,1,0,3:0:0:0:
312,108,2694,5,2,0:0:0:0:
304,304,2865,1,2,0:0:0:0:
472,204,3037,2,0,B|440:216|440:216|424:264|460:308,1,120,2|0,0:0|2:0,0:0:0:0:
388,336,3380,6,0,B|444:357|444:357|412:380|352:364,1,150,10|0,0:0|2:0,0:0:0:0:
304,304,3723,2,0,B|268:268|268:268|276:372|276:372|247:346,1,194.999991073609,2|0,0:0|2:0,0:0:0:0:
152,280,4065,6,0,L|144:200,1,75,4|0,0:0|2:0,0:0:0:0:
100,140,4408,5,2,3:0:0:0:
108,344,4579,1,0,3:0:0:0:
64,276,4750,1,8,0:0:0:0:
112,60,5094,5,2,3:0:0:0:
20,208,5265,1,0,3:0:0:0:
108,344,5437,6,0,B|104:260|104:260|140:288,1,119.999996337891,2|0,0:0|2:0,0:0:0:0:
200,312,5694,2,0,B|204:396|204:396|232:368,1,119.999996337891,2|0,0:0|2:0,0:0:0:0:
284,316,5951,1,2,0:0:0:0:
408,252,6123,6,0,L|410:276,1,25,10|0,0:0|2:0,0:0:0:0:
408,132,6294,2,0,L|418:83,1,50,2|0,0:0|2:0,0:0:0:0:
312,192,6465,2,0,B|256:196|256:196|228:212|228:212|168:188,1,150,10|0,0:0|2:0,0:0:0:0:
84,144,6808,6,0,B|76:192|76:192|88:264,1,120,4|0,0:0|2:0,0:0:0:0:
140,320,7151,5,2,3:0:0:0:
280,332,7323,2,0,L|320:320,1,40,2|0,3:0|2:0,0:0:0:0:
400,260,7494,2,0,B|388:296|388:296|392:316|392:316|376:377,1,120,8|0,0:0|2:0,0:0:0:0:
468,312,7837,5,2,3:0:0:0:
392,184,8008,2,0,L|400:144,1,40,2|0,3:0|2:0,0:0:0:0:
448,64,8180,6,0,P|400:64|372:24,1,100,2|2,0:0|0:0,0:3:0:0:
196,143,8523,2,0,P|223:104|272:104,1,100,2|0,0:0|2:0,0:0:0:0:
280,308,8865,6,0,B|268:260|280:212|280:212|212:256|244:312,1,179.999994506836,10|0,0:0|2:0,0:0:0:0:
216,356,9208,2,0,B|181:401|157:381|157:381|145:341|145:341|161:313|145:277,1,179.999994506836,2|0,0:0|0:0,0:0:0:0:
92,176,9551,6,0,B|42:232|42:232|35:158,1,150.000005722046,2|0,0:0|2:0,0:0:0:0:
36,80,9808,2,0,B|11:8|11:8|79:40,1,150.000005722046,2|0,0:0|2:0,0:0:0:0:
136,100,10065,2,0,B|188:96,1,50,2|0,0:0|2:0,0:0:0:0:
376,8,10237,5,10,0:0:0:0:
352,0,10580,5,2,0:0:0:0:
512,60,10751,2,0,L|500:108,1,50,0|0,0:0|2:0,0:0:0:0:
433,164,10923,6,0,L|408:164,1,25,2|0,0:0|2:0,0:0:0:0:
329,224,11094,2,0,L|304:224,1,25,0|0,0:0|2:0,0:0:0:0:
183,224,11265,6,0,L|208:224,1,25,2|0,0:0|2:0,0:0:0:0:
79,164,11437,2,0,L|104:164,1,25,0|0,0:0|2:0,0:0:0:0:
116,272,11608,5,2,0:0:0:0:
119,281,11694,1,0,0:0:0:0:
122,296,11780,1,0,0:0:0:0:
124,321,11865,1,0,0:0:0:0:
157,357,11951,5,2,0:0:0:0:
128,376,12037,1,0,0:0:0:0:
89,381,12123,1,0,0:0:0:0:
52,368,12208,1,0,0:0:0:0:
8,292,12294,5,6,0:0:0:0:
80,164,12465,1,0,2:0:0:0:
80,164,12551,1,0,2:0:0:0:
80,164,12637,2,0,L|136:160,1,50,10|0,0:0|2:0,0:0:0:0:
184,224,12808,6,0,B|244:272|316:252|316:252|308:208|308:208|332:172,1,225.000008583069,2|0,0:0|2:0,0:0:0:0:
440,216,13151,2,0,L|392:228,1,50
276,352,13323,6,0,B|312:340|312:340|336:364|336:364|376:376|416:352,1,150.000005722046,10|0,0:0|1:0,0:0:0:0:
500,376,13580,1,0,2:0:0:0:
504,384,13665,5,2,0:0:0:0:
440,216,13837,1,0,0:0:0:0:
448,212,13922,1,0,1:0:0:0:
456,208,14008,2,0,B|448:160|448:160|476:128|464:84,1,119.999996337891,10|0,0:0|0:0,0:0:0:0:
352,52,14265,1,0,2:0:0:0:
352,52,14351,6,0,B|360:100|360:100|332:132|344:176,1,119.999996337891,2|0,0:0|1:0,0:0:0:0:
268,120,14608,1,0,2:0:0:0:
244,192,14694,6,0,B|256:236|256:236|300:256|300:256|256:320|292:388,1,225.000008583069,10|0,0:0|2:0,0:0:0:0:
368,328,15037,5,6,0:0:0:0:
448,168,15208,2,0,L|440:228,1,50,0|0,0:0|2:0,0:0:0:0:
376,344,15380,1,10,0:0:0:0:
208,292,15551,6,0,B|172:324|172:324|128:284|72:300,1,150.000005722046,2|0,0:0|0:0,0:0:0:0:
20,348,15808,1,0,0:0:0:0:
16,352,15894,2,0,P|56:348|84:324,1,75.0000028610231,2|0,0:0|2:0,0:0:0:0:
164,215,16065,6,0,L|176:91,1,119.999996337891,10|0,0:0|0:0,0:0:0:0:
32,12,16408,6,0,L|47:69,1,59.9999981689454,2|0,0:0|2:0,0:0:0:0:
176,96,16580,1,0,0:0:0:0:
188,100,16665,1,0,0:0:0:0:
200,104,16751,2,0,B|196:144|196:144|208:184|208:184|204:224,1,119.999996337891,10|0,0:0|0:0,0:0:0:0:
292,332,17008,1,0,2:0:0:0:
292,332,17094,6,0,B|296:292|296:292|284:252|284:252|288:212,1,119.999996337891,10|0,0:0|0:0,0:0:0:0:
368,236,17351,1,0,2:0:0:0:
376,324,17437,6,0,B|432:332|456:264|456:264|480:304,1,150.000005722046,10|0,0:0|0:0,0:0:0:0:
440,36,17780,5,6,0:0:0:0:
232,36,17951,2,0,L|280:48,1,50,0|0,0:0|2:0,0:0:0:0:
424,76,18123,2,0,B|400:44|400:44|412:8,1,75.0000028610231,10|0,0:0|0:0,0:0:0:0:
352,164,18294,2,0,B|318:152|318:152|286:176,1,75.0000028610231,2|0,0:0|2:0,0:0:0:0:
196,224,18465,6,0,B|130:227|130:227|86:179|86:179|60:229|60:229|104:228,1,225.000008583069,2|0,0:0|0:0,0:0:0:0:
84,240,18808,6,0,L|80:280,1,37.5000014305115,10|0,0:0|2:0,0:0:0:0:
164,140,18980,1,0,0:0:0:0:
24,344,19151,5,2,0:0:0:0:
240,364,19323,2,0,L|192:376,1,50,2|0,0:0|2:0,0:0:0:0:
336,312,19494,2,0,P|368:292|400:304,2,75.0000028610231,10|0|0,0:0|0:0|0:0,0:0:0:0:
504,364,19837,6,0,L|508:312,1,50,2|0,0:0|2:0,0:0:0:0:
360,256,20008,2,0,L|356:204,1,50,2|0,0:0|2:0,0:0:0:0:
452,128,20180,2,0,B|476:172|436:216|436:216|448:248|448:248|416:288|432:340,1,225.000008583069,10|0,0:0|2:0,0:0:0:0:
340,356,20523,6,0,P|280:352|252:300,1,119.999996337891,6|0,0:0|0:0,0:0:0:0:
160,344,20780,1,0,0:0:0:0:
144,360,20865,2,0,L|158:240,1,119.999996337891,10|0,0:0|0:0,0:0:0:0:
32,252,21123,5,0,0:0:0:0:
52,260,21208,2,0,L|40:201,1,59.9999981689454,2|0,0:0|2:0,0:0:0:0:
20,80,21380,2,0,L|8:104,3,19.9999993896485,2|0|0|0,0:0|0:0|0:0|2:0,0:0:0:0:
16,72,21551,6,0,B|64:56|64:56|40:48,1,75.0000028610231,10|0,0:0|2:0,0:0:0:0:
192,24,21723,2,0,B|144:40|144:40|168:48,1,75.0000028610231,2|0,0:0|2:0,0:0:0:0:
292,32,21894,6,0,L|344:40,1,50,8|0,0:0|0:0,0:0:0:0:
336,136,22065,1,2,0:2:0:0:
340,148,22151,1,0,0:0:0:0:
372,116,22237,6,0,L|424:124,1,50,8|0,0:0|0:0,0:0:0:0:
424,220,22408,1,2,0:2:0:0:
428,232,22494,1,0,0:0:0:0:
460,200,22580,6,0,L|512:208,1,50,8|0,0:0|0:0,0:0:0:0:
368,320,22751,2,0,L|318:327,1,50,8|0,0:0|0:0,0:0:0:0:
143,321,22923,6,0,L|192:328,1,50,8|0,0:0|0:0,0:0:0:0:
52,200,23094,2,0,L|2:207,1,50,8|8,0:0|0:0,0:0:0:0:
120,72,23265,6,0,P|109:110|117:149,1,80,2|0,0:3|3:0,0:0:0:0:
192,176,23523,1,0,3:0:0:0:
192,176,23608,1,2,0:3:0:0:
228,52,23780,6,0,L|268:48,1,40,0|0,3:0|3:0,0:0:0:0:
300,56,23951,2,0,P|310:94|302:133,1,80,2|0,0:3|3:0,0:0:0:0:
396,140,24208,1,0,3:0:0:0:
392,144,24294,6,0,L|472:132,1,80,2|0,0:3|3:0,0:0:0:0:
396,244,24551,1,0,3:0:0:0:
400,248,24637,6,0,L|288:232,1,100,2|0,0:3|3:0,0:0:0:0:
240,296,24894,1,0,3:0:0:0:
244,300,24980,6,0,P|256:256|244:204,1,100,2|0,0:3|3:0,0:0:0:0:
168,168,25237,1,0,3:0:0:0:
172,172,25323,6,0,L|164:128,1,40,2|0,0:3|3:0,0:0:0:0:
104,88,25494,2,0,L|96:48,1,40,0|0,3:0|3:0,0:0:0:0:
74,256,25665,6,0,L|0:261,1,75,6|0,0:0|0:0,0:0:0:0:
0,261,26008,6,0,P|36:326|84:334,1,119.999996337891,6|0,0:0|3:0,0:0:0:0:
100,345,26265,2,0,L|140:337,1,40,0|2,3:0|0:3,0:0:0:0:
300,344,26523,5,0,3:0:0:0:
300,344,26608,1,0,3:0:0:0:
300,344,26694,6,0,L|344:348,1,40,2|0,0:3|3:0,0:0:0:0:
488,320,26865,2,0,L|448:323,1,40,0|0,3:0|3:0,0:0:0:0:
292,264,27037,6,0,L|336:268,1,40,2|0,0:3|3:0,0:0:0:0:
480,240,27208,1,0,3:0:0:0:
220,380,27380,6,0,B|220:344|220:344|224:336|224:336|221:301,1,80,6|0,0:0|0:0,0:0:0:0:
292,4,27723,2,0,B|292:40|292:40|288:48|288:48|290:82,1,80,6|0,0:0|0:0,0:0:0:0:
440,296,28065,6,0,L|448:144,1,150.000005722046,6|0,0:0|0:0,0:0:0:0:
420,64,28323,1,0,0:0:0:0:
420,64,28408,6,0,B|404:-4|300:12|300:12|318:23|318:23|324:80,1,225.000008583069,6|0,0:0|0:2,0:0:0:0:
236,104,28751,6,0,L|232:64,1,40,4|0,0:2|0:0,0:0:0:0:
148,68,28923,2,0,L|144:28,1,40
4,160,29094,6,0,L|8:120,1,40
92,124,29265,2,0,L|96:84,1,40
92,316,29437,6,0,L|88:276,1,40,0|0,0:0|0:0,0:0:0:0:
4,280,29608,2,0,L|0:240,1,40
168,248,29780,6,0,B|212:212|212:212|200:264|200:264|256:236|284:252|284:252|304:272|280:336,1,255.000004863739,8|0,1:2|2:0,0:0:0:0:
380,340,30123,5,4,0:2:0:0:
416,332,30208,1,0,0:0:0:0:
452,256,30294,5,0,0:0:0:0:
416,248,30379,1,0,0:0:0:0:
376,176,30465,5,0,0:0:0:0:
384,140,30550,1,0,0:0:0:0:
444,84,30637,5,0,0:0:0:0:
436,48,30722,1,0,0:0:0:0:
364,16,30808,6,0,L|320:20,1,40,2|0,0:2|0:0,0:0:0:0:
260,72,30980,2,0,L|220:75,1,40,2|0,0:2|0:0,0:0:0:0:
40,80,31151,6,0,B|108:72|108:72|89:97,1,100
72,192,31323,2,0,P|50:182|40:160,2,50,2|0|2,0:2|0:0|0:2,0:0:0:0:
196,236,31494,5,6,0:0:0:0:
209,268,31579,1,0,0:0:0:0:
212,302,31665,1,2,0:0:0:0:
204,336,31751,1,0,0:0:0:0:
186,366,31837,5,6,0:0:0:0:
231,384,31922,1,0,0:0:0:0:
281,379,32008,1,2,0:0:0:0:
322,351,32094,1,0,0:0:0:0:
345,308,32180,6,0,L|324:320,1,25,6|0,0:0|0:0,0:0:0:0:
384,308,32265,1,0,0:0:0:0:
428,308,32352,6,0,L|440:329,1,25,2|0,0:0|0:0,0:0:0:0:
428,269,32437,1,0,0:0:0:0:
428,225,32523,6,0,L|449:213,1,25,6|0,0:0|0:0,0:0:0:0:
389,225,32608,1,0,0:0:0:0:
345,224,32694,6,0,L|333:203,1,25,2|0,0:0|0:0,0:0:0:0:
345,263,32779,1,0,0:0:0:0:
388,264,32865,5,4,0:2:0:0:
240,236,33037,1,2,0:2:0:0:
204,312,33208,5,0,0:0:0:0:
56,340,33380,2,0,L|48:264,1,75.0000028610231,2|0,0:2|0:0,0:0:0:0:
12,136,33551,5,2,0:2:0:0:
24,60,33637,1,2,0:2:0:0:
92,32,33723,1,2,0:2:0:0:
160,64,33808,1,2,0:2:0:0:
197,131,33894,6,0,B|230:121|240:80|240:80|242:129|286:153|286:153|326:133|326:133|342:93|318:53|304:47,1,300,10|0,0:2|2:0,0:0:0:0:
384,32,34237,6,0,L|484:25,1,100,6|0,0:0|0:0,0:0:0:0:
512,104,34494,2,0,P|436:120|416:208,1,150.000005722046,2|0,0:0|0:0,0:0:0:0:
500,248,34751,2,0,P|508:224|488:180,1,75.0000028610231,2|0,0:0|0:0,0:0:0:0:
384,32,34923,5,2,0:2:0:0:
316,164,35094,1,2,0:2:0:0:
167,46,35265,5,2,0:2:0:0:
192,40,35351,1,2,0:2:0:0:
212,56,35437,1,2,0:2:0:0:
164,260,35608,6,0,P|140:192|172:120,1,150.000005722046,2|0,0:0|0:0,0:0:0:0:
168,123,35865,2,0,L|292:131,1,119.999996337891,2|0,0:0|0:0,0:0:0:0:
416,60,36123,1,2,0:0:0:0:
416,60,36294,6,0,L|492:56,1,40,2|0,0:0|2:0,0:0:0:0:
464,188,36465,2,0,L|540:184,1,40,2|0,0:2|2:2,0:0:0:0:
424,336,36637,6,0,B|448:340|448:340|456:336|456:336|482:343,1,59.9999981689454,2|0,0:0|2:0,0:0:0:0:
376,208,36808,2,0,B|400:212|400:212|408:208|408:208|434:215,1,59.9999981689454,2|0,0:2|2:0,0:0:0:0:
368,124,36980,6,0,B|327:129|327:129|296:153|296:153|256:157,1,119.999996337891,2|0,0:0|0:0,0:0:0:0:
251,64,37237,2,0,P|184:90|161:159,1,150.000005722046,2|0,0:0|0:0,0:0:0:0:
212,236,37494,2,0,L|288:232,1,50,2|0,0:0|0:0,0:0:0:0:
396,244,37665,5,2,0:2:0:0:
304,144,37837,1,2,0:2:0:0:
148,264,38008,5,2,0:2:0:0:
124,260,38094,1,2,0:2:0:0:
124,224,38180,1,2,0:2:0:0:
100,220,38266,1,2,0:2:0:0:
100,184,38351,6,0,B|64:172|56:140|56:140|92:128|92:128|124:156|164:140,1,179.999994506836,2|0,0:0|0:0,0:0:0:0:
152,60,38608,2,0,B|203:53|236:101|236:101|267:73|267:73|238:46,1,179.999994506836,2|0,0:0|0:0,0:0:0:0:
240,180,38865,2,0,L|300:176,1,59.9999981689454,2|0,0:0|0:0,0:0:0:0:
388,228,39037,5,2,0:2:0:0:
464,300,39208,1,2,0:2:0:0:
372,348,39380,2,0,B|313:355|313:355|292:343|292:343|356:316,1,150,6|0,0:2|2:0,0:0:0:0:
294,342,39723,6,0,P|237:347|198:302,1,119.999996337891,6|0,0:0|0:0,0:0:0:0:
158,238,39980,1,2,0:0:0:0:
198,302,40065,2,0,L|210:174,1,119.999996337891,8|2,0:0|0:0,0:0:0:0:
100,72,40408,5,2,0:2:0:0:
156,88,40494,1,2,0:2:0:0:
208,56,40580,1,2,0:2:0:0:
264,72,40666,1,2,0:2:0:0:
316,40,40751,2,0,P|368:60|400:120,1,119.999996337891,8|2,0:0|0:2,0:0:0:0:
480,348,41094,6,0,P|424:344|384:296,1,119.999996337891,2|0,0:0|0:0,0:0:0:0:
464,260,41351,1,2,0:0:0:0:
385,298,41437,2,0,P|329:302|289:350,1,119.999996337891,8|2,0:0|0:0,0:0:0:0:
108,344,41780,5,2,0:0:0:0:
204,312,41951,1,2,0:2:0:0:
63,251,42123,6,0,L|60:202,1,50,10|0,0:0|2:0,0:0:0:0:
52,110,42294,2,0,L|48:60,1,50,2|0,0:2|2:0,0:0:0:0:
140,156,42465,6,0,L|264:144,1,119.999996337891,2|0,0:0|0:0,0:0:0:0:
236,68,42723,1,2,0:0:0:0:
259,144,42808,2,0,P|323:147|371:115,1,119.999996337891,8|2,0:0|0:0,0:0:0:0:
512,192,43151,5,2,0:2:0:0:
396,264,43323,2,0,L|448:256,1,50,2|2,0:2|0:2,0:0:0:0:
396,356,43494,2,0,P|324:324|308:240,1,150.000005722046,2|6,0:2|0:0,0:0:0:0:
116,356,43837,6,0,P|188:324|204:240,1,150.000005722046,2|0,0:0|2:0,0:0:0:0:
128,228,44094,2,0,L|136:72,1,150.000005722046,2|0,0:0|2:0,0:0:0:0:
136,44,44351,1,2,0:0:0:0:
334,36,44523,6,0,L|422:32,1,75.0000028610231,6|0,0:2|2:0,0:0:0:0:
386,116,44694,2,0,L|470:112,1,75.0000028610231,6|0,0:2|2:0,0:0:0:0:
512,192,44865,6,0,L|437:195,1,75.0000028610231,6|0,0:2|2:0,0:0:0:0:
480,292,45208,5,4,0:0:0:0:
386,116,45380,1,2,2:0:0:0:
412,332,45551,5,8,0:0:0:0:
308,108,45723,1,2,2:0:0:0:
336,320,45894,5,2,0:0:0:0:
352,44,46065,1,2,0:0:0:0:
288,256,46237,5,10,0:0:0:0:
268,264,46323,1,0,2:0:0:0:
242,261,46408,1,2,0:0:0:0:
32,292,46580,5,0,0:0:0:0:
204,108,46751,1,2,2:0:0:0:
100,332,46923,5,8,0:0:0:0:
160,44,47094,1,2,2:0:0:0:
176,320,47266,5,2,0:0:0:0:
126,116,47437,1,2,0:0:0:0:
332,96,47608,6,0,L|335:145,1,50,10|0,0:0|2:0,0:0:0:0:
428,118,47780,2,0,L|432:168,1,50,2|0,0:0|2:0,0:0:0:0:
476,40,47951,5,4,0:0:0:0:
332,96,48123,1,2,2:0:0:0:
512,112,48294,5,8,0:0:0:0:
256,120,48465,1,2,2:0:0:0:
496,192,48637,5,0,0:0:0:0:
220,192,48808,1,2,2:0:0:0:
508,272,48980,5,8,0:0:0:0:
256,264,49151,1,2,2:0:0:0:
456,336,49323,5,0,0:0:0:0:
292,340,49494,1,2,2:0:0:0:
284,344,49580,1,0,2:0:0:0:
276,348,49665,6,0,L|224:352,1,50,8|0,0:0|2:0,0:0:0:0:
180,272,49837,2,0,L|128:276,1,50,2|0,0:2|2:0,0:0:0:0:
60,352,50008,5,2,0:0:0:0:
76,212,50180,1,2,0:0:0:0:
152,32,50351,6,0,L|104:48,1,50,10|0,0:0|2:0,0:0:0:0:
168,172,50523,2,0,L|184:112,1,50,2|0,0:0|2:0,0:0:0:0:
264,48,50694,5,4,0:2:0:0:
282,64,50779,1,0,0:0:0:0:
305,73,50865,1,0,0:0:0:0:
330,75,50951,1,0,0:0:0:0:
368,44,51037,5,8,0:0:0:0:
386,28,51122,1,0,0:0:0:0:
409,19,51208,1,0,0:0:0:0:
434,17,51294,1,0,0:0:0:0:
480,44,51380,6,0,L|536:48,1,50,2|0,0:0|2:0,0:0:0:0:
424,112,51551,2,0,L|469:144,1,50,2|0,0:0|2:0,0:0:0:0:
356,172,51723,6,0,L|392:250,1,75.0000028610231,10|0,0:0|2:0,0:0:0:0:
276,216,51894,2,0,L|267:302,1,75.0000028610231,2|0,0:0|2:0,0:0:0:0:
188,336,52065,5,4,0:2:0:0:
149,343,52150,1,0,0:0:0:0:
110,333,52236,1,0,0:0:0:0:
80,307,52322,1,0,0:0:0:0:
68,260,52408,5,8,0:0:0:0:
94,230,52493,1,0,0:0:0:0:
105,192,52579,1,0,0:0:0:0:
98,153,52665,1,0,0:0:0:0:
56,128,52751,6,0,B|48:92|48:92|56:52,1,75.0000028610231,2|0,0:0|2:0,0:0:0:0:
160,0,52923,2,0,B|167:37|167:37|159:73,1,75.0000028610231,2|0,0:0|2:0,0:0:0:0:
224,132,53094,6,0,L|298:128,1,75.0000028610231,10|0,0:0|2:0,0:0:0:0:
264,212,53265,2,0,L|344:208,1,75.0000028610231,2|0,0:0|2:0,0:0:0:0:
488,252,53437,6,0,L|438:255,1,50,4|0,0:2|0:0,0:0:0:0:
456,336,53608,2,0,L|406:339,1,50,2|0,0:0|0:0,0:0:0:0:
348,284,53780,6,0,L|298:287,1,50,8|0,0:0|0:0,0:0:0:0:
312,368,53951,2,0,L|262:371,1,50,2|0,0:0|0:0,0:0:0:0:
176,340,54123,5,4,0:2:0:0:
148,344,54209,1,0,0:0:0:0:
132,272,54294,5,2,0:0:0:0:
106,263,54380,1,0,0:0:0:0:
126,191,54466,5,8,0:0:0:0:
107,171,54552,1,0,0:0:0:0:
161,117,54637,5,2,0:0:0:0:
154,92,54723,1,0,0:0:0:0:
232,88,54808,6,0,P|300:100|340:40,1,150.000005722046,2|0,0:0|0:0,0:0:0:0:
408,0,55065,2,0,B|436:28|436:28|420:52|420:52|420:100|456:136,1,150.000005722046,2|0,0:0|0:0,0:0:0:0:
512,72,55323,1,2,0:0:0:0:
375,205,55494,6,0,L|372:176,1,29.9999990844727,2|0,0:0|0:0,0:0:0:0:
355,209,55580,2,0,L|352:180,1,29.9999990844727
335,213,55666,2,0,L|332:184,1,29.9999990844727,2|0,0:0|0:0,0:0:0:0:
314,217,55751,2,0,L|311:188,1,29.9999990844727
292,240,55837,6,0,L|254:244,1,29.9999990844727,2|0,0:0|0:0,0:0:0:0:
296,260,55923,2,0,L|258:264,1,29.9999990844727
300,280,56009,2,0,L|262:284,1,29.9999990844727
304,300,56094,2,0,L|266:304,1,29.9999990844727
320,324,56180,5,4,2:2:0:0:
256,192,56201,12,0,58837,0:0:0:0:
188,236,58923,6,0,P|136:248|100:208,1,112.500004291535,6|0,0:2|0:0,0:0:0:0:
154,147,59265,6,0,L|204:140,1,50,2|0,0:0|0:0,0:0:0:0:
248,64,59608,2,0,L|298:71,1,50,2|0,0:0|0:0,0:0:0:0:
344,148,59951,2,0,L|394:141,1,50,2|0,0:2|0:0,0:0:0:0:
472,268,60294,5,2,0:0:0:0:
440,76,60637,1,2,0:0:0:0:
480,260,60980,5,2,0:0:0:0:
492,260,61151,1,2,0:0:0:0:
504,264,61323,2,0,P|468:304|412:296,1,112.500004291535,0|0,0:0|0:0,0:0:0:0:
348,336,61665,5,0,0:0:0:0:
272,324,61837,1,2,0:0:0:0:
216,264,62008,5,0,0:0:0:0:
140,276,62180,1,2,0:0:0:0:
84,336,62351,5,0,0:0:0:0:
8,324,62523,1,2,0:0:0:0:
52,196,62694,6,0,B|56:152|56:152|40:124|40:124|44:76,2,119.999996337891,2|2|2,0:0|0:0|0:0,0:0:0:0:
52,196,63380,2,0,L|144:188,1,75.0000028610231,2|0,0:0|0:0,0:0:0:0:
296,168,63723,5,2,0:0:0:0:
212,180,63894,1,2,0:0:0:0:
380,156,64065,2,0,P|412:204|400:256,1,112.500004291535,2|0,2:0|0:0,0:0:0:0:
352,320,64408,6,0,L|302:323,1,50,0|2,0:0|0:0,0:0:0:0:
152,292,64751,1,2,0:0:0:0:
240,376,64923,1,0,0:0:0:0:
144,288,65094,2,0,P|88:292|52:348,1,112.500004291535,2|0,0:0|0:0,0:0:0:0:
68,344,65437,6,0,P|34:307|34:259,1,100,2|0,0:0|0:0,0:0:0:0:
0,136,65780,6,0,L|50:139,1,50,2|2,0:0|0:0,0:0:0:0:
200,108,66123,1,2,0:0:0:0:
112,192,66294,1,0,0:0:0:0:
208,104,66465,2,0,P|264:108|300:164,1,112.500004291535,2|0,0:0|0:0,0:0:0:0:
364,204,66808,5,2,0:0:0:0:
304,268,66980,1,0,0:0:0:0:
387,362,67151,2,0,B|399:342|399:342|388:292,2,75.0000028610231,2|0|2,0:0|0:0|0:0,0:0:0:0:
128,280,67665,6,0,B|116:260|116:260|127:210,1,75.0000028610231,2|0,0:0|0:0,0:0:0:0:
384,132,68008,2,0,B|396:112|396:112|385:62,1,75.0000028610231,2|0,0:0|0:0,0:0:0:0:
172,88,68351,6,0,B|132:124|92:96|104:44|104:44|76:16|76:16|72:60|48:84|8:76|8:76|-24:108|-20:148|-20:148|32:152|40:192,1,425,2|0,0:0|0:0,0:0:0:0:
4,272,69894,6,0,B|68:304|150:302|150:302|152:256|134:210|134:210|108:224|104:264,1,300.000011444092
248,192,70408,5,2,2:2:0:0:
264,280,70580,1,2,0:0:0:0:
392,384,70751,5,2,2:2:0:0:
408,296,70923,1,2,0:0:0:0:
288,376,71094,6,0,L|212:372,1,75.0000028610231,6|0,2:2|0:0,0:0:0:0:
116,368,71265,5,6,0:2:0:0:
124,364,71608,2,0,P|144:288|120:212,1,150,2|0,0:2|0:0,0:0:0:0:
184,160,71951,6,0,L|180:116,1,25,2|0,0:0|3:0,0:0:0:0:
240,28,72123,2,0,L|242:52,1,25,2|0,0:0|3:0,0:0:0:0:
296,160,72294,6,0,L|298:135,7,25,2|0|0|0|0|0|0|0,0:0|0:0|0:0|0:0|0:0|0:0|0:0|0:0,0:0:0:0:
308,172,72637,5,0,0:0:0:0:
396,160,72808,1,0,2:0:0:0:
492,48,72980,5,2,0:0:0:0:
488,208,73151,1,2,2:2:0:0:
424,124,73323,5,2,0:0:0:0:
448,276,73494,1,2,2:2:0:0:
512,192,73665,5,2,0:0:0:0:
488,344,73837,2,0,L|480:260,1,75.0000028610231,6|0,2:2|0:0,0:0:0:0:
504,180,74008,5,6,0:2:0:0:
496,168,74351,1,6,0:2:0:0:
464,252,74523,1,0,0:0:0:0:
416,328,74694,6,0,L|378:325,1,37.5000014305115,2|0,0:0|3:0,0:0:0:0:
272,256,74865,2,0,L|310:253,1,37.5000014305115,2|0,0:0|3:0,0:0:0:0:
232,172,75037,2,0,B|180:196|180:245|180:245|148:215|148:215|132:268|90:270,1,225.000008583069,2|0,0:0|2:0,0:0:0:0:
68,192,75380,5,6,0:2:0:0:
92,148,75465,1,0,0:0:0:0:
83,108,75550,1,0,0:0:0:0:
75,69,75636,1,0,0:0:0:0:
44,44,75723,1,2,0:2:0:0:
72,16,75808,1,0,0:0:0:0:
112,20,75894,1,2,0:2:0:0:
152,24,75980,1,0,0:0:0:0:
221,76,76065,5,6,0:2:0:0:
265,100,76150,1,0,0:0:0:0:
304,92,76237,1,0,0:0:0:0:
344,84,76323,1,0,0:0:0:0:
369,52,76408,1,2,0:2:0:0:
397,80,76493,1,0,0:0:0:0:
393,120,76579,1,2,0:2:0:0:
388,160,76665,1,0,0:0:0:0:
308,200,76751,5,6,0:2:0:0:
284,244,76836,1,0,0:0:0:0:
292,283,76923,1,0,0:0:0:0:
300,323,77007,1,0,0:0:0:0:
332,348,77094,1,2,0:2:0:0:
292,376,77179,1,0,0:0:0:0:
252,372,77265,1,2,0:2:0:0:
212,367,77351,1,0,0:0:0:0:
148,324,77437,5,6,0:2:0:0:
172,280,77522,1,0,0:0:0:0:
164,241,77607,1,0,0:0:0:0:
156,201,77693,1,0,0:0:0:0:
148,160,77780,6,0,L|96:167,1,50,2|0,0:2|0:0,0:0:0:0:
196,60,77951,2,0,L|144:67,1,50,2|0,0:2|0:0,0:0:0:0:
298,72,78123,5,6,0:2:0:0:
336,80,78208,1,0,0:0:0:0:
369,59,78294,2,0,L|402:56,2,25,6|0|0,0:3|0:0|0:0,0:0:0:0:
329,164,78465,5,6,0:2:0:0:
290,155,78550,1,0,0:0:0:0:
257,176,78636,2,0,L|224:179,2,25,6|0|0,0:3|0:0|0:0,0:0:0:0:
307,265,78808,6,0,L|304:240,3,25,6|0|0|0,0:3|0:0|0:0|0:0,0:0:0:0:
275,306,78980,6,0,L|251:309,3,25,6|0|0|0,0:3|0:0|0:0|0:0,0:0:0:0:
316,340,79151,6,0,L|319:365,3,25,6|0|0|0,0:3|0:0|0:0|0:0,0:0:0:0:
347,298,79323,6,0,L|372:296,3,25,6|0|0|0,0:3|0:0|0:0|0:0,0:0:0:0:
312,304,79494,6,0,L|300:208,1,75,0|0,0:0|2:0,0:0:0:0:
300,212,79837,1,0,0:0:0:0:
396,356,80008,1,2,0:2:0:0:
400,360,80180,6,0,L|404:284,1,75.0000028610231,2|2,0:2|2:2,0:0:0:0:
460,232,80351,2,0,L|464:156,1,75.0000028610231,2|0,0:2|2:0,0:0:0:0:
508,92,80523,6,4,B|484:124|452:128|416:128|392:112|380:84|384:56|404:32|428:28|452:56|428:76,1,225.000008583069,4|0,0:0|0:0,0:0:0:0:
332,120,80865,6,2,L|188:132,1,125,2|0,0:0|2:0,0:0:0:0:
180,208,81123,2,0,L|261:202,1,74.9999977111817,2|0,0:2|2:0,0:0:0:0:
352,224,81380,6,0,P|282:229|248:296,1,149.999995422363,2|0,0:2|2:0,0:0:0:0:
336,312,81637,2,0,P|384:312|420:272,1,100,2|0,0:2|2:0,0:0:0:0:
512,204,81894,6,0,P|471:193|498:161,1,100,10|0,0:0|2:0,0:0:0:0:
388,80,82065,2,0,P|428:90|401:122,1,100,2|0,0:0|2:0,0:0:0:0:
352,224,82237,6,2,P|282:219|248:152,1,150.000005722046,2|0,0:0|2:0,0:0:0:0:
248,32,82494,2,0,B|184:68|184:68|259:79,1,150.000005722046,2|0,0:2|2:0,0:0:0:0:
76,128,82751,6,0,B|152:140|152:140|88:176,1,149.999995422363,2|0,0:2|2:0,0:0:0:0:
28,236,83008,2,0,B|8:272|8:272|28:356,1,119.999996337891,2|0,0:2|2:0,0:0:0:0:
128,312,83265,6,0,L|142:370,1,59.9999981689454,10|0,0:0|2:0,0:0:0:0:
223,231,83437,2,0,L|237:289,1,59.9999981689454,2|0,0:0|2:0,0:0:0:0:
312,356,83608,6,2,B|352:360|352:360|384:336|384:336|428:344,1,125,2|0,0:0|2:0,0:0:0:0:
440,352,83865,2,0,L|455:259,1,93.7500035762788,2|0,0:2|2:0,0:0:0:0:
468,172,84123,6,0,B|428:168|428:168|396:192|396:192|352:184,1,125,2|0,0:2|2:0,0:0:0:0:
260,144,84380,2,0,B|296:152|296:152|320:200|288:240|260:243,1,150.000005722046,2|0,0:2|2:0,0:0:0:0:
168,336,84637,6,0,B|236:328|236:328|212:356,1,100,10|0,0:0|2:0,0:0:0:0:
84,348,84808,2,0,B|16:356|16:356|40:328,1,100,2|0,0:0|2:0,0:0:0:0:
156,240,84980,6,2,B|132:180|168:128|168:128|180:168,1,150.000005722046,2|0,0:0|2:0,0:0:0:0:
204,54,85237,2,2,B|159:39|159:39|127:59|127:59|95:51|64:60,1,150.000005722046,2|0,0:2|2:0,0:0:0:0:
328,112,85494,6,2,B|304:129|276:113|276:113|300:65|284:21,1,150.000005722046,2|0,0:2|2:0,0:0:0:0:
400,64,85751,2,2,B|424:47|452:63|452:63|428:111|444:155,1,150.000005722046,2|0,0:2|2:0,0:0:0:0:
488,228,86008,6,0,L|492:288,1,59.9999981689454,10|0,0:0|2:0,0:0:0:0:
420,368,86180,2,0,L|416:308,1,59.9999981689454,2|0,0:0|2:0,0:0:0:0:
504,372,86351,5,2,0:0:0:0:
336,360,86523,1,2,0:2:0:0:
332,364,86608,2,0,P|280:364|244:308,1,119.999996337891,2|0,0:2|2:0,0:0:0:0:
288,244,86865,6,0,L|380:228,1,93.7500035762788,2|0,0:3|2:0,0:0:0:0:
256,176,87123,2,0,L|164:192,1,93.7500035762788,2|0,0:3|2:0,0:0:0:0:
80,172,87380,6,0,P|96:138|126:117,1,75.0000028610231,10|0,0:0|2:0,0:0:0:0:
40,248,87551,2,0,P|12:223|0:188,1,75.0000028610231,2|0,0:0|2:0,0:0:0:0:
68,328,87723,5,2,0:0:0:0:
196,296,87894,1,2,0:2:0:0:
200,292,87980,2,0,P|252:292|288:348,1,119.999996337891,2|0,0:2|2:0,0:0:0:0:
368,336,88237,6,0,P|395:373|441:382,1,93.7500035762788,2|0,0:3|2:0,0:0:0:0:
512,256,88494,2,0,P|469:262|437:302,1,93.7500035762788,2|0,0:3|2:0,0:0:0:0:
394,172,88751,5,10,0:0:0:0:
384,216,88836,1,0,2:0:0:0:
373,259,88922,1,2,0:0:0:0:
334,238,89008,1,0,2:0:0:0:
296,216,89094,5,2,0:0:0:0:
288,80,89265,1,2,0:2:0:0:
284,84,89351,2,0,B|228:36|228:36|304:24,1,150.000005722046,2|0,0:2|2:0,0:0:0:0:
416,76,89608,6,0,B|516:84|516:84|464:120,1,149.999995422363,2|0,0:3|2:0,0:0:0:0:
332,180,89865,2,0,B|232:188|232:188|284:224,1,149.999995422363,2|0,0:3|2:0,0:0:0:0:
432,268,90123,6,0,L|372:276,1,59.9999981689454,10|0,0:0|2:0,0:0:0:0:
304,344,90294,1,2,0:0:0:0:
120,360,90465,6,2,P|116:320|124:280,1,75.0000028610231,4|0,0:2|2:0,0:0:0:0:
160,220,90723,6,2,B|200:176|260:188|260:188|216:260,1,150.000005722046,4|0,0:2|2:0,0:0:0:0:
80,220,90980,6,2,B|40:264|-20:252|-20:252|0:218,1,150.000005722046,4|0,0:2|2:0,0:0:0:0:
120,128,91237,6,0,L|149:121,1,29.9999990844727,4|0,0:2|2:0,0:0:0:0:
224,60,91494,6,0,P|255:91|287:60,1,100,4|0,0:2|1:2,0:0:0:0:
288,164,91665,2,0,P|257:133|225:164,1,100,4|0,0:2|1:0,0:0:0:0:
256,252,91837,6,0,B|222:266|222:266|207:318|246:351|274:349,1,150.000005722046,6|0,0:0|2:0,0:0:0:0:
388,368,92094,1,2,0:0:0:0:
444,316,92180,2,0,P|482:310|516:332,1,75.0000028610231,8|0,0:0|2:2,0:0:0:0:
364,284,92351,6,0,P|346:223|410:229,1,150.000005722046,2|0,0:0|2:0,0:0:0:0:
468,122,92608,6,0,P|496:206|409:228,1,200,2|0,0:0|2:0,0:0:0:0:
344,172,92865,5,10,0:1:0:0:
288,164,92951,1,0,2:0:0:0:
236,212,93037,5,2,0:2:0:0:
184,220,93123,1,0,2:0:0:0:
149,281,93208,6,0,P|96:288|56:260,1,100,2|0,0:0|2:0,0:0:0:0:
192,376,93380,1,0,0:0:0:0:
224,368,93466,1,2,0:0:0:0:
256,384,93551,2,0,L|260:296,1,75.0000028610231,8|0,0:0|2:0,0:0:0:0:
363,281,93723,6,0,P|416:274|456:302,1,100,2|0,0:0|2:0,0:0:0:0:
488,376,93895,1,0,0:0:0:0:
484,380,93980,2,0,L|476:208,1,150.000005722046,2|0,0:0|2:0,0:0:0:0:
408,132,94237,6,0,L|405:169,1,37.5000014305115,10|0,0:0|2:0,0:0:0:0:
312,260,94408,2,0,P|336:288|352:244,1,100,2|0,0:2|2:0,0:0:0:0:
252,200,94580,6,0,B|208:184|208:184|112:232,1,150.000005722046,2|0,0:0|2:0,0:0:0:0:
232,284,94837,1,2,0:0:0:0:
292,344,94923,2,0,L|352:336,1,59.9999981689454,8|0,0:0|2:0,0:0:0:0:
252,200,95094,6,0,B|228:160|248:116|248:116|272:152|304:152,1,150.000005722046,2|0,0:0|2:0,0:0:0:0:
223,46,95351,2,0,B|254:31|274:43|298:55|314:79|314:79|328:28|386:31,1,200,2|0,0:0|2:0,0:0:0:0:
448,72,95608,6,0,P|421:98|384:104,1,75.0000028610231,10|0,0:0|2:0,0:0:0:0:
248,116,95779,2,0,P|212:122|180:104,1,75.0000028610231,2|0,0:2|2:0,0:0:0:0:
104,24,95951,6,0,B|52:20|52:20|40:68,1,100,2|0,0:0|2:0,0:0:0:0:
168,144,96123,1,0,0:0:0:0:
192,168,96208,1,2,0:0:0:0:
216,192,96294,2,0,L|141:198,1,75.0000028610231,8|0,0:0|2:0,0:0:0:0:
104,360,96465,6,0,B|52:364|52:364|40:317,1,100,2|0,0:0|2:0,0:0:0:0:
136,240,96637,1,0,0:0:0:0:
144,232,96723,2,0,B|236:224|236:224|284:264,1,150.000005722046,2|0,0:0|2:0,0:0:0:0:
336,320,96980,5,2,0:0:0:0:
468,260,97151,2,0,L|464:309,1,50,2|0,0:2|2:0,0:0:0:0:
512,376,97323,5,6,0:2:0:0:
408,148,97494,1,2,0:2:0:0:
376,220,97580,2,0,P|452:216|484:156,1,150.000005722046,2|0,0:3|2:0,0:0:0:0:
440,76,97837,2,0,P|364:80|332:140,1,150.000005722046,2|0,0:3|1:0,0:0:0:0:
280,196,98094,1,2,0:3:0:0:
230,260,98180,1,0,0:0:0:0:
150,248,98265,1,0,0:3:0:0:
199,183,98351,6,0,P|204:156|192:124,1,59.9999981689454,4|0,0:3|2:0,0:0:0:0:
40,24,98523,2,0,P|29:51|33:81,1,59.9999981689454,4|0,0:3|2:0,0:0:0:0:
68,236,98694,5,6,0:2:0:0:
230,260,98865,1,2,0:2:0:0:
260,336,98951,2,0,B|180:340|180:340|152:276,1,150.000005722046,2|0,0:3|2:0,0:0:0:0:
199,183,99208,2,0,B|279:179|279:179|307:243,1,150.000005722046,2|0,0:3|1:0,0:0:0:0:
333,317,99465,1,6,1:3:0:0:
369,193,99637,1,0,0:0:0:0:
369,193,99723,6,0,L|340:124,1,75.0000028610231,4|0,0:3|2:0,0:0:0:0:
228,44,99894,2,0,L|257:113,1,75.0000028610231,4|0,0:3|2:0,0:0:0:0:
199,183,100065,6,0,L|190:257,1,75.0000028610231,6|2,0:2|0:0,0:0:0:0:
336,344,100323,1,0,0:0:0:0:
388,279,100408,6,0,L|488:287,1,100,6|2,0:2|0:0,0:0:0:0:
296,204,100665,1,0,0:0:0:0:
244,139,100750,6,0,L|144:147,1,100,6|2,0:2|0:0,0:0:0:0:
140,328,101009,1,0,0:0:0:0:
203,273,101094,6,0,L|200:224,1,50,6|0,0:2|0:0,0:0:0:0:
80,196,101265,2,0,L|84:224,2,25,2|0|0,0:0|0:0|0:0,0:0:0:0:
55,302,101437,6,0,L|52:352,1,50,2|0,1:0|0:0,0:0:0:0:
16,116,101608,2,0,L|65:119,1,50,2|0,1:3|0:0,0:0:0:0:
211,73,101780,6,0,L|208:24,1,50,0|0,1:0|0:0,0:0:0:0:
172,260,101951,2,0,L|221:257,1,50,2|0,1:3|0:0,0:0:0:0:
360,200,102123,6,0,L|344:164,1,25,2|0,0:0|0:0,0:0:0:0:
392,200,102208,2,0,L|376:164,1,25,2|0,0:0|0:0,0:0:0:0:
424,200,102294,2,0,L|408:164,1,25,2|0,0:0|0:0,0:0:0:0:
456,200,102380,2,0,L|440:164,1,25,2|0,0:0|0:0,0:0:0:0:
424,232,102465,6,0,L|413:254,1,25,2|0,0:0|0:0,0:0:0:0:
392,232,102551,2,0,L|381:254,1,25,2|0,0:0|0:0,0:0:0:0:
360,232,102637,2,0,L|349:254,1,25,2|0,0:0|0:0,0:0:0:0:
328,232,102723,2,0,L|317:254,1,25,2|0,0:0|0:0,0:0:0:0:
256,192,102808,5,4,2:2:0:0:
