osu file format v14

[General]
AudioFilename: audio.mp3
AudioLeadIn: 0
PreviewTime: 42983
Countdown: 0
SampleSet: Normal
StackLeniency: 0.7
Mode: 1
LetterboxInBreaks: 0
WidescreenStoryboard: 1

[Editor]
DistanceSpacing: 1.5
BeatDivisor: 4
GridSize: 8
TimelineZoom: 2.6

[Metadata]
Title:DEADLINER
TitleUnicode:DEADLINER
Artist:P*Light
ArtistUnicode:P*Light
Creator:Deathwing1306
Version:ONI
Source:
Tags:drum and bass dnb dubstep cubegrams edm dance music electronic instrumental radiance happy hardcore tano*c tcplus-0010 realy0_
BeatmapID:1884799
BeatmapSetID:901029

[Difficulty]
HPDrainRate:6
CircleSize:7
OverallDifficulty:5
ApproachRate:10
SliderMultiplier:1.4
SliderTickRate:1

[Events]
//Background and Video events
0,0,"bg lul.jpg",0,0
//Break Periods
//Storyboard Layer 0 (Background)
//Storyboard Layer 1 (Fail)
//Storyboard Layer 2 (Pass)
//Storyboard Layer 3 (Foreground)
//Storyboard Layer 4 (Overlay)
//Storyboard Sound Samples

[TimingPoints]
780,338.983050847458,4,1,0,70,1,0
780,-125,4,1,0,70,0,0
11627,-123.456790123457,4,1,0,70,0,0
11796,-121.951219512195,4,1,0,70,0,0
11966,-120.481927710843,4,1,0,70,0,0
12135,-119.047619047619,4,1,0,70,0,0
12220,-118.343195266272,4,1,0,70,0,0
12305,-117.647058823529,4,1,0,70,0,0
17051,-116.279069767442,4,1,0,70,0,0
17220,-114.942528735632,4,1,0,70,0,0
17390,-113.636363636364,4,1,0,70,0,0
17559,-112.359550561798,4,1,0,70,0,0
17729,-111.111111111111,4,1,0,70,0,0
19763,-109.89010989011,4,1,0,70,0,0
19932,-108.695652173913,4,1,0,70,0,0
20102,-107.52688172043,4,1,0,70,0,0
20271,-106.382978723404,4,1,0,70,0,0
20356,-105.820105820106,4,1,0,70,0,0
20441,-105.263157894737,4,1,0,70,0,0
20610,-104.166666666667,4,1,0,70,0,0
20695,-103.626943005181,4,1,0,70,0,0
20780,-103.092783505155,4,1,0,70,0,0
20949,-102.040816326531,4,1,0,70,0,0
21118,-101.010101010101,4,1,0,70,0,0
21796,-100,4,1,0,70,0,0
22474,-100,4,1,0,80,0,0
27898,-100,4,1,0,90,0,0
41457,-99.009900990099,4,1,0,90,0,0
41627,-98.0392156862745,4,1,0,90,0,0
41796,-97.0873786407767,4,1,0,90,0,0
41966,-96.1538461538461,4,1,0,90,0,0
42135,-95.2380952380952,4,1,0,90,0,0
42305,-94.3396226415094,4,1,0,90,0,0
42390,-93.8967136150235,4,1,0,90,0,0
42474,-93.4579439252336,4,1,0,90,0,0
42644,-92.5925925925926,4,1,0,90,0,0
42814,-100,4,1,0,90,0,0
44169,-95.2380952380952,4,1,0,100,0,1
64508,-94.3396226415094,4,1,0,100,0,1
64678,-93.4579439252336,4,1,0,100,0,1
64847,-92.5925925925926,4,1,0,100,0,1
65017,-91.743119266055,4,1,0,100,0,1
65186,-90.9090909090909,4,1,0,100,0,1
66034,-91.743119266055,4,1,0,100,0,1
66203,-92.5925925925926,4,1,0,100,0,1
66373,-93.4579439252336,4,1,0,100,0,1
66457,-93.8967136150235,4,1,0,100,0,1
66542,-94.3396226415094,4,1,0,100,0,1
66712,-95.2380952380952,4,1,0,100,0,1
76712,-95.2380952380952,4,1,0,90,0,0
76881,-100,4,1,0,90,0,0
84847,-99.009900990099,4,1,0,90,0,0
85017,-98.0392156862745,4,1,0,90,0,0
85186,-97.0873786407767,4,1,0,90,0,0
85356,-96.1538461538461,4,1,0,90,0,0
85525,-95.2380952380952,4,1,0,90,0,0
85695,-94.3396226415094,4,1,0,90,0,0
85780,-93.8967136150235,4,1,0,90,0,0
85864,-93.4579439252336,4,1,0,90,0,0
86034,-92.5925925925926,4,1,0,90,0,0
86204,-100,4,1,0,90,0,0
87559,-95.2380952380952,4,1,0,100,0,1
107898,-94.3396226415094,4,1,0,100,0,1
108068,-93.4579439252336,4,1,0,100,0,1
108237,-92.5925925925926,4,1,0,100,0,1
108407,-91.743119266055,4,1,0,100,0,1
108576,-90.9090909090909,4,1,0,100,0,1
109254,-90.9090909090909,4,1,0,100,0,0
109424,-91.743119266055,4,1,0,100,0,0
109593,-92.5925925925926,4,1,0,100,0,0
109763,-93.4579439252336,4,1,0,100,0,0
109847,-93.8967136150235,4,1,0,100,0,0
109932,-94.3396226415094,4,1,0,100,0,0
110102,-95.2380952380952,4,1,0,100,0,0
110271,-96.1538461538461,4,1,0,100,0,0
110441,-97.0873786407767,4,1,0,100,0,0
110525,-97.5609756097561,4,1,0,100,0,0
110610,-98.0392156862745,4,1,0,100,0,0
110780,-99.009900990099,4,1,0,100,0,0
110949,-100,4,1,0,100,0,0
120102,-100,4,1,0,90,0,0
128237,-99.009900990099,4,1,0,90,0,0
128407,-98.0392156862745,4,1,0,90,0,0
128576,-97.0873786407767,4,1,0,90,0,0
128746,-96.1538461538461,4,1,0,90,0,0
128915,-95.2380952380952,4,1,0,90,0,0
129085,-94.3396226415094,4,1,0,90,0,0
129169,-93.8967136150235,4,1,0,90,0,0
129254,-93.4579439252336,4,1,0,90,0,0
129424,-92.5925925925926,4,1,0,90,0,0
129594,-100,4,1,0,90,0,0
130949,-125,4,1,0,70,0,0
141796,-123.456790123457,4,1,0,70,0,0
141966,-121.951219512195,4,1,0,70,0,0
142135,-120.481927710843,4,1,0,70,0,0
142305,-119.047619047619,4,1,0,70,0,0
142390,-118.343195266272,4,1,0,70,0,0
142474,-117.647058823529,4,1,0,70,0,0
147220,-116.279069767442,4,1,0,70,0,0
147390,-114.942528735632,4,1,0,70,0,0
147559,-113.636363636364,4,1,0,70,0,0
147729,-112.359550561798,4,1,0,70,0,0
147898,-111.111111111111,4,1,0,70,0,0
149932,-109.89010989011,4,1,0,70,0,0
150102,-108.695652173913,4,1,0,70,0,0
150271,-107.52688172043,4,1,0,70,0,0
150441,-106.382978723404,4,1,0,70,0,0
150610,-105.263157894737,4,1,0,70,0,0
150780,-104.166666666667,4,1,0,70,0,0
150864,-103.626943005181,4,1,0,70,0,0
150949,-103.092783505155,4,1,0,70,0,0
151118,-102.040816326531,4,1,0,70,0,0
151288,-101.010101010101,4,1,0,70,0,0
151966,-100,4,1,0,70,0,0
152644,-100,4,1,0,80,0,0
158068,-100,4,1,0,90,0,0
171627,-99.009900990099,4,1,0,90,0,0
171796,-98.0392156862745,4,1,0,90,0,0
171966,-97.0873786407767,4,1,0,90,0,0
172135,-96.1538461538461,4,1,0,90,0,0
172305,-95.2380952380952,4,1,0,90,0,0
172474,-94.3396226415094,4,1,0,90,0,0
172559,-93.8967136150235,4,1,0,90,0,0
172644,-93.4579439252336,4,1,0,90,0,0
172813,-92.5925925925926,4,1,0,90,0,0
172984,-100,4,1,0,90,0,0
174339,-95.2380952380952,4,1,0,100,0,1
194678,-94.3396226415094,4,1,0,100,0,1
194847,-93.4579439252336,4,1,0,100,0,1
195017,-92.5925925925926,4,1,0,100,0,1
195186,-91.743119266055,4,1,0,100,0,1
195356,-90.9090909090909,4,1,0,100,0,1
196203,-91.743119266055,4,1,0,100,0,1
196373,-92.5925925925926,4,1,0,100,0,1
196542,-93.4579439252336,4,1,0,100,0,1
196627,-93.8967136150235,4,1,0,100,0,1
196712,-94.3396226415094,4,1,0,100,0,1
196881,-95.2380952380952,4,1,0,100,0,1
206881,-95.2380952380952,4,1,0,90,0,0
207220,-100,4,1,0,90,0,0
215017,-99.009900990099,4,1,0,90,0,0
215186,-98.0392156862745,4,1,0,90,0,0
215356,-97.0873786407767,4,1,0,90,0,0
215525,-96.1538461538461,4,1,0,90,0,0
215695,-95.2380952380952,4,1,0,90,0,0
215864,-94.3396226415094,4,1,0,90,0,0
215949,-93.8967136150235,4,1,0,90,0,0
216034,-93.4579439252336,4,1,0,90,0,0
216203,-92.5925925925926,4,1,0,90,0,0
216374,-100,4,1,0,90,0,0
217729,-95.2380952380952,4,1,0,100,0,1
238068,-94.3396226415094,4,1,0,100,0,1
238237,-93.4579439252336,4,1,0,100,0,1
238407,-92.5925925925926,4,1,0,100,0,1
238576,-91.743119266055,4,1,0,100,0,1
238746,-90.9090909090909,4,1,0,100,0,1
239424,-90.9090909090909,4,1,0,100,0,0
239593,-91.743119266055,4,1,0,100,0,0
239763,-92.5925925925926,4,1,0,100,0,0
239932,-93.4579439252336,4,1,0,100,0,0
240017,-93.8967136150235,4,1,0,100,0,0
240102,-94.3396226415094,4,1,0,100,0,0
240271,-95.2380952380952,4,1,0,100,0,0
240441,-96.1538461538461,4,1,0,100,0,0
240610,-97.0873786407767,4,1,0,100,0,0
240695,-97.5609756097561,4,1,0,100,0,0
240780,-98.0392156862745,4,1,0,100,0,0
240949,-99.009900990099,4,1,0,100,0,0
241118,-100,4,1,0,100,0,0
250271,-100,4,1,0,90,0,0
258407,-99.009900990099,4,1,0,90,0,0
258576,-98.0392156862745,4,1,0,90,0,0
258746,-97.0873786407767,4,1,0,90,0,0
258915,-96.1538461538461,4,1,0,90,0,0
259085,-95.2380952380952,4,1,0,90,0,0
259254,-94.3396226415094,4,1,0,90,0,0
259339,-93.8967136150235,4,1,0,90,0,0
259424,-93.4579439252336,4,1,0,90,0,0
259593,-92.5925925925926,4,1,0,90,0,0
259764,-100,4,1,0,90,0,0
261118,-125,4,1,0,70,0,0
271966,-123.456790123457,4,1,0,70,0,0
272135,-121.951219512195,4,1,0,70,0,0
272305,-120.481927710843,4,1,0,70,0,0
272474,-119.047619047619,4,1,0,70,0,0
272559,-118.343195266272,4,1,0,70,0,0
272644,-117.647058823529,4,1,0,70,0,0
277390,-116.279069767442,4,1,0,70,0,0
277559,-114.942528735632,4,1,0,70,0,0
277729,-113.636363636364,4,1,0,70,0,0
277898,-112.359550561798,4,1,0,70,0,0
277983,-111.731843575419,4,1,0,70,0,0
278068,-111.111111111111,4,1,0,70,0,0
280102,-109.89010989011,4,1,0,70,0,0
280271,-108.695652173913,4,1,0,70,0,0
280441,-107.52688172043,4,1,0,70,0,0
280610,-106.382978723404,4,1,0,70,0,0
280780,-105.263157894737,4,1,0,70,0,0
280864,-104.712041884817,4,1,0,70,0,0
280949,-104.166666666667,4,1,0,70,0,0
281118,-103.092783505155,4,1,0,70,0,0
281203,-102.564102564103,4,1,0,70,0,0
281288,-102.040816326531,4,1,0,70,0,0
281457,-101.010101010101,4,1,0,70,0,0
281627,-100,4,1,0,70,0,0

[HitObjects]
251,192,780,5,12,0:0:0:0:
241,183,949,1,0,0:0:0:0:
251,192,1118,1,8,0:0:0:0:
249,173,1288,1,8,0:0:0:0:
249,172,1457,1,0,0:0:0:0:
249,172,1627,1,0,0:0:0:0:
249,172,1796,1,8,0:0:0:0:
249,172,1966,1,0,0:0:0:0:
249,173,2135,1,8,0:0:0:0:
249,172,2474,1,8,0:0:0:0:
249,172,2644,1,8,0:0:0:0:
249,172,2813,1,0,0:0:0:0:
249,172,2983,1,0,0:0:0:0:
249,173,3152,1,8,0:0:0:0:
249,173,3322,1,0,0:0:0:0:
249,172,3491,1,8,0:0:0:0:
249,172,3830,1,8,0:0:0:0:
249,172,4000,1,8,0:0:0:0:
249,173,4169,1,0,0:0:0:0:
249,173,4339,1,0,0:0:0:0:
249,172,4508,1,8,0:0:0:0:
249,172,4678,1,0,0:0:0:0:
249,172,4847,1,8,0:0:0:0:
249,172,5017,1,0,0:0:0:0:
249,173,5186,1,8,0:0:0:0:
249,173,5356,1,8,0:0:0:0:
249,172,5525,1,0,0:0:0:0:
249,172,5695,1,0,0:0:0:0:
249,172,5864,1,8,0:0:0:0:
249,172,6034,1,0,0:0:0:0:
249,173,6203,1,8,0:0:0:0:
252,193,6542,1,8,0:0:0:0:
252,193,6712,1,0,0:0:0:0:
249,190,6881,1,8,0:0:0:0:
249,190,7051,1,0,0:0:0:0:
249,190,7220,1,8,0:0:0:0:
249,190,7390,1,0,0:0:0:0:
249,190,7559,1,8,0:0:0:0:
249,190,7898,1,8,0:0:0:0:
267,199,8068,1,0,0:0:0:0:
260,201,8237,1,8,0:0:0:0:
260,201,8407,1,8,0:0:0:0:
260,201,8576,1,8,0:0:0:0:
260,201,8746,1,0,0:0:0:0:
260,201,8915,1,8,0:0:0:0:
225,198,9254,1,8,0:0:0:0:
237,172,9424,1,8,0:0:0:0:
237,172,9593,1,0,0:0:0:0:
237,172,9763,1,0,0:0:0:0:
237,172,9932,1,8,0:0:0:0:
237,172,10102,1,8,0:0:0:0:
237,172,10271,1,0,0:0:0:0:
250,186,10441,1,8,0:0:0:0:
250,186,10610,1,8,0:0:0:0:
250,186,10780,1,0,0:0:0:0:
250,186,10949,1,8,0:0:0:0:
250,186,11118,1,0,0:0:0:0:
250,186,11288,1,0,0:0:0:0:
250,186,11457,1,0,0:0:0:0:
250,186,11627,1,8,0:0:0:0:
223,202,11966,1,8,0:0:0:0:
223,202,12135,1,0,0:0:0:0:
223,202,12220,1,0,0:0:0:0:
223,202,12305,1,8,0:0:0:0:
223,202,12474,1,0,0:0:0:0:
223,202,12644,1,8,0:0:0:0:
223,202,12813,1,0,0:0:0:0:
223,202,12983,1,8,0:0:0:0:
225,192,13322,1,8,0:0:0:0:
228,189,13491,1,0,0:0:0:0:
225,190,13661,1,8,0:0:0:0:
225,190,13830,1,8,0:0:0:0:
225,190,13915,1,8,0:0:0:0:
225,190,14000,1,0,0:0:0:0:
225,192,14169,1,0,0:0:0:0:
225,192,14339,1,8,0:0:0:0:
241,198,14678,1,8,0:0:0:0:
235,199,14847,1,0,0:0:0:0:
235,199,14932,1,0,0:0:0:0:
235,199,15017,1,8,0:0:0:0:
237,186,15186,1,8,0:0:0:0:
240,190,15356,1,0,0:0:0:0:
240,190,15525,1,0,0:0:0:0:
240,190,15695,1,8,0:0:0:0:
189,195,15864,1,0,0:0:0:0:
249,171,16034,1,8,0:0:0:0:
277,184,16203,1,0,0:0:0:0:
277,184,16373,1,8,0:0:0:0:
277,184,16542,1,8,0:0:0:0:
277,184,16627,1,8,0:0:0:0:
277,184,16712,1,0,0:0:0:0:
277,184,16881,1,0,0:0:0:0:
277,184,17051,1,8,0:0:0:0:
241,182,17390,1,8,0:0:0:0:
241,182,17559,1,8,0:0:0:0:
241,182,17729,1,0,0:0:0:0:
241,182,17898,1,0,0:0:0:0:
214,196,17983,1,0,0:0:0:0:
241,182,18068,1,8,0:0:0:0:
241,182,18237,1,0,0:0:0:0:
241,182,18407,1,8,0:0:0:0:
256,186,18746,1,8,0:0:0:0:
256,186,18915,1,8,0:0:0:0:
256,186,19000,1,8,0:0:0:0:
256,186,19085,1,0,0:0:0:0:
256,186,19254,1,0,0:0:0:0:
256,186,19424,1,8,0:0:0:0:
256,186,19593,1,0,0:0:0:0:
256,186,19763,1,8,0:0:0:0:
312,185,19932,1,0,0:0:0:0:
241,190,20102,1,8,0:0:0:0:
242,190,20271,1,0,0:0:0:0:
244,190,20356,1,0,0:0:0:0:
242,190,20441,1,8,0:0:0:0:
242,190,20610,1,0,0:0:0:0:
369,219,20695,1,0,0:0:0:0:
246,190,20780,1,0,0:0:0:0:
246,190,20949,1,8,0:0:0:0:
91,280,21796,2,0,L|118:248,6,35
257,194,22474,1,0,0:0:0:0:
255,212,22644,1,0,0:0:0:0:
255,210,22813,1,8,0:0:0:0:
255,210,22983,1,0,0:0:0:0:
255,210,23152,1,0,0:0:0:0:
255,210,23322,1,8,0:0:0:0:
256,201,23830,1,0,0:0:0:0:
257,201,24000,1,0,0:0:0:0:
257,201,24169,1,8,0:0:0:0:
257,201,24339,1,0,0:0:0:0:
256,201,24508,1,0,0:0:0:0:
256,201,24678,1,8,0:0:0:0:
252,192,24763,1,0,0:0:0:0:
252,192,24847,1,8,0:0:0:0:
252,192,24932,1,8,0:0:0:0:
252,192,25017,1,8,0:0:0:0:
252,192,25186,1,0,0:0:0:0:
242,207,25356,1,0,0:0:0:0:
242,207,25525,1,8,0:0:0:0:
242,207,25695,1,0,0:0:0:0:
242,207,25864,1,0,0:0:0:0:
242,207,26034,1,8,0:0:0:0:
283,191,26542,1,0,0:0:0:0:
276,195,26712,1,0,0:0:0:0:
276,195,26881,1,8,0:0:0:0:
276,195,27051,1,0,0:0:0:0:
276,195,27220,1,8,0:0:0:0:
296,230,27305,1,0,0:0:0:0:
276,195,27390,1,8,0:0:0:0:
318,251,27474,1,0,0:0:0:0:
318,251,27559,1,8,0:0:0:0:
318,251,27729,1,8,0:0:0:0:
318,251,27813,1,8,0:0:0:0:
318,251,27898,1,0,0:0:0:0:
291,233,28068,1,0,0:0:0:0:
223,222,28237,1,8,0:0:0:0:
223,222,28407,1,0,0:0:0:0:
223,222,28576,1,0,0:0:0:0:
223,222,28746,1,8,0:0:0:0:
270,196,29254,1,0,0:0:0:0:
270,196,29424,1,0,0:0:0:0:
270,196,29593,1,8,0:0:0:0:
270,196,29763,1,0,0:0:0:0:
270,196,29932,1,0,0:0:0:0:
270,196,30102,1,8,0:0:0:0:
280,208,30186,1,0,0:0:0:0:
280,208,30271,1,8,0:0:0:0:
280,208,30356,1,8,0:0:0:0:
280,208,30441,1,8,0:0:0:0:
280,208,30610,1,0,0:0:0:0:
229,195,30780,1,0,0:0:0:0:
229,195,30949,1,8,0:0:0:0:
231,192,31118,1,0,0:0:0:0:
231,192,31288,1,0,0:0:0:0:
231,192,31457,1,8,0:0:0:0:
259,220,31966,1,0,0:0:0:0:
290,236,32135,1,0,0:0:0:0:
290,236,32305,1,0,0:0:0:0:
290,236,32474,1,0,0:0:0:0:
290,236,32644,1,8,0:0:0:0:
270,223,32729,1,8,0:0:0:0:
270,226,32813,1,0,0:0:0:0:
271,228,32898,1,8,0:0:0:0:
271,228,32983,1,8,0:0:0:0:
271,227,33152,1,8,0:0:0:0:
196,205,33237,1,8,0:0:0:0:
218,210,33322,1,4,0:0:0:0:
252,190,34678,1,0,0:0:0:0:
267,232,35525,1,0,0:0:0:0:
261,193,35610,1,0,0:0:0:0:
261,193,35695,1,8,0:0:0:0:
242,185,35780,1,0,0:0:0:0:
261,193,35864,1,8,0:0:0:0:
257,190,36034,1,0,0:0:0:0:
254,191,37390,1,0,0:0:0:0:
251,202,38237,1,0,0:0:0:0:
252,203,38322,1,0,0:0:0:0:
252,203,38407,1,8,0:0:0:0:
249,179,38576,1,8,0:0:0:0:
249,179,38661,1,8,0:0:0:0:
243,189,38746,1,0,0:0:0:0:
254,193,39085,1,8,0:0:0:0:
254,193,39424,1,0,0:0:0:0:
272,219,39593,1,0,0:0:0:0:
254,193,39763,1,8,0:0:0:0:
254,193,40102,1,0,0:0:0:0:
281,238,40441,1,8,0:0:0:0:
281,238,40780,1,0,0:0:0:0:
286,223,40949,1,0,0:0:0:0:
281,238,41118,1,8,0:0:0:0:
281,238,41457,1,0,0:0:0:0:
287,228,41627,1,8,0:0:0:0:
287,228,41796,1,0,0:0:0:0:
287,226,41966,1,8,0:0:0:0:
275,238,42135,1,0,0:0:0:0:
275,238,42305,1,8,0:0:0:0:
246,235,42390,1,8,0:0:0:0:
275,238,42474,1,0,0:0:0:0:
275,238,42644,1,8,0:0:0:0:
321,200,42813,1,0,0:0:0:0:
251,196,43491,1,0,0:0:0:0:
251,196,43576,1,0,0:0:0:0:
251,196,43661,1,0,0:0:0:0:
251,196,43746,1,0,0:0:0:0:
251,196,43830,1,8,0:0:0:0:
251,196,44169,1,4,0:0:0:0:
244,204,44508,1,8,0:0:0:0:
263,206,44678,1,0,0:0:0:0:
260,206,44763,1,0,0:0:0:0:
260,207,44847,1,8,0:0:0:0:
271,212,45017,1,8,0:0:0:0:
271,211,45186,1,0,0:0:0:0:
271,211,45356,1,0,0:0:0:0:
271,211,45525,1,8,0:0:0:0:
297,170,45610,1,8,0:0:0:0:
272,232,45695,1,8,0:0:0:0:
276,179,45780,1,8,0:0:0:0:
272,232,45864,1,0,0:0:0:0:
272,232,46034,1,0,0:0:0:0:
272,232,46203,1,8,0:0:0:0:
272,232,46288,1,8,0:0:0:0:
272,232,46373,1,0,0:0:0:0:
272,232,46457,1,0,0:0:0:0:
272,232,46542,1,8,0:0:0:0:
319,230,46881,1,12,0:0:0:0:
387,261,47051,1,0,0:0:0:0:
270,202,47220,1,0,0:0:0:0:
270,202,47390,1,12,0:0:0:0:
253,193,47559,1,0,0:0:0:0:
253,193,47729,1,0,0:0:0:0:
253,193,47898,1,12,0:0:0:0:
262,195,48068,1,0,0:0:0:0:
274,221,48237,1,0,0:0:0:0:
274,221,48407,1,12,0:0:0:0:
274,221,48576,1,0,0:0:0:0:
274,221,48746,1,0,0:0:0:0:
253,193,48915,1,12,0:0:0:0:
280,243,49085,1,0,0:0:0:0:
280,248,49254,1,12,0:0:0:0:
228,198,49593,1,0,0:0:0:0:
241,198,49763,1,0,0:0:0:0:
245,199,49932,1,8,0:0:0:0:
245,199,50017,1,8,0:0:0:0:
231,213,50102,1,0,0:0:0:0:
264,240,50271,1,0,0:0:0:0:
252,213,50441,1,8,0:0:0:0:
268,217,50610,1,0,0:0:0:0:
280,218,50695,1,8,0:0:0:0:
210,197,50780,1,8,0:0:0:0:
210,197,50864,1,8,0:0:0:0:
268,217,50949,1,0,0:0:0:0:
193,217,51118,1,0,0:0:0:0:
210,217,51288,1,8,0:0:0:0:
210,217,51457,1,0,0:0:0:0:
235,203,51627,1,0,0:0:0:0:
235,203,51712,1,0,0:0:0:0:
235,203,51796,1,8,0:0:0:0:
235,203,51881,1,0,0:0:0:0:
235,203,51966,1,8,0:0:0:0:
269,205,52305,1,0,0:0:0:0:
259,201,52474,1,0,0:0:0:0:
258,199,52644,1,8,0:0:0:0:
258,199,52813,1,0,0:0:0:0:
264,206,53152,1,0,0:0:0:0:
275,203,53322,1,12,0:0:0:0:
242,242,53491,1,0,0:0:0:0:
246,198,53661,1,0,0:0:0:0:
246,198,53830,1,12,0:0:0:0:
257,220,54000,1,0,0:0:0:0:
308,252,54169,1,0,0:0:0:0:
293,230,54339,1,12,0:0:0:0:
293,230,54508,1,0,0:0:0:0:
293,230,54678,1,12,0:0:0:0:
254,197,55017,1,0,0:0:0:0:
249,198,55186,1,0,0:0:0:0:
248,198,55271,1,0,0:0:0:0:
251,202,55356,1,8,0:0:0:0:
272,220,55525,1,0,0:0:0:0:
272,220,55695,1,8,0:0:0:0:
272,220,55864,1,8,0:0:0:0:
272,220,56034,1,0,0:0:0:0:
272,220,56203,1,0,0:0:0:0:
272,220,56373,1,8,0:0:0:0:
243,197,56457,1,0,0:0:0:0:
281,224,56542,1,8,0:0:0:0:
278,197,56627,1,8,0:0:0:0:
282,224,56712,1,0,0:0:0:0:
282,224,56881,1,0,0:0:0:0:
282,224,57051,1,8,0:0:0:0:
282,224,57135,1,0,0:0:0:0:
282,224,57220,1,8,0:0:0:0:
307,227,57305,1,0,0:0:0:0:
282,221,57390,1,8,0:0:0:0:
216,212,57729,1,12,0:0:0:0:
240,194,57898,1,0,0:0:0:0:
240,194,58068,1,0,0:0:0:0:
216,212,58237,1,12,0:0:0:0:
240,194,58406,1,0,0:0:0:0:
240,194,58576,1,0,0:0:0:0:
216,212,58746,1,12,0:0:0:0:
240,194,58915,1,0,0:0:0:0:
240,194,59085,1,0,0:0:0:0:
224,192,59254,1,12,0:0:0:0:
224,192,59424,1,0,0:0:0:0:
224,192,59593,1,0,0:0:0:0:
224,192,59763,1,12,0:0:0:0:
224,192,59932,1,0,0:0:0:0:
224,192,60102,1,12,0:0:0:0:
224,192,60441,1,0,0:0:0:0:
224,192,60610,1,0,0:0:0:0:
256,192,60780,1,8,0:0:0:0:
224,192,60864,1,8,0:0:0:0:
256,192,60949,1,0,0:0:0:0:
256,192,61118,1,0,0:0:0:0:
157,182,61288,1,8,0:0:0:0:
256,192,61457,1,0,0:0:0:0:
214,169,61542,1,8,0:0:0:0:
256,192,61627,1,0,0:0:0:0:
286,179,61712,1,8,0:0:0:0:
256,192,61796,1,0,0:0:0:0:
256,192,61966,1,0,0:0:0:0:
256,192,62051,1,0,0:0:0:0:
256,192,62135,1,8,0:0:0:0:
256,192,62305,1,0,0:0:0:0:
256,192,62474,1,0,0:0:0:0:
256,192,62559,1,8,0:0:0:0:
256,192,62644,1,8,0:0:0:0:
256,192,62729,1,0,0:0:0:0:
256,192,62813,1,8,0:0:0:0:
256,192,63152,1,8,0:0:0:0:
256,192,63322,1,0,0:0:0:0:
256,192,63491,1,8,0:0:0:0:
256,192,63661,1,0,0:0:0:0:
256,192,63746,1,0,0:0:0:0:
256,192,63830,1,8,0:0:0:0:
256,192,64000,1,0,0:0:0:0:
256,192,64169,1,8,0:0:0:0:
256,192,64339,1,8,0:0:0:0:
256,192,64424,1,8,0:0:0:0:
256,192,64508,1,0,0:0:0:0:
256,192,64678,1,8,0:0:0:0:
256,192,64847,1,8,0:0:0:0:
256,192,65017,1,8,0:0:0:0:
256,192,65186,1,8,0:0:0:0:
288,224,65271,1,0,0:0:0:0:
288,224,65356,1,8,0:0:0:0:
288,192,65441,1,8,0:0:0:0:
288,224,65525,1,0,0:0:0:0:
288,192,65695,1,0,0:0:0:0:
354,198,65780,1,0,0:0:0:0:
288,192,65864,1,12,0:0:0:0:
256,160,66203,1,8,0:0:0:0:
224,192,66373,1,0,0:0:0:0:
224,192,66457,1,0,0:0:0:0:
224,192,66542,1,8,0:0:0:0:
256,192,66712,1,8,0:0:0:0:
256,192,66881,1,0,0:0:0:0:
256,224,67051,1,0,0:0:0:0:
352,224,67135,1,0,0:0:0:0:
256,192,67220,1,8,0:0:0:0:
288,224,67390,1,0,0:0:0:0:
256,192,67559,1,8,0:0:0:0:
290,235,67644,1,8,0:0:0:0:
256,192,67729,1,0,0:0:0:0:
309,232,67898,1,0,0:0:0:0:
256,224,67983,1,8,0:0:0:0:
288,224,68068,1,8,0:0:0:0:
320,256,68152,1,0,0:0:0:0:
256,224,68237,1,8,0:0:0:0:
256,224,68576,1,12,0:0:0:0:
224,192,68746,1,0,0:0:0:0:
224,192,68915,1,0,0:0:0:0:
256,192,69085,1,12,0:0:0:0:
256,224,69254,1,0,0:0:0:0:
256,224,69424,1,0,0:0:0:0:
256,224,69593,1,12,0:0:0:0:
269,197,69763,1,0,0:0:0:0:
288,224,69932,1,0,0:0:0:0:
288,224,70102,1,12,0:0:0:0:
256,192,70271,1,0,0:0:0:0:
256,192,70441,1,0,0:0:0:0:
256,192,70610,1,12,0:0:0:0:
288,192,70780,1,0,0:0:0:0:
238,191,70864,1,0,0:0:0:0:
288,192,70949,1,12,0:0:0:0:
384,224,71288,1,0,0:0:0:0:
256,224,71627,1,8,0:0:0:0:
256,224,71796,1,0,0:0:0:0:
256,224,71881,1,0,0:0:0:0:
256,224,71966,1,8,0:0:0:0:
224,192,72135,1,0,0:0:0:0:
224,192,72305,1,8,0:0:0:0:
256,192,72474,1,0,0:0:0:0:
256,192,72559,1,0,0:0:0:0:
256,192,72644,1,8,0:0:0:0:
309,170,72729,1,8,0:0:0:0:
224,192,72813,1,0,0:0:0:0:
224,192,72983,1,8,0:0:0:0:
224,192,73152,1,8,0:0:0:0:
275,193,73237,1,8,0:0:0:0:
224,192,73322,1,0,0:0:0:0:
224,192,73491,1,0,0:0:0:0:
224,192,73576,1,0,0:0:0:0:
224,192,73661,1,8,0:0:0:0:
256,192,74000,1,0,0:0:0:0:
320,192,74169,1,0,0:0:0:0:
288,192,74339,1,8,0:0:0:0:
288,192,74508,1,0,0:0:0:0:
228,191,74678,1,0,0:0:0:0:
228,191,74763,1,0,0:0:0:0:
256,192,74847,1,0,0:0:0:0:
256,192,75017,1,12,0:0:0:0:
288,224,75186,1,0,0:0:0:0:
288,224,75356,1,0,0:0:0:0:
288,224,75525,1,12,0:0:0:0:
288,192,75695,1,0,0:0:0:0:
288,192,75864,1,0,0:0:0:0:
288,192,76034,1,8,0:0:0:0:
256,192,76118,1,8,0:0:0:0:
256,192,76203,1,0,0:0:0:0:
256,192,76373,1,8,0:0:0:0:
256,192,76457,1,8,0:0:0:0:
254,184,76542,1,8,0:0:0:0:
260,184,76627,1,8,0:0:0:0:
256,192,76712,1,0,0:0:0:0:
295,181,78068,1,8,0:0:0:0:
256,192,79424,1,0,0:0:0:0:
295,156,80780,1,8,0:0:0:0:
235,195,82135,1,8,0:0:0:0:
251,205,82474,1,8,0:0:0:0:
262,204,82813,1,8,0:0:0:0:
304,201,82983,1,0,0:0:0:0:
263,203,83152,1,8,0:0:0:0:
260,203,83491,1,8,0:0:0:0:
246,198,83830,1,8,0:0:0:0:
246,198,84169,1,8,0:0:0:0:
137,180,84339,1,0,0:0:0:0:
246,198,84508,1,8,0:0:0:0:
246,198,84847,1,8,0:0:0:0:
248,190,85017,1,0,0:0:0:0:
248,190,85186,1,8,0:0:0:0:
248,190,85356,1,0,0:0:0:0:
286,212,85525,1,8,0:0:0:0:
286,212,85695,1,8,0:0:0:0:
286,212,85780,1,0,0:0:0:0:
286,212,85864,1,8,0:0:0:0:
286,212,86034,1,8,0:0:0:0:
295,197,86203,1,0,0:0:0:0:
221,198,86881,1,0,0:0:0:0:
221,198,86966,1,0,0:0:0:0:
221,198,87051,1,0,0:0:0:0:
221,198,87135,1,0,0:0:0:0:
221,198,87220,1,8,0:0:0:0:
248,185,87559,1,4,0:0:0:0:
254,196,87898,1,8,0:0:0:0:
261,187,88068,1,0,0:0:0:0:
261,187,88152,1,0,0:0:0:0:
261,187,88237,1,8,0:0:0:0:
266,190,88407,1,0,0:0:0:0:
266,190,88576,1,8,0:0:0:0:
266,190,88746,1,0,0:0:0:0:
266,190,88915,1,8,0:0:0:0:
247,207,89000,1,8,0:0:0:0:
261,214,89085,1,0,0:0:0:0:
252,185,89169,1,8,0:0:0:0:
252,185,89254,1,0,0:0:0:0:
252,185,89424,1,0,0:0:0:0:
252,185,89593,1,8,0:0:0:0:
252,185,89678,1,8,0:0:0:0:
252,185,89763,1,8,0:0:0:0:
252,185,89847,1,0,0:0:0:0:
252,185,89932,1,8,0:0:0:0:
249,191,90271,1,12,0:0:0:0:
250,191,90441,1,0,0:0:0:0:
250,191,90610,1,0,0:0:0:0:
261,181,90780,1,12,0:0:0:0:
250,191,90949,1,0,0:0:0:0:
249,191,91118,1,0,0:0:0:0:
261,181,91288,1,12,0:0:0:0:
250,191,91457,1,0,0:0:0:0:
250,191,91627,1,0,0:0:0:0:
261,181,91796,1,12,0:0:0:0:
250,191,91966,1,0,0:0:0:0:
249,191,92135,1,0,0:0:0:0:
250,191,92305,1,12,0:0:0:0:
250,191,92474,1,0,0:0:0:0:
250,191,92644,1,12,0:0:0:0:
250,191,92983,1,0,0:0:0:0:
249,191,93152,1,0,0:0:0:0:
250,191,93322,1,8,0:0:0:0:
250,191,93407,1,8,0:0:0:0:
250,191,93491,1,0,0:0:0:0:
271,192,93661,1,0,0:0:0:0:
271,192,93830,1,8,0:0:0:0:
271,192,94000,1,0,0:0:0:0:
258,181,94085,1,8,0:0:0:0:
271,192,94169,1,0,0:0:0:0:
258,181,94254,1,8,0:0:0:0:
271,192,94339,1,0,0:0:0:0:
308,214,94508,1,0,0:0:0:0:
232,200,94593,1,0,0:0:0:0:
244,187,94678,1,8,0:0:0:0:
249,191,94847,1,0,0:0:0:0:
248,191,95017,1,0,0:0:0:0:
248,191,95102,1,0,0:0:0:0:
248,191,95186,1,8,0:0:0:0:
248,191,95271,1,0,0:0:0:0:
248,191,95356,1,8,0:0:0:0:
247,197,95695,1,0,0:0:0:0:
247,197,95864,1,0,0:0:0:0:
256,187,96034,1,8,0:0:0:0:
221,187,96203,1,0,0:0:0:0:
301,212,96373,1,0,0:0:0:0:
300,183,96457,1,0,0:0:0:0:
306,188,96542,1,0,0:0:0:0:
256,201,96712,1,12,0:0:0:0:
225,199,96881,1,0,0:0:0:0:
225,199,97051,1,0,0:0:0:0:
256,201,97220,1,12,0:0:0:0:
241,208,97390,1,0,0:0:0:0:
241,208,97559,1,0,0:0:0:0:
241,208,97729,1,12,0:0:0:0:
251,205,97898,1,0,0:0:0:0:
241,199,98068,1,12,0:0:0:0:
266,198,98407,1,4,0:0:0:0:
258,207,98576,1,0,0:0:0:0:
258,207,98661,1,0,0:0:0:0:
256,207,98746,1,8,0:0:0:0:
258,197,98915,1,0,0:0:0:0:
258,197,99085,1,8,0:0:0:0:
258,197,99254,1,8,0:0:0:0:
258,197,99424,1,0,0:0:0:0:
258,197,99593,1,8,0:0:0:0:
261,192,99763,1,8,0:0:0:0:
238,193,99847,1,8,0:0:0:0:
261,192,99932,1,8,0:0:0:0:
261,192,100017,1,8,0:0:0:0:
261,192,100102,1,0,0:0:0:0:
261,192,100271,1,0,0:0:0:0:
261,192,100441,1,8,0:0:0:0:
261,192,100525,1,0,0:0:0:0:
261,192,100610,1,8,0:0:0:0:
261,192,100695,1,0,0:0:0:0:
261,192,100780,1,8,0:0:0:0:
261,188,101118,1,12,0:0:0:0:
236,236,101288,1,0,0:0:0:0:
251,233,101457,1,0,0:0:0:0:
251,227,101627,1,12,0:0:0:0:
257,216,101796,1,0,0:0:0:0:
257,216,101966,1,0,0:0:0:0:
254,216,102135,1,12,0:0:0:0:
257,216,102305,1,0,0:0:0:0:
257,216,102474,1,0,0:0:0:0:
254,216,102644,1,12,0:0:0:0:
257,216,102813,1,0,0:0:0:0:
257,216,102983,1,0,0:0:0:0:
257,216,103152,1,12,0:0:0:0:
257,216,103322,1,0,0:0:0:0:
257,216,103491,1,12,0:0:0:0:
251,190,103830,1,0,0:0:0:0:
251,190,104000,1,0,0:0:0:0:
251,190,104169,1,8,0:0:0:0:
251,190,104254,1,8,0:0:0:0:
251,190,104339,1,0,0:0:0:0:
247,191,104508,1,0,0:0:0:0:
247,191,104678,1,8,0:0:0:0:
247,191,104847,1,0,0:0:0:0:
247,191,104932,1,8,0:0:0:0:
232,196,105017,1,0,0:0:0:0:
248,198,105102,1,8,0:0:0:0:
257,204,105186,1,0,0:0:0:0:
257,204,105356,1,0,0:0:0:0:
276,215,105525,1,8,0:0:0:0:
276,215,105695,1,0,0:0:0:0:
276,215,105864,1,0,0:0:0:0:
276,215,105949,1,8,0:0:0:0:
276,215,106034,1,8,0:0:0:0:
276,215,106118,1,0,0:0:0:0:
276,215,106203,1,8,0:0:0:0:
271,216,106542,1,8,0:0:0:0:
274,221,106712,1,0,0:0:0:0:
274,221,106796,1,0,0:0:0:0:
274,221,106881,1,8,0:0:0:0:
276,220,107051,1,0,0:0:0:0:
276,220,107220,1,8,0:0:0:0:
294,221,107305,1,8,0:0:0:0:
276,220,107390,1,0,0:0:0:0:
276,220,107559,1,8,0:0:0:0:
279,219,107729,1,8,0:0:0:0:
281,219,107813,1,8,0:0:0:0:
281,219,107898,1,0,0:0:0:0:
282,226,108068,1,8,0:0:0:0:
256,224,108237,1,8,0:0:0:0:
258,224,108407,1,8,0:0:0:0:
258,224,108576,1,8,0:0:0:0:
272,239,108661,1,8,0:0:0:0:
274,239,108746,1,8,0:0:0:0:
277,239,108830,1,8,0:0:0:0:
277,237,108915,1,0,0:0:0:0:
277,237,109085,1,0,0:0:0:0:
277,237,109169,1,0,0:0:0:0:
277,237,109254,1,8,0:0:0:0:
253,190,109593,1,8,0:0:0:0:
253,190,109763,1,0,0:0:0:0:
253,190,109847,1,0,0:0:0:0:
253,190,109932,1,8,0:0:0:0:
253,190,110102,1,0,0:0:0:0:
253,190,110271,1,8,0:0:0:0:
233,182,110441,1,8,0:0:0:0:
245,187,110525,1,8,0:0:0:0:
240,187,110610,1,0,0:0:0:0:
219,190,110949,1,8,0:0:0:0:
235,192,111118,1,0,0:0:0:0:
232,186,111288,1,8,0:0:0:0:
232,186,111373,1,8,0:0:0:0:
232,186,111457,1,0,0:0:0:0:
232,186,111542,1,0,0:0:0:0:
232,186,111627,1,8,0:0:0:0:
232,186,111796,1,8,0:0:0:0:
232,186,111966,1,0,0:0:0:0:
256,188,112305,1,8,0:0:0:0:
245,211,112474,1,8,0:0:0:0:
239,191,112559,1,8,0:0:0:0:
239,191,112644,1,0,0:0:0:0:
247,214,112813,1,0,0:0:0:0:
247,214,112983,1,8,0:0:0:0:
247,214,113152,1,8,0:0:0:0:
254,194,113237,1,8,0:0:0:0:
247,214,113322,1,0,0:0:0:0:
235,220,113661,1,8,0:0:0:0:
235,220,113830,1,0,0:0:0:0:
235,220,114000,1,8,0:0:0:0:
281,233,114085,1,0,0:0:0:0:
274,243,114169,1,8,0:0:0:0:
235,220,114254,1,0,0:0:0:0:
274,243,114339,1,8,0:0:0:0:
274,243,114508,1,8,0:0:0:0:
274,243,114678,1,0,0:0:0:0:
256,181,115017,1,8,0:0:0:0:
256,200,115186,1,0,0:0:0:0:
256,200,115271,1,0,0:0:0:0:
256,200,115356,1,8,0:0:0:0:
256,200,115525,1,0,0:0:0:0:
256,200,115695,1,8,0:0:0:0:
256,200,115780,1,8,0:0:0:0:
256,200,115864,1,8,0:0:0:0:
256,200,116034,1,0,0:0:0:0:
264,200,116373,1,8,0:0:0:0:
256,200,116542,1,0,0:0:0:0:
253,185,116712,1,8,0:0:0:0:
260,197,116796,1,0,0:0:0:0:
270,199,116881,1,0,0:0:0:0:
269,199,116966,1,0,0:0:0:0:
232,197,117051,1,8,0:0:0:0:
232,197,117220,1,8,0:0:0:0:
232,197,117390,1,0,0:0:0:0:
244,192,117729,1,8,0:0:0:0:
245,192,117898,1,0,0:0:0:0:
246,193,117983,1,0,0:0:0:0:
246,193,118068,1,0,0:0:0:0:
246,193,118237,1,8,0:0:0:0:
246,193,118407,1,0,0:0:0:0:
244,192,118576,1,0,0:0:0:0:
193,189,118661,1,0,0:0:0:0:
244,192,118746,1,8,0:0:0:0:
252,185,118915,1,0,0:0:0:0:
212,209,119085,1,8,0:0:0:0:
248,205,119254,1,8,0:0:0:0:
248,205,119339,1,8,0:0:0:0:
195,212,119424,1,0,0:0:0:0:
198,211,119593,1,0,0:0:0:0:
200,211,119763,1,8,0:0:0:0:
187,191,119847,1,8,0:0:0:0:
203,210,119932,1,8,0:0:0:0:
276,203,120017,1,8,0:0:0:0:
203,210,120102,1,0,0:0:0:0:
275,177,121457,1,8,0:0:0:0:
257,190,122813,1,0,0:0:0:0:
327,218,124169,1,8,0:0:0:0:
242,192,125525,1,8,0:0:0:0:
243,197,125864,1,8,0:0:0:0:
243,197,126203,1,8,0:0:0:0:
267,197,126373,1,0,0:0:0:0:
229,185,126542,1,8,0:0:0:0:
230,185,126881,1,8,0:0:0:0:
299,197,127220,1,8,0:0:0:0:
276,199,127559,1,8,0:0:0:0:
212,182,127729,1,0,0:0:0:0:
276,199,127898,1,8,0:0:0:0:
276,199,128237,1,8,0:0:0:0:
269,204,128407,1,0,0:0:0:0:
270,204,128576,1,8,0:0:0:0:
270,204,128746,1,0,0:0:0:0:
270,204,128915,1,8,0:0:0:0:
276,199,129085,1,8,0:0:0:0:
282,197,129169,1,0,0:0:0:0:
277,195,129254,1,8,0:0:0:0:
282,197,129424,1,8,0:0:0:0:
279,204,129593,1,0,0:0:0:0:
255,193,130949,1,12,0:0:0:0:
255,193,131118,1,0,0:0:0:0:
255,193,131288,1,8,0:0:0:0:
255,193,131457,1,8,0:0:0:0:
255,193,131627,1,0,0:0:0:0:
255,193,131796,1,8,0:0:0:0:
255,193,131966,1,0,0:0:0:0:
255,193,132135,1,0,0:0:0:0:
255,193,132305,1,8,0:0:0:0:
277,188,132644,1,8,0:0:0:0:
251,184,132813,1,8,0:0:0:0:
253,173,132983,1,0,0:0:0:0:
252,169,133152,1,8,0:0:0:0:
234,154,133322,1,0,0:0:0:0:
234,154,133491,1,0,0:0:0:0:
234,154,133661,1,8,0:0:0:0:
264,187,134000,1,8,0:0:0:0:
266,185,134169,1,0,0:0:0:0:
266,185,134339,1,8,0:0:0:0:
266,185,134508,1,8,0:0:0:0:
266,185,134678,1,0,0:0:0:0:
266,185,134847,1,0,0:0:0:0:
264,187,135017,1,8,0:0:0:0:
239,189,135186,1,0,0:0:0:0:
239,189,135356,1,8,0:0:0:0:
243,189,135525,1,8,0:0:0:0:
243,189,135695,1,0,0:0:0:0:
242,190,135864,1,0,0:0:0:0:
252,188,136034,1,8,0:0:0:0:
252,188,136203,1,0,0:0:0:0:
252,188,136373,1,8,0:0:0:0:
216,195,136712,1,8,0:0:0:0:
215,200,136881,1,0,0:0:0:0:
215,200,137051,1,8,0:0:0:0:
215,200,137220,1,0,0:0:0:0:
215,200,137390,1,0,0:0:0:0:
215,200,137559,1,0,0:0:0:0:
215,200,137729,1,8,0:0:0:0:
242,227,138068,1,8,0:0:0:0:
242,227,138237,1,0,0:0:0:0:
246,222,138407,1,0,0:0:0:0:
246,222,138576,1,8,0:0:0:0:
246,222,138746,1,8,0:0:0:0:
246,222,138915,1,0,0:0:0:0:
246,222,139085,1,8,0:0:0:0:
248,239,139424,1,8,0:0:0:0:
249,239,139593,1,8,0:0:0:0:
249,245,139763,1,0,0:0:0:0:
249,245,139932,1,8,0:0:0:0:
249,245,140102,1,8,0:0:0:0:
249,245,140271,1,8,0:0:0:0:
249,245,140441,1,0,0:0:0:0:
251,234,140610,1,0,0:0:0:0:
251,237,140780,1,8,0:0:0:0:
251,237,140949,1,0,0:0:0:0:
251,237,141118,1,0,0:0:0:0:
251,237,141288,1,8,0:0:0:0:
251,237,141457,1,8,0:0:0:0:
251,237,141627,1,0,0:0:0:0:
251,237,141796,1,8,0:0:0:0:
277,237,142135,1,8,0:0:0:0:
287,203,142305,1,8,0:0:0:0:
282,203,142390,1,0,0:0:0:0:
287,203,142474,1,8,0:0:0:0:
258,182,142644,1,0,0:0:0:0:
258,182,142813,1,8,0:0:0:0:
258,182,142983,1,0,0:0:0:0:
258,182,143152,1,8,0:0:0:0:
258,182,143491,1,8,0:0:0:0:
271,202,143661,1,0,0:0:0:0:
271,202,143830,1,8,0:0:0:0:
271,202,144000,1,8,0:0:0:0:
271,202,144085,1,8,0:0:0:0:
271,202,144169,1,0,0:0:0:0:
271,202,144339,1,0,0:0:0:0:
271,202,144508,1,8,0:0:0:0:
276,215,144847,1,8,0:0:0:0:
276,215,145017,1,0,0:0:0:0:
266,174,145186,1,8,0:0:0:0:
287,215,145271,1,8,0:0:0:0:
287,215,145356,1,0,0:0:0:0:
287,214,145525,1,8,0:0:0:0:
271,217,145695,1,0,0:0:0:0:
325,225,145864,1,8,0:0:0:0:
253,219,146034,1,8,0:0:0:0:
248,219,146203,1,8,0:0:0:0:
248,219,146373,1,0,0:0:0:0:
248,219,146457,1,0,0:0:0:0:
248,219,146542,1,8,0:0:0:0:
248,219,146712,1,8,0:0:0:0:
248,219,146881,1,0,0:0:0:0:
248,219,147051,1,0,0:0:0:0:
248,219,147220,1,8,0:0:0:0:
266,197,147559,1,8,0:0:0:0:
257,196,147729,1,8,0:0:0:0:
257,196,147898,1,0,0:0:0:0:
259,195,148068,1,0,0:0:0:0:
257,196,148152,1,0,0:0:0:0:
259,195,148237,1,8,0:0:0:0:
287,211,148407,1,0,0:0:0:0:
301,242,148576,1,8,0:0:0:0:
273,204,148915,1,8,0:0:0:0:
269,209,149085,1,0,0:0:0:0:
269,209,149254,1,8,0:0:0:0:
269,209,149424,1,8,0:0:0:0:
269,209,149508,1,0,0:0:0:0:
269,209,149593,1,0,0:0:0:0:
269,209,149763,1,0,0:0:0:0:
269,209,149932,1,8,0:0:0:0:
277,208,150102,1,0,0:0:0:0:
263,196,150271,1,8,0:0:0:0:
252,193,150441,1,0,0:0:0:0:
252,197,150610,1,8,0:0:0:0:
252,197,150780,1,8,0:0:0:0:
252,197,150864,1,0,0:0:0:0:
252,197,150949,1,8,0:0:0:0:
252,197,151118,1,8,0:0:0:0:
125,228,151966,2,0,L|158:192,6,35
250,199,152644,1,0,0:0:0:0:
250,199,152813,1,0,0:0:0:0:
250,199,152983,1,8,0:0:0:0:
250,199,153152,1,0,0:0:0:0:
250,199,153322,1,0,0:0:0:0:
250,199,153491,1,8,0:0:0:0:
230,192,154000,1,0,0:0:0:0:
230,192,154169,1,0,0:0:0:0:
230,186,154339,1,8,0:0:0:0:
230,186,154508,1,0,0:0:0:0:
230,186,154678,1,0,0:0:0:0:
230,186,154847,1,8,0:0:0:0:
241,192,154932,1,0,0:0:0:0:
252,192,155017,1,8,0:0:0:0:
252,192,155102,1,8,0:0:0:0:
252,192,155186,1,8,0:0:0:0:
252,192,155356,1,0,0:0:0:0:
271,202,155525,1,0,0:0:0:0:
271,202,155695,1,8,0:0:0:0:
271,202,155864,1,0,0:0:0:0:
271,202,156034,1,0,0:0:0:0:
271,202,156203,1,8,0:0:0:0:
318,197,156712,1,0,0:0:0:0:
300,206,156881,1,0,0:0:0:0:
300,206,157051,1,8,0:0:0:0:
300,206,157220,1,0,0:0:0:0:
300,206,157390,1,8,0:0:0:0:
321,207,157474,1,0,0:0:0:0:
300,206,157559,1,8,0:0:0:0:
290,197,157644,1,0,0:0:0:0:
277,177,157729,1,8,0:0:0:0:
325,241,157898,1,8,0:0:0:0:
314,232,157983,1,8,0:0:0:0:
297,195,158068,1,0,0:0:0:0:
271,220,158237,1,0,0:0:0:0:
276,222,158407,1,8,0:0:0:0:
276,222,158576,1,0,0:0:0:0:
276,222,158661,1,0,0:0:0:0:
276,222,158746,1,0,0:0:0:0:
276,222,158915,1,8,0:0:0:0:
251,207,159424,1,0,0:0:0:0:
251,207,159593,1,0,0:0:0:0:
251,207,159763,1,8,0:0:0:0:
251,207,159932,1,0,0:0:0:0:
251,207,160102,1,0,0:0:0:0:
251,207,160271,1,8,0:0:0:0:
282,202,160356,1,0,0:0:0:0:
282,202,160441,1,8,0:0:0:0:
282,202,160525,1,8,0:0:0:0:
282,202,160610,1,8,0:0:0:0:
303,237,160780,1,0,0:0:0:0:
263,220,160949,1,0,0:0:0:0:
263,216,161118,1,8,0:0:0:0:
263,216,161288,1,0,0:0:0:0:
263,220,161457,1,0,0:0:0:0:
263,220,161627,1,8,0:0:0:0:
253,210,162135,1,0,0:0:0:0:
253,210,162305,1,0,0:0:0:0:
253,210,162474,1,0,0:0:0:0:
253,210,162644,1,0,0:0:0:0:
253,210,162813,1,8,0:0:0:0:
247,211,162898,1,8,0:0:0:0:
247,211,162983,1,0,0:0:0:0:
247,211,163068,1,8,0:0:0:0:
247,211,163152,1,8,0:0:0:0:
247,211,163322,1,8,0:0:0:0:
247,212,163407,1,8,0:0:0:0:
247,211,163491,1,4,0:0:0:0:
235,216,165695,1,0,0:0:0:0:
235,216,165780,1,0,0:0:0:0:
235,216,165864,1,8,0:0:0:0:
235,216,165949,1,8,0:0:0:0:
235,216,166034,1,8,0:0:0:0:
252,194,166203,1,0,0:0:0:0:
152,81,168407,1,0,0:0:0:0:
152,81,168491,1,8,0:0:0:0:
152,81,168576,1,0,0:0:0:0:
152,81,168746,1,8,0:0:0:0:
152,81,168830,1,8,0:0:0:0:
219,187,168915,1,0,0:0:0:0:
219,187,169254,1,0,0:0:0:0:
214,187,169593,1,0,0:0:0:0:
249,204,169763,1,8,0:0:0:0:
214,187,169932,1,0,0:0:0:0:
212,187,170271,1,0,0:0:0:0:
209,185,170610,1,0,0:0:0:0:
209,184,170949,1,0,0:0:0:0:
247,172,171118,1,8,0:0:0:0:
209,184,171288,1,0,0:0:0:0:
209,185,171627,1,0,0:0:0:0:
233,206,171796,1,8,0:0:0:0:
232,202,171966,1,0,0:0:0:0:
232,201,172135,1,8,0:0:0:0:
232,201,172305,1,0,0:0:0:0:
248,183,172474,1,8,0:0:0:0:
253,188,172559,1,8,0:0:0:0:
253,188,172644,1,0,0:0:0:0:
253,188,172813,1,8,0:0:0:0:
379,210,172983,1,0,0:0:0:0:
277,192,173661,1,0,0:0:0:0:
277,192,173746,1,0,0:0:0:0:
272,194,173830,1,0,0:0:0:0:
270,194,173915,1,0,0:0:0:0:
270,194,174000,1,8,0:0:0:0:
248,200,174339,1,4,0:0:0:0:
250,203,174678,1,8,0:0:0:0:
250,197,174847,1,0,0:0:0:0:
250,197,174932,1,0,0:0:0:0:
250,197,175017,1,8,0:0:0:0:
250,197,175186,1,0,0:0:0:0:
271,201,175356,1,8,0:0:0:0:
271,201,175525,1,8,0:0:0:0:
271,201,175695,1,8,0:0:0:0:
236,174,175780,1,8,0:0:0:0:
279,200,175864,1,8,0:0:0:0:
322,195,175949,1,8,0:0:0:0:
398,227,176034,1,0,0:0:0:0:
292,223,176203,1,0,0:0:0:0:
292,218,176373,1,8,0:0:0:0:
292,218,176457,1,0,0:0:0:0:
292,218,176542,1,8,0:0:0:0:
292,218,176627,1,0,0:0:0:0:
292,218,176712,1,8,0:0:0:0:
244,201,177051,1,12,0:0:0:0:
244,201,177220,1,0,0:0:0:0:
243,191,177390,1,8,0:0:0:0:
249,201,177559,1,12,0:0:0:0:
238,190,177729,1,0,0:0:0:0:
238,190,177813,1,0,0:0:0:0:
238,190,177898,1,8,0:0:0:0:
288,192,178068,1,12,0:0:0:0:
224,192,178237,1,0,0:0:0:0:
224,192,178322,1,0,0:0:0:0:
256,192,178407,1,8,0:0:0:0:
249,201,178576,1,12,0:0:0:0:
224,192,178746,1,8,0:0:0:0:
224,192,178830,1,8,0:0:0:0:
224,192,178915,1,0,0:0:0:0:
256,192,179085,1,12,0:0:0:0:
256,192,179254,1,0,0:0:0:0:
224,192,179424,1,12,0:0:0:0:
192,192,179763,1,0,0:0:0:0:
224,224,179932,1,0,0:0:0:0:
224,192,180102,1,8,0:0:0:0:
224,224,180186,1,8,0:0:0:0:
256,192,180271,1,0,0:0:0:0:
256,192,180441,1,0,0:0:0:0:
256,192,180610,1,8,0:0:0:0:
256,192,180780,1,0,0:0:0:0:
225,175,180864,1,8,0:0:0:0:
224,192,180949,1,8,0:0:0:0:
256,192,181034,1,8,0:0:0:0:
224,192,181118,1,0,0:0:0:0:
256,192,181288,1,0,0:0:0:0:
256,192,181457,1,8,0:0:0:0:
256,192,181627,1,0,0:0:0:0:
256,192,181796,1,0,0:0:0:0:
256,192,181881,1,0,0:0:0:0:
256,192,181966,1,8,0:0:0:0:
256,192,182051,1,0,0:0:0:0:
256,192,182135,1,8,0:0:0:0:
256,192,182474,1,0,0:0:0:0:
256,192,182644,1,0,0:0:0:0:
256,192,182813,1,8,0:0:0:0:
256,192,182983,1,0,0:0:0:0:
256,192,183322,1,8,0:0:0:0:
256,192,183491,1,12,0:0:0:0:
256,192,183661,1,0,0:0:0:0:
256,192,183830,1,8,0:0:0:0:
256,192,183915,1,8,0:0:0:0:
256,192,184000,1,0,0:0:0:0:
256,192,184169,1,12,0:0:0:0:
256,192,184339,1,0,0:0:0:0:
200,224,184424,1,0,0:0:0:0:
256,192,184508,1,8,0:0:0:0:
256,192,184678,1,0,0:0:0:0:
256,192,184847,1,12,0:0:0:0:
288,224,185186,1,4,0:0:0:0:
256,224,185525,1,8,0:0:0:0:
256,224,185695,1,0,0:0:0:0:
256,224,185780,1,0,0:0:0:0:
256,224,185864,1,8,0:0:0:0:
256,224,186034,1,8,0:0:0:0:
256,224,186203,1,0,0:0:0:0:
256,224,186373,1,8,0:0:0:0:
256,224,186542,1,8,0:0:0:0:
288,224,186712,1,0,0:0:0:0:
288,224,186796,1,0,0:0:0:0:
281,233,186881,1,8,0:0:0:0:
278,170,186966,1,8,0:0:0:0:
280,230,187051,1,0,0:0:0:0:
280,233,187220,1,8,0:0:0:0:
280,233,187305,1,8,0:0:0:0:
280,233,187390,1,8,0:0:0:0:
280,233,187474,1,0,0:0:0:0:
280,233,187559,1,8,0:0:0:0:
221,215,187898,1,12,0:0:0:0:
227,206,188068,1,0,0:0:0:0:
244,195,188237,1,8,0:0:0:0:
244,195,188407,1,12,0:0:0:0:
244,195,188576,1,0,0:0:0:0:
244,195,188661,1,0,0:0:0:0:
244,195,188746,1,8,0:0:0:0:
255,192,188915,1,12,0:0:0:0:
205,151,189085,1,0,0:0:0:0:
282,192,189169,1,0,0:0:0:0:
258,185,189254,1,8,0:0:0:0:
281,217,189424,1,12,0:0:0:0:
281,217,189593,1,8,0:0:0:0:
266,167,189678,1,8,0:0:0:0:
275,213,189763,1,0,0:0:0:0:
263,170,189932,1,12,0:0:0:0:
239,201,190102,1,0,0:0:0:0:
239,201,190271,1,12,0:0:0:0:
237,187,190610,1,0,0:0:0:0:
270,233,190780,1,0,0:0:0:0:
273,229,190949,1,8,0:0:0:0:
270,233,191034,1,8,0:0:0:0:
273,229,191118,1,0,0:0:0:0:
266,221,191288,1,0,0:0:0:0:
266,221,191457,1,8,0:0:0:0:
255,210,191627,1,0,0:0:0:0:
256,183,191712,1,8,0:0:0:0:
276,237,191796,1,0,0:0:0:0:
262,186,191881,1,8,0:0:0:0:
276,237,191966,1,0,0:0:0:0:
265,222,192135,1,0,0:0:0:0:
266,221,192220,1,0,0:0:0:0:
266,221,192305,1,8,0:0:0:0:
249,221,192474,1,0,0:0:0:0:
252,227,192644,1,0,0:0:0:0:
252,227,192729,1,8,0:0:0:0:
252,227,192813,1,8,0:0:0:0:
310,265,192898,1,0,0:0:0:0:
252,227,192983,1,8,0:0:0:0:
260,227,193322,1,8,0:0:0:0:
254,218,193491,1,0,0:0:0:0:
261,209,193661,1,8,0:0:0:0:
261,209,193830,1,0,0:0:0:0:
254,218,193915,1,0,0:0:0:0:
261,209,194000,1,8,0:0:0:0:
261,209,194169,1,0,0:0:0:0:
261,209,194339,1,8,0:0:0:0:
261,209,194508,1,8,0:0:0:0:
265,204,194593,1,8,0:0:0:0:
261,209,194678,1,0,0:0:0:0:
236,199,194847,1,8,0:0:0:0:
236,199,195017,1,8,0:0:0:0:
236,199,195186,1,8,0:0:0:0:
236,199,195356,1,8,0:0:0:0:
264,212,195441,1,8,0:0:0:0:
263,212,195525,1,8,0:0:0:0:
263,212,195610,1,8,0:0:0:0:
263,212,195695,1,0,0:0:0:0:
281,231,195864,1,0,0:0:0:0:
281,231,195949,1,0,0:0:0:0:
281,231,196034,1,12,0:0:0:0:
285,201,196373,1,8,0:0:0:0:
426,252,196542,1,0,0:0:0:0:
336,248,196627,1,0,0:0:0:0:
336,248,196712,1,8,0:0:0:0:
336,248,196881,1,8,0:0:0:0:
340,248,197051,1,0,0:0:0:0:
340,250,197220,1,0,0:0:0:0:
287,240,197305,1,0,0:0:0:0:
257,207,197390,1,8,0:0:0:0:
369,250,197559,1,0,0:0:0:0:
263,198,197729,1,8,0:0:0:0:
302,236,197813,1,8,0:0:0:0:
263,198,197898,1,0,0:0:0:0:
263,198,198068,1,8,0:0:0:0:
312,220,198152,1,0,0:0:0:0:
263,198,198237,1,0,0:0:0:0:
263,198,198322,1,0,0:0:0:0:
263,198,198407,1,8,0:0:0:0:
271,199,198746,1,12,0:0:0:0:
265,202,198915,1,0,0:0:0:0:
265,202,199085,1,0,0:0:0:0:
263,198,199254,1,12,0:0:0:0:
264,191,199424,1,0,0:0:0:0:
264,191,199593,1,0,0:0:0:0:
279,195,199763,1,12,0:0:0:0:
264,191,199932,1,0,0:0:0:0:
258,186,200102,1,0,0:0:0:0:
278,195,200271,1,12,0:0:0:0:
258,186,200441,1,0,0:0:0:0:
258,186,200610,1,0,0:0:0:0:
260,175,200780,1,12,0:0:0:0:
245,175,200949,1,0,0:0:0:0:
202,184,201034,1,0,0:0:0:0:
245,175,201118,1,12,0:0:0:0:
234,163,201457,1,0,0:0:0:0:
246,178,201796,1,8,0:0:0:0:
246,178,201966,1,0,0:0:0:0:
246,178,202051,1,0,0:0:0:0:
246,178,202135,1,8,0:0:0:0:
219,177,202305,1,0,0:0:0:0:
219,177,202474,1,8,0:0:0:0:
247,183,202644,1,0,0:0:0:0:
247,183,202729,1,0,0:0:0:0:
247,183,202813,1,8,0:0:0:0:
299,200,202898,1,8,0:0:0:0:
247,183,202983,1,0,0:0:0:0:
275,218,203152,1,8,0:0:0:0:
275,218,203322,1,8,0:0:0:0:
275,218,203407,1,8,0:0:0:0:
257,172,203491,1,0,0:0:0:0:
249,179,203661,1,0,0:0:0:0:
246,208,203746,1,0,0:0:0:0:
249,179,203830,1,8,0:0:0:0:
263,192,204169,1,0,0:0:0:0:
263,192,204339,1,0,0:0:0:0:
263,190,204508,1,8,0:0:0:0:
262,205,204678,1,0,0:0:0:0:
247,190,204847,1,0,0:0:0:0:
247,190,204932,1,0,0:0:0:0:
249,190,205017,1,0,0:0:0:0:
249,190,205186,1,12,0:0:0:0:
301,217,205356,1,0,0:0:0:0:
301,217,205525,1,0,0:0:0:0:
301,217,205695,1,12,0:0:0:0:
301,217,205864,1,0,0:0:0:0:
301,217,205949,1,0,0:0:0:0:
301,217,206034,1,0,0:0:0:0:
301,217,206203,1,8,0:0:0:0:
245,192,206288,1,8,0:0:0:0:
245,192,206373,1,0,0:0:0:0:
245,192,206542,1,8,0:0:0:0:
245,192,206627,1,8,0:0:0:0:
251,179,206712,1,8,0:0:0:0:
255,179,206796,1,8,0:0:0:0:
256,207,206881,1,0,0:0:0:0:
256,193,208237,1,8,0:0:0:0:
257,192,209593,1,0,0:0:0:0:
307,166,210949,1,8,0:0:0:0:
259,195,212305,1,8,0:0:0:0:
259,195,212644,1,8,0:0:0:0:
259,195,212983,1,8,0:0:0:0:
259,195,213152,1,0,0:0:0:0:
259,195,213322,1,8,0:0:0:0:
259,195,213661,1,8,0:0:0:0:
262,191,214000,1,8,0:0:0:0:
262,191,214339,1,8,0:0:0:0:
262,191,214508,1,0,0:0:0:0:
262,191,214678,1,8,0:0:0:0:
262,191,215017,1,8,0:0:0:0:
262,191,215186,1,0,0:0:0:0:
262,191,215356,1,8,0:0:0:0:
262,191,215525,1,0,0:0:0:0:
262,191,215695,1,8,0:0:0:0:
262,191,215864,1,8,0:0:0:0:
262,191,215949,1,0,0:0:0:0:
262,191,216034,1,8,0:0:0:0:
231,183,216203,1,8,0:0:0:0:
271,188,216373,1,0,0:0:0:0:
283,205,217051,1,0,0:0:0:0:
283,205,217135,1,0,0:0:0:0:
283,205,217220,1,0,0:0:0:0:
283,205,217305,1,0,0:0:0:0:
281,201,217390,1,8,0:0:0:0:
200,193,217729,1,4,0:0:0:0:
210,195,218068,1,8,0:0:0:0:
229,202,218237,1,0,0:0:0:0:
229,202,218322,1,0,0:0:0:0:
229,202,218407,1,8,0:0:0:0:
197,187,218576,1,8,0:0:0:0:
197,187,218746,1,0,0:0:0:0:
200,187,218915,1,0,0:0:0:0:
202,188,219085,1,8,0:0:0:0:
267,176,219169,1,0,0:0:0:0:
208,201,219254,1,8,0:0:0:0:
210,201,219339,1,8,0:0:0:0:
210,201,219424,1,0,0:0:0:0:
210,201,219593,1,0,0:0:0:0:
209,201,219763,1,8,0:0:0:0:
221,215,219847,1,0,0:0:0:0:
221,212,219932,1,8,0:0:0:0:
222,212,220017,1,0,0:0:0:0:
223,211,220102,1,8,0:0:0:0:
231,212,220441,1,12,0:0:0:0:
238,212,220610,1,0,0:0:0:0:
241,212,220780,1,8,0:0:0:0:
234,205,220949,1,12,0:0:0:0:
225,202,221118,1,0,0:0:0:0:
225,202,221203,1,0,0:0:0:0:
225,202,221288,1,8,0:0:0:0:
231,204,221457,1,12,0:0:0:0:
225,202,221627,1,0,0:0:0:0:
225,202,221712,1,0,0:0:0:0:
225,202,221796,1,8,0:0:0:0:
240,200,221966,1,12,0:0:0:0:
240,197,222135,1,8,0:0:0:0:
242,193,222220,1,8,0:0:0:0:
230,191,222305,1,0,0:0:0:0:
196,189,222474,1,12,0:0:0:0:
252,179,222644,1,0,0:0:0:0:
253,179,222813,1,12,0:0:0:0:
242,185,223152,1,0,0:0:0:0:
258,185,223322,1,0,0:0:0:0:
259,186,223491,1,8,0:0:0:0:
259,186,223576,1,8,0:0:0:0:
259,186,223661,1,0,0:0:0:0:
253,179,223830,1,0,0:0:0:0:
251,178,224000,1,8,0:0:0:0:
251,178,224169,1,0,0:0:0:0:
166,186,224254,1,8,0:0:0:0:
251,178,224339,1,0,0:0:0:0:
254,163,224424,1,8,0:0:0:0:
251,178,224508,1,0,0:0:0:0:
250,195,224678,1,0,0:0:0:0:
250,195,224847,1,8,0:0:0:0:
260,201,225017,1,0,0:0:0:0:
260,200,225186,1,0,0:0:0:0:
260,200,225271,1,0,0:0:0:0:
260,200,225356,1,8,0:0:0:0:
260,200,225441,1,0,0:0:0:0:
260,200,225525,1,8,0:0:0:0:
204,199,225864,1,0,0:0:0:0:
219,222,226034,1,0,0:0:0:0:
205,217,226203,1,8,0:0:0:0:
266,228,226373,1,0,0:0:0:0:
282,227,226712,1,8,0:0:0:0:
226,195,226881,1,12,0:0:0:0:
253,220,227051,1,0,0:0:0:0:
253,220,227220,1,8,0:0:0:0:
233,200,227305,1,8,0:0:0:0:
241,205,227390,1,0,0:0:0:0:
241,205,227559,1,12,0:0:0:0:
252,196,227729,1,0,0:0:0:0:
288,208,227813,1,0,0:0:0:0:
252,196,227898,1,8,0:0:0:0:
227,183,228068,1,0,0:0:0:0:
227,183,228237,1,12,0:0:0:0:
239,187,228576,1,4,0:0:0:0:
201,178,228915,1,8,0:0:0:0:
235,185,229085,1,0,0:0:0:0:
235,187,229169,1,0,0:0:0:0:
235,187,229254,1,8,0:0:0:0:
235,187,229424,1,0,0:0:0:0:
235,187,229593,1,8,0:0:0:0:
235,185,229763,1,0,0:0:0:0:
235,185,229932,1,8,0:0:0:0:
234,201,230017,1,0,0:0:0:0:
192,192,230102,1,8,0:0:0:0:
224,192,230186,1,8,0:0:0:0:
224,192,230271,1,0,0:0:0:0:
224,192,230441,1,0,0:0:0:0:
224,192,230610,1,8,0:0:0:0:
224,192,230695,1,8,0:0:0:0:
224,192,230780,1,8,0:0:0:0:
224,192,230864,1,0,0:0:0:0:
224,192,230949,1,8,0:0:0:0:
256,224,231288,1,12,0:0:0:0:
256,224,231457,1,0,0:0:0:0:
256,224,231627,1,8,0:0:0:0:
256,224,231796,1,12,0:0:0:0:
256,224,231966,1,0,0:0:0:0:
256,224,232051,1,0,0:0:0:0:
256,224,232135,1,8,0:0:0:0:
256,224,232305,1,12,0:0:0:0:
256,224,232474,1,0,0:0:0:0:
291,212,232559,1,0,0:0:0:0:
256,224,232644,1,8,0:0:0:0:
256,224,232813,1,12,0:0:0:0:
256,224,232983,1,8,0:0:0:0:
136,186,233068,1,8,0:0:0:0:
256,224,233152,1,0,0:0:0:0:
256,224,233322,1,12,0:0:0:0:
288,224,233491,1,0,0:0:0:0:
288,224,233661,1,12,0:0:0:0:
288,224,234000,1,0,0:0:0:0:
256,224,234169,1,0,0:0:0:0:
256,224,234339,1,8,0:0:0:0:
256,224,234424,1,8,0:0:0:0:
256,224,234508,1,0,0:0:0:0:
256,224,234678,1,0,0:0:0:0:
256,224,234847,1,8,0:0:0:0:
256,224,235017,1,0,0:0:0:0:
256,212,235102,1,8,0:0:0:0:
256,211,235186,1,0,0:0:0:0:
256,211,235271,1,8,0:0:0:0:
256,224,235356,1,0,0:0:0:0:
256,224,235525,1,0,0:0:0:0:
256,224,235695,1,8,0:0:0:0:
256,224,235864,1,0,0:0:0:0:
256,224,236034,1,0,0:0:0:0:
256,224,236118,1,8,0:0:0:0:
256,224,236203,1,8,0:0:0:0:
256,224,236288,1,0,0:0:0:0:
256,224,236373,1,8,0:0:0:0:
288,224,236712,1,8,0:0:0:0:
288,256,236881,1,0,0:0:0:0:
288,256,237051,1,8,0:0:0:0:
288,256,237220,1,0,0:0:0:0:
288,256,237305,1,0,0:0:0:0:
288,256,237390,1,8,0:0:0:0:
288,256,237559,1,0,0:0:0:0:
288,224,237729,1,8,0:0:0:0:
288,224,237898,1,8,0:0:0:0:
288,224,237983,1,8,0:0:0:0:
288,224,238068,1,0,0:0:0:0:
288,224,238237,1,8,0:0:0:0:
288,224,238407,1,8,0:0:0:0:
288,224,238576,1,8,0:0:0:0:
288,224,238746,1,8,0:0:0:0:
288,224,238830,1,8,0:0:0:0:
288,224,238915,1,8,0:0:0:0:
224,224,239000,1,8,0:0:0:0:
256,224,239085,1,0,0:0:0:0:
256,224,239254,1,0,0:0:0:0:
256,224,239339,1,0,0:0:0:0:
256,224,239424,1,8,0:0:0:0:
256,224,239763,1,8,0:0:0:0:
224,224,239932,1,0,0:0:0:0:
192,192,240017,1,8,0:0:0:0:
256,224,240102,1,0,0:0:0:0:
256,224,240271,1,0,0:0:0:0:
256,224,240441,1,8,0:0:0:0:
256,224,240610,1,8,0:0:0:0:
256,224,240695,1,8,0:0:0:0:
256,224,240780,1,0,0:0:0:0:
256,224,241118,1,8,0:0:0:0:
256,224,241288,1,0,0:0:0:0:
256,224,241457,1,8,0:0:0:0:
256,224,241542,1,8,0:0:0:0:
256,224,241627,1,0,0:0:0:0:
256,224,241796,1,8,0:0:0:0:
256,224,241966,1,8,0:0:0:0:
288,224,242051,1,8,0:0:0:0:
256,224,242135,1,0,0:0:0:0:
224,192,242474,1,8,0:0:0:0:
224,192,242644,1,0,0:0:0:0:
224,192,242729,1,0,0:0:0:0:
224,192,242813,1,0,0:0:0:0:
256,192,242983,1,0,0:0:0:0:
256,192,243152,1,8,0:0:0:0:
256,192,243322,1,0,0:0:0:0:
256,192,243491,1,8,0:0:0:0:
256,192,243830,1,8,0:0:0:0:
256,192,244000,1,0,0:0:0:0:
256,192,244169,1,8,0:0:0:0:
256,192,244254,1,8,0:0:0:0:
256,192,244339,1,0,0:0:0:0:
256,192,244424,1,0,0:0:0:0:
256,192,244508,1,8,0:0:0:0:
256,192,244678,1,8,0:0:0:0:
256,192,244847,1,0,0:0:0:0:
256,192,245186,1,8,0:0:0:0:
256,192,245356,1,8,0:0:0:0:
256,192,245441,1,0,0:0:0:0:
256,192,245525,1,8,0:0:0:0:
256,192,245695,1,0,0:0:0:0:
256,192,245864,1,8,0:0:0:0:
256,192,246034,1,8,0:0:0:0:
256,192,246118,1,8,0:0:0:0:
256,192,246203,1,0,0:0:0:0:
256,224,246542,1,8,0:0:0:0:
256,224,246712,1,0,0:0:0:0:
256,224,246881,1,8,0:0:0:0:
256,224,246966,1,0,0:0:0:0:
256,224,247051,1,0,0:0:0:0:
160,192,247135,1,0,0:0:0:0:
224,224,247220,1,8,0:0:0:0:
256,224,247390,1,8,0:0:0:0:
256,224,247559,1,0,0:0:0:0:
256,224,247898,1,8,0:0:0:0:
256,224,248068,1,0,0:0:0:0:
256,224,248152,1,0,0:0:0:0:
256,224,248237,1,0,0:0:0:0:
256,224,248407,1,8,0:0:0:0:
256,224,248576,1,0,0:0:0:0:
256,224,248746,1,0,0:0:0:0:
247,210,248830,1,0,0:0:0:0:
256,224,248915,1,8,0:0:0:0:
256,192,249085,1,0,0:0:0:0:
256,224,249254,1,8,0:0:0:0:
256,224,249424,1,8,0:0:0:0:
172,174,249508,1,8,0:0:0:0:
256,224,249593,1,0,0:0:0:0:
256,192,249763,1,0,0:0:0:0:
288,192,249932,1,8,0:0:0:0:
256,192,250017,1,8,0:0:0:0:
256,192,250102,1,8,0:0:0:0:
250,185,250186,1,8,0:0:0:0:
288,192,250271,1,0,0:0:0:0:
301,190,251627,1,8,0:0:0:0:
256,192,252983,1,0,0:0:0:0:
296,181,254339,1,8,0:0:0:0:
282,208,255695,1,8,0:0:0:0:
244,196,256034,1,8,0:0:0:0:
244,196,256373,1,8,0:0:0:0:
224,184,256542,1,0,0:0:0:0:
244,196,256712,1,8,0:0:0:0:
244,196,257051,1,8,0:0:0:0:
244,196,257390,1,8,0:0:0:0:
244,196,257729,1,8,0:0:0:0:
280,242,257898,1,0,0:0:0:0:
244,196,258068,1,8,0:0:0:0:
244,196,258407,1,8,0:0:0:0:
286,234,258576,1,0,0:0:0:0:
286,234,258746,1,8,0:0:0:0:
286,234,258915,1,0,0:0:0:0:
286,234,259085,1,8,0:0:0:0:
286,234,259254,1,8,0:0:0:0:
286,234,259339,1,0,0:0:0:0:
286,234,259424,1,8,0:0:0:0:
286,234,259593,1,8,0:0:0:0:
268,240,259763,1,0,0:0:0:0:
256,189,261118,1,12,0:0:0:0:
261,169,261288,1,0,0:0:0:0:
248,182,261457,1,8,0:0:0:0:
248,187,261627,1,8,0:0:0:0:
248,187,261796,1,8,0:0:0:0:
248,187,261966,1,0,0:0:0:0:
248,187,262135,1,0,0:0:0:0:
248,187,262305,1,0,0:0:0:0:
248,187,262474,1,8,0:0:0:0:
224,185,262813,1,8,0:0:0:0:
224,185,262983,1,8,0:0:0:0:
224,185,263152,1,0,0:0:0:0:
224,185,263322,1,8,0:0:0:0:
224,185,263491,1,8,0:0:0:0:
224,185,263661,1,0,0:0:0:0:
224,185,263830,1,8,0:0:0:0:
263,200,264169,1,8,0:0:0:0:
263,200,264339,1,8,0:0:0:0:
263,200,264508,1,8,0:0:0:0:
263,200,264678,1,0,0:0:0:0:
263,200,264847,1,0,0:0:0:0:
263,200,265017,1,0,0:0:0:0:
263,200,265186,1,8,0:0:0:0:
282,236,265356,1,0,0:0:0:0:
282,236,265525,1,8,0:0:0:0:
282,236,265695,1,0,0:0:0:0:
282,236,265864,1,8,0:0:0:0:
282,236,266034,1,8,0:0:0:0:
282,236,266203,1,0,0:0:0:0:
282,236,266373,1,0,0:0:0:0:
282,236,266542,1,8,0:0:0:0:
254,203,266881,1,8,0:0:0:0:
252,196,267051,1,8,0:0:0:0:
252,196,267220,1,0,0:0:0:0:
252,196,267390,1,0,0:0:0:0:
252,196,267559,1,0,0:0:0:0:
252,196,267729,1,0,0:0:0:0:
252,196,267898,1,8,0:0:0:0:
308,188,268237,1,8,0:0:0:0:
257,210,268407,1,0,0:0:0:0:
257,210,268576,1,0,0:0:0:0:
261,206,268746,1,8,0:0:0:0:
272,208,268915,1,0,0:0:0:0:
272,208,269085,1,0,0:0:0:0:
272,208,269254,1,8,0:0:0:0:
246,201,269593,1,8,0:0:0:0:
246,201,269763,1,8,0:0:0:0:
246,201,269932,1,0,0:0:0:0:
246,201,270102,1,0,0:0:0:0:
246,201,270271,1,8,0:0:0:0:
246,201,270441,1,0,0:0:0:0:
246,201,270610,1,8,0:0:0:0:
246,201,270780,1,8,0:0:0:0:
246,201,270949,1,0,0:0:0:0:
274,237,271118,1,8,0:0:0:0:
274,237,271288,1,0,0:0:0:0:
274,237,271457,1,8,0:0:0:0:
274,237,271627,1,8,0:0:0:0:
274,237,271796,1,0,0:0:0:0:
274,237,271966,1,8,0:0:0:0:
230,203,272305,1,8,0:0:0:0:
230,203,272474,1,8,0:0:0:0:
230,203,272559,1,8,0:0:0:0:
230,203,272644,1,0,0:0:0:0:
230,203,272813,1,0,0:0:0:0:
230,203,272983,1,8,0:0:0:0:
230,203,273152,1,0,0:0:0:0:
230,203,273322,1,8,0:0:0:0:
251,192,273661,1,8,0:0:0:0:
251,192,273830,1,0,0:0:0:0:
251,192,273915,1,0,0:0:0:0:
251,192,274000,1,8,0:0:0:0:
251,192,274169,1,0,0:0:0:0:
251,192,274339,1,8,0:0:0:0:
251,192,274508,1,0,0:0:0:0:
251,192,274678,1,8,0:0:0:0:
260,203,275017,1,8,0:0:0:0:
241,204,275186,1,0,0:0:0:0:
238,201,275356,1,8,0:0:0:0:
238,201,275525,1,8,0:0:0:0:
238,201,275610,1,0,0:0:0:0:
236,201,275695,1,8,0:0:0:0:
236,201,275864,1,8,0:0:0:0:
236,201,276034,1,8,0:0:0:0:
256,207,276203,1,0,0:0:0:0:
256,207,276373,1,8,0:0:0:0:
256,207,276542,1,0,0:0:0:0:
256,207,276712,1,8,0:0:0:0:
256,207,276881,1,8,0:0:0:0:
256,207,276966,1,0,0:0:0:0:
256,207,277051,1,8,0:0:0:0:
256,207,277220,1,0,0:0:0:0:
256,207,277390,1,8,0:0:0:0:
230,215,277729,1,8,0:0:0:0:
230,215,277898,1,0,0:0:0:0:
230,215,277983,1,0,0:0:0:0:
230,215,278068,1,8,0:0:0:0:
230,215,278237,1,0,0:0:0:0:
230,215,278407,1,8,0:0:0:0:
230,215,278576,1,0,0:0:0:0:
230,215,278661,1,0,0:0:0:0:
230,215,278746,1,8,0:0:0:0:
232,194,279085,1,8,0:0:0:0:
232,194,279254,1,8,0:0:0:0:
232,194,279339,1,8,0:0:0:0:
232,194,279424,1,0,0:0:0:0:
232,194,279593,1,0,0:0:0:0:
232,194,279763,1,8,0:0:0:0:
232,194,279932,1,0,0:0:0:0:
232,194,280017,1,0,0:0:0:0:
232,194,280102,1,8,0:0:0:0:
236,160,280271,1,0,0:0:0:0:
204,194,280441,1,8,0:0:0:0:
204,194,280610,1,0,0:0:0:0:
204,194,280780,1,8,0:0:0:0:
212,187,280864,1,8,0:0:0:0:
213,187,280949,1,0,0:0:0:0:
213,187,281118,1,8,0:0:0:0:
213,187,281203,1,0,0:0:0:0:
213,187,281288,1,8,0:0:0:0:
