osu file format v14

[General]
AudioFilename: audio.mp3
AudioLeadIn: 0
PreviewTime: 42983
Countdown: 0
SampleSet: Normal
StackLeniency: 0.7
Mode: 1
LetterboxInBreaks: 0
WidescreenStoryboard: 0

[Editor]
DistanceSpacing: 1.5
BeatDivisor: 4
GridSize: 32
TimelineZoom: 2.599999

[Metadata]
Title:DEADLINER
TitleUnicode:DEADLINER
Artist:P*Light
ArtistUnicode:P*Light
Creator:Deathwing1306
Version:INNER ONI
Source:
Tags:drum and bass dnb dubstep cubegrams edm dance music electronic instrumental radiance happy hardcore tano*c tcplus-0010 realy0_
BeatmapID:1881527
BeatmapSetID:901029

[Difficulty]
HPDrainRate:5
CircleSize:7
OverallDifficulty:6.5
ApproachRate:10
SliderMultiplier:1.4
SliderTickRate:1

[Events]
//Background and Video events
0,0,"bg lul.jpg",0,0
//Break Periods
//Storyboard Layer 0 (Background)
//Storyboard Layer 1 (Fail)
//Storyboard Layer 2 (Pass)
//Storyboard Layer 3 (Foreground)
//Storyboard Layer 4 (Overlay)
//Storyboard Sound Samples

[TimingPoints]
780,338.983050847458,4,1,0,70,1,0
780,-125,4,1,0,70,0,0
11627,-123.456790123457,4,1,0,70,0,0
11796,-121.951219512195,4,1,0,70,0,0
11966,-120.481927710843,4,1,0,70,0,0
12135,-119.047619047619,4,1,0,70,0,0
12305,-117.647058823529,4,1,0,70,0,0
17051,-116.279069767442,4,1,0,70,0,0
17220,-114.942528735632,4,1,0,70,0,0
17390,-113.636363636364,4,1,0,70,0,0
17559,-112.359550561798,4,1,0,70,0,0
17644,-111.731843575419,4,1,0,70,0,0
17729,-111.111111111111,4,1,0,70,0,0
19763,-109.89010989011,4,1,0,70,0,0
19932,-108.695652173913,4,1,0,70,0,0
20102,-107.52688172043,4,1,0,70,0,0
20186,-106.951871657754,4,1,0,70,0,0
20271,-106.382978723404,4,1,0,70,0,0
20441,-105.263157894737,4,1,0,70,0,0
20610,-104.166666666667,4,1,0,70,0,0
20695,-103.626943005181,4,1,0,70,0,0
20780,-103.092783505155,4,1,0,70,0,0
20949,-102.040816326531,4,1,0,70,0,0
21118,-101.010101010101,4,1,0,70,0,0
21796,-100,4,1,0,70,0,0
22474,-100,4,1,0,80,0,0
27898,-100,4,1,0,90,0,0
38746,-99.009900990099,4,1,0,90,0,0
39085,-98.0392156862745,4,1,0,90,0,0
39424,-97.0873786407767,4,1,0,90,0,0
39593,-96.1538461538461,4,1,0,90,0,0
39678,-95.6937799043062,4,1,0,90,0,0
39763,-95.2380952380952,4,1,0,90,0,0
39932,-94.3396226415094,4,1,0,90,0,0
40102,-93.4579439252336,4,1,0,90,0,0
40441,-92.5925925925926,4,1,0,90,0,0
40780,-91.743119266055,4,1,0,90,0,0
40949,-90.9090909090909,4,1,0,90,0,0
41118,-90.0900900900901,4,1,0,90,0,0
41288,-89.2857142857143,4,1,0,90,0,0
41373,-88.8888888888889,4,1,0,90,0,0
41457,-88.4955752212389,4,1,0,90,0,0
41627,-87.719298245614,4,1,0,90,0,0
41796,-86.9565217391304,4,1,0,90,0,0
41966,-86.2068965517241,4,1,0,90,0,0
42135,-85.4700854700855,4,1,0,90,0,0
42220,-85.1063829787234,4,1,0,90,0,0
42305,-84.7457627118644,4,1,0,90,0,0
42390,-84.3881856540084,4,1,0,90,0,0
42474,-84.0336134453781,4,1,0,90,0,0
42559,-83.6820083682008,4,1,0,90,0,0
42644,-83.3333333333333,4,1,0,90,0,0
42814,-100,4,1,0,90,0,0
44169,-90.9090909090909,4,1,0,100,0,1
64508,-90.0900900900901,4,1,0,100,0,1
64678,-89.2857142857143,4,1,0,100,0,1
64847,-88.4955752212389,4,1,0,100,0,1
65017,-87.719298245614,4,1,0,100,0,1
65186,-86.9565217391304,4,1,0,100,0,1
65271,-86.5800865800866,4,1,0,100,0,1
65356,-86.2068965517241,4,1,0,100,0,1
65441,-85.8369098712446,4,1,0,100,0,1
65525,-85.4700854700855,4,1,0,100,0,1
65610,-85.1063829787234,4,1,0,100,0,1
65695,-84.7457627118644,4,1,0,100,0,1
65780,-84.3881856540084,4,1,0,100,0,1
65864,-84.0336134453781,4,1,0,100,0,1
66034,-84.7457627118644,4,1,0,100,0,1
66118,-85.1063829787234,4,1,0,100,0,1
66203,-85.4700854700855,4,1,0,100,0,1
66373,-86.2068965517241,4,1,0,100,0,1
66542,-86.9565217391304,4,1,0,100,0,1
66712,-87.719298245614,4,1,0,100,0,1
66881,-88.4955752212389,4,1,0,100,0,1
67051,-89.2857142857143,4,1,0,100,0,1
67135,-89.6860986547085,4,1,0,100,0,1
67220,-90.0900900900901,4,1,0,100,0,1
67305,-90.4977375565611,4,1,0,100,0,1
67390,-90.9090909090909,4,1,0,100,0,1
76712,-90.9090909090909,4,1,0,90,0,0
76881,-100,4,1,0,90,0,0
82135,-99.009900990099,4,1,0,90,0,0
82474,-98.0392156862745,4,1,0,90,0,0
82813,-97.0873786407767,4,1,0,90,0,0
82983,-96.1538461538461,4,1,0,90,0,0
83152,-95.2380952380952,4,1,0,90,0,0
83491,-94.3396226415094,4,1,0,90,0,0
83661,-93.4579439252336,4,1,0,90,0,0
83830,-92.5925925925926,4,1,0,90,0,0
84169,-91.743119266055,4,1,0,90,0,0
84339,-90.9090909090909,4,1,0,90,0,0
84424,-90.4977375565611,4,1,0,90,0,0
84508,-90.0900900900901,4,1,0,90,0,0
84678,-89.2857142857143,4,1,0,90,0,0
84847,-88.4955752212389,4,1,0,90,0,0
85017,-87.719298245614,4,1,0,90,0,0
85186,-86.9565217391304,4,1,0,90,0,0
85356,-86.2068965517241,4,1,0,90,0,0
85525,-85.4700854700855,4,1,0,90,0,0
85610,-85.1063829787234,4,1,0,90,0,0
85695,-84.7457627118644,4,1,0,90,0,0
85780,-84.3881856540084,4,1,0,90,0,0
85864,-84.0336134453781,4,1,0,90,0,0
85949,-83.6820083682008,4,1,0,90,0,0
86034,-83.3333333333333,4,1,0,90,0,0
86204,-100,4,1,0,90,0,0
87559,-90.9090909090909,4,1,0,100,0,1
107898,-90.0900900900901,4,1,0,100,0,1
108068,-89.2857142857143,4,1,0,100,0,1
108237,-88.4955752212389,4,1,0,100,0,1
108407,-87.719298245614,4,1,0,100,0,1
108576,-86.9565217391304,4,1,0,100,0,1
108661,-86.5800865800866,4,1,0,100,0,1
108746,-86.2068965517241,4,1,0,100,0,1
108830,-85.8369098712446,4,1,0,100,0,1
108915,-85.4700854700855,4,1,0,100,0,1
109000,-85.1063829787234,4,1,0,100,0,1
109085,-84.7457627118644,4,1,0,100,0,1
109169,-84.3881856540084,4,1,0,100,0,1
109254,-84.0336134453781,4,1,0,100,0,0
109424,-84.7457627118644,4,1,0,100,0,0
109508,-85.1063829787234,4,1,0,100,0,0
109593,-85.4700854700855,4,1,0,100,0,0
109763,-86.2068965517241,4,1,0,100,0,0
109932,-86.9565217391304,4,1,0,100,0,0
110017,-87.3362445414847,4,1,0,100,0,0
110102,-87.719298245614,4,1,0,100,0,0
110186,-88.1057268722467,4,1,0,100,0,0
110271,-88.4955752212389,4,1,0,100,0,0
110441,-89.2857142857143,4,1,0,100,0,0
110610,-90.0900900900901,4,1,0,100,0,0
110780,-90.9090909090909,4,1,0,100,0,0
110864,-91.324200913242,4,1,0,100,0,0
110949,-91.743119266055,4,1,0,100,0,0
111118,-92.5925925925926,4,1,0,100,0,0
111288,-93.4579439252336,4,1,0,100,0,0
111373,-93.8967136150235,4,1,0,100,0,0
111457,-94.3396226415094,4,1,0,100,0,0
111542,-94.7867298578199,4,1,0,100,0,0
111627,-95.2380952380952,4,1,0,100,0,0
111796,-96.1538461538461,4,1,0,100,0,0
111966,-97.0873786407767,4,1,0,100,0,0
112135,-98.0392156862745,4,1,0,100,0,0
112220,-98.5221674876847,4,1,0,100,0,0
112305,-99.009900990099,4,1,0,100,0,0
112474,-100,4,1,0,100,0,0
120102,-100,4,1,0,90,0,0
125525,-99.009900990099,4,1,0,90,0,0
125864,-98.0392156862745,4,1,0,90,0,0
126203,-97.0873786407767,4,1,0,90,0,0
126373,-96.1538461538461,4,1,0,90,0,0
126542,-95.2380952380952,4,1,0,90,0,0
126881,-94.3396226415094,4,1,0,90,0,0
127220,-93.4579439252336,4,1,0,90,0,0
127559,-92.5925925925926,4,1,0,90,0,0
127729,-91.743119266055,4,1,0,90,0,0
127813,-91.324200913242,4,1,0,90,0,0
127898,-90.9090909090909,4,1,0,90,0,0
128068,-90.0900900900901,4,1,0,90,0,0
128237,-89.2857142857143,4,1,0,90,0,0
128407,-88.4955752212389,4,1,0,90,0,0
128576,-87.719298245614,4,1,0,90,0,0
128746,-86.9565217391304,4,1,0,90,0,0
128915,-86.2068965517241,4,1,0,90,0,0
129000,-85.8369098712446,4,1,0,90,0,0
129085,-85.4700854700855,4,1,0,90,0,0
129169,-85.1063829787234,4,1,0,90,0,0
129254,-84.7457627118644,4,1,0,90,0,0
129339,-84.3881856540084,4,1,0,90,0,0
129424,-84.0336134453781,4,1,0,90,0,0
129594,-100,4,1,0,90,0,0
130949,-125,4,1,0,70,0,0
141796,-123.456790123457,4,1,0,70,0,0
141966,-121.951219512195,4,1,0,70,0,0
142051,-121.212121212121,4,1,0,70,0,0
142135,-120.481927710843,4,1,0,70,0,0
142305,-119.047619047619,4,1,0,70,0,0
142474,-117.647058823529,4,1,0,70,0,0
147220,-116.279069767442,4,1,0,70,0,0
147390,-114.942528735632,4,1,0,70,0,0
147474,-114.285714285714,4,1,0,70,0,0
147559,-113.636363636364,4,1,0,70,0,0
147729,-112.359550561798,4,1,0,70,0,0
147898,-111.111111111111,4,1,0,70,0,0
149932,-109.89010989011,4,1,0,70,0,0
150102,-108.695652173913,4,1,0,70,0,0
150186,-108.108108108108,4,1,0,70,0,0
150271,-107.52688172043,4,1,0,70,0,0
150441,-106.382978723404,4,1,0,70,0,0
150610,-105.263157894737,4,1,0,70,0,0
150695,-104.712041884817,4,1,0,70,0,0
150780,-104.166666666667,4,1,0,70,0,0
150864,-103.626943005181,4,1,0,70,0,0
150949,-103.092783505155,4,1,0,70,0,0
151118,-102.040816326531,4,1,0,70,0,0
151288,-101.010101010101,4,1,0,70,0,0
151966,-100,4,1,0,70,0,0
152644,-100,4,1,0,80,0,0
158068,-100,4,1,0,90,0,0
168915,-99.009900990099,4,1,0,90,0,0
169254,-98.0392156862745,4,1,0,90,0,0
169593,-97.0873786407767,4,1,0,90,0,0
169763,-96.1538461538461,4,1,0,90,0,0
169847,-95.6937799043062,4,1,0,90,0,0
169932,-95.2380952380952,4,1,0,90,0,0
170102,-94.3396226415094,4,1,0,90,0,0
170271,-93.4579439252336,4,1,0,90,0,0
170610,-92.5925925925926,4,1,0,90,0,0
170949,-91.743119266055,4,1,0,90,0,0
171118,-90.9090909090909,4,1,0,90,0,0
171288,-90.0900900900901,4,1,0,90,0,0
171457,-89.2857142857143,4,1,0,90,0,0
171542,-88.8888888888889,4,1,0,90,0,0
171627,-88.4955752212389,4,1,0,90,0,0
171796,-87.719298245614,4,1,0,90,0,0
171966,-86.9565217391304,4,1,0,90,0,0
172135,-86.2068965517241,4,1,0,90,0,0
172305,-85.4700854700855,4,1,0,90,0,0
172390,-85.1063829787234,4,1,0,90,0,0
172474,-84.7457627118644,4,1,0,90,0,0
172559,-84.3881856540084,4,1,0,90,0,0
172644,-84.0336134453781,4,1,0,90,0,0
172729,-83.6820083682008,4,1,0,90,0,0
172813,-83.3333333333333,4,1,0,90,0,0
172984,-100,4,1,0,90,0,0
174339,-90.9090909090909,4,1,0,100,0,1
194678,-90.0900900900901,4,1,0,100,0,1
194847,-89.2857142857143,4,1,0,100,0,1
195017,-88.4955752212389,4,1,0,100,0,1
195186,-87.719298245614,4,1,0,100,0,1
195356,-86.9565217391304,4,1,0,100,0,1
195441,-86.5800865800866,4,1,0,100,0,1
195525,-86.2068965517241,4,1,0,100,0,1
195610,-85.8369098712446,4,1,0,100,0,1
195695,-85.4700854700855,4,1,0,100,0,1
195780,-85.1063829787234,4,1,0,100,0,1
195864,-84.7457627118644,4,1,0,100,0,1
195949,-84.3881856540084,4,1,0,100,0,1
196034,-84.0336134453781,4,1,0,100,0,1
196203,-84.7457627118644,4,1,0,100,0,1
196288,-85.1063829787234,4,1,0,100,0,1
196373,-85.4700854700855,4,1,0,100,0,1
196542,-86.2068965517241,4,1,0,100,0,1
196712,-86.9565217391304,4,1,0,100,0,1
196881,-87.719298245614,4,1,0,100,0,1
197051,-88.4955752212389,4,1,0,100,0,1
197220,-89.2857142857143,4,1,0,100,0,1
197305,-89.6860986547085,4,1,0,100,0,1
197390,-90.0900900900901,4,1,0,100,0,1
197474,-90.4977375565611,4,1,0,100,0,1
197559,-90.9090909090909,4,1,0,100,0,1
206881,-90.9090909090909,4,1,0,90,0,0
207051,-100,4,1,0,90,0,0
212305,-99.009900990099,4,1,0,90,0,0
212644,-98.0392156862745,4,1,0,90,0,0
212983,-97.0873786407767,4,1,0,90,0,0
213152,-96.1538461538461,4,1,0,90,0,0
213322,-95.2380952380952,4,1,0,90,0,0
213661,-94.3396226415094,4,1,0,90,0,0
213830,-93.4579439252336,4,1,0,90,0,0
214000,-92.5925925925926,4,1,0,90,0,0
214339,-91.743119266055,4,1,0,90,0,0
214508,-90.9090909090909,4,1,0,90,0,0
214593,-90.4977375565611,4,1,0,90,0,0
214678,-90.0900900900901,4,1,0,90,0,0
214847,-89.2857142857143,4,1,0,90,0,0
215017,-88.4955752212389,4,1,0,90,0,0
215186,-87.719298245614,4,1,0,90,0,0
215356,-86.9565217391304,4,1,0,90,0,0
215525,-86.2068965517241,4,1,0,90,0,0
215695,-85.4700854700855,4,1,0,90,0,0
215780,-85.1063829787234,4,1,0,90,0,0
215864,-84.7457627118644,4,1,0,90,0,0
215949,-84.3881856540084,4,1,0,90,0,0
216034,-84.0336134453781,4,1,0,90,0,0
216118,-83.6820083682008,4,1,0,90,0,0
216203,-83.3333333333333,4,1,0,90,0,0
216374,-100,4,1,0,90,0,0
217729,-90.9090909090909,4,1,0,100,0,1
238068,-90.0900900900901,4,1,0,100,0,1
238237,-89.2857142857143,4,1,0,100,0,1
238407,-88.4955752212389,4,1,0,100,0,1
238576,-87.719298245614,4,1,0,100,0,1
238746,-86.9565217391304,4,1,0,100,0,1
238830,-86.5800865800866,4,1,0,100,0,1
238915,-86.2068965517241,4,1,0,100,0,1
239000,-85.8369098712446,4,1,0,100,0,1
239085,-85.4700854700855,4,1,0,100,0,1
239169,-85.1063829787234,4,1,0,100,0,1
239254,-84.7457627118644,4,1,0,100,0,1
239339,-84.3881856540084,4,1,0,100,0,1
239424,-84.0336134453781,4,1,0,100,0,0
239593,-84.7457627118644,4,1,0,100,0,0
239678,-85.1063829787234,4,1,0,100,0,0
239763,-85.4700854700855,4,1,0,100,0,0
239932,-86.2068965517241,4,1,0,100,0,0
240102,-86.9565217391304,4,1,0,100,0,0
240186,-87.3362445414847,4,1,0,100,0,0
240271,-87.719298245614,4,1,0,100,0,0
240356,-88.1057268722467,4,1,0,100,0,0
240441,-88.4955752212389,4,1,0,100,0,0
240610,-89.2857142857143,4,1,0,100,0,0
240780,-90.0900900900901,4,1,0,100,0,0
240864,-90.4977375565611,4,1,0,100,0,0
240949,-90.9090909090909,4,1,0,100,0,0
241118,-91.743119266055,4,1,0,100,0,0
241288,-92.5925925925926,4,1,0,100,0,0
241457,-93.4579439252336,4,1,0,100,0,0
241542,-93.8967136150235,4,1,0,100,0,0
241627,-94.3396226415094,4,1,0,100,0,0
241712,-94.7867298578199,4,1,0,100,0,0
241796,-95.2380952380952,4,1,0,100,0,0
241966,-96.1538461538461,4,1,0,100,0,0
242135,-97.0873786407767,4,1,0,100,0,0
242305,-98.0392156862745,4,1,0,100,0,0
242390,-98.5221674876847,4,1,0,100,0,0
242474,-99.009900990099,4,1,0,100,0,0
242644,-100,4,1,0,100,0,0
250271,-100,4,1,0,90,0,0
255695,-99.009900990099,4,1,0,90,0,0
256034,-98.0392156862745,4,1,0,90,0,0
256373,-97.0873786407767,4,1,0,90,0,0
256542,-96.1538461538461,4,1,0,90,0,0
256712,-95.2380952380952,4,1,0,90,0,0
257051,-94.3396226415094,4,1,0,90,0,0
257390,-93.4579439252336,4,1,0,90,0,0
257729,-92.5925925925926,4,1,0,90,0,0
257898,-91.743119266055,4,1,0,90,0,0
257983,-91.324200913242,4,1,0,90,0,0
258068,-90.9090909090909,4,1,0,90,0,0
258237,-90.0900900900901,4,1,0,90,0,0
258407,-89.2857142857143,4,1,0,90,0,0
258576,-88.4955752212389,4,1,0,90,0,0
258746,-87.719298245614,4,1,0,90,0,0
258915,-86.9565217391304,4,1,0,90,0,0
259085,-86.2068965517241,4,1,0,90,0,0
259169,-85.8369098712446,4,1,0,90,0,0
259254,-85.4700854700855,4,1,0,90,0,0
259339,-85.1063829787234,4,1,0,90,0,0
259424,-84.7457627118644,4,1,0,90,0,0
259508,-84.3881856540084,4,1,0,90,0,0
259593,-84.0336134453781,4,1,0,90,0,0
259764,-100,4,1,0,90,0,0
261118,-125,4,1,0,70,0,0
271966,-123.456790123457,4,1,0,70,0,0
272135,-121.951219512195,4,1,0,70,0,0
272220,-121.212121212121,4,1,0,70,0,0
272305,-120.481927710843,4,1,0,70,0,0
272474,-119.047619047619,4,1,0,70,0,0
272644,-117.647058823529,4,1,0,70,0,0
277390,-116.279069767442,4,1,0,70,0,0
277559,-114.942528735632,4,1,0,70,0,0
277644,-114.285714285714,4,1,0,70,0,0
277729,-113.636363636364,4,1,0,70,0,0
277898,-112.359550561798,4,1,0,70,0,0
278068,-111.111111111111,4,1,0,70,0,0
280102,-109.89010989011,4,1,0,70,0,0
280271,-108.695652173913,4,1,0,70,0,0
280356,-108.108108108108,4,1,0,70,0,0
280441,-107.52688172043,4,1,0,70,0,0
280610,-106.382978723404,4,1,0,70,0,0
280780,-105.263157894737,4,1,0,70,0,0
280864,-104.712041884817,4,1,0,70,0,0
280949,-104.166666666667,4,1,0,70,0,0
281034,-103.626943005181,4,1,0,70,0,0
281118,-103.092783505155,4,1,0,70,0,0
281288,-102.040816326531,4,1,0,70,0,0
281457,-101.010101010101,4,1,0,70,0,0
281627,-100,4,1,0,70,0,0

[HitObjects]
269,202,780,5,12,0:0:0:0:
326,202,949,1,0,0:0:0:0:
251,204,1118,1,8,0:0:0:0:
254,190,1288,1,0,0:0:0:0:
254,190,1457,1,8,0:0:0:0:
254,190,1627,1,8,0:0:0:0:
254,190,1796,1,0,0:0:0:0:
254,190,1966,1,0,0:0:0:0:
254,190,2135,1,8,0:0:0:0:
245,203,2305,1,0,0:0:0:0:
245,203,2474,1,8,0:0:0:0:
245,203,2644,1,0,0:0:0:0:
245,203,2813,1,8,0:0:0:0:
245,203,2983,1,8,0:0:0:0:
245,203,3152,1,0,0:0:0:0:
245,203,3322,1,0,0:0:0:0:
245,203,3491,1,8,0:0:0:0:
235,208,3661,1,0,0:0:0:0:
235,208,3830,1,8,0:0:0:0:
225,208,4000,1,0,0:0:0:0:
225,208,4169,1,8,0:0:0:0:
225,208,4339,1,8,0:0:0:0:
225,208,4508,1,0,0:0:0:0:
225,208,4678,1,0,0:0:0:0:
225,208,4847,1,8,0:0:0:0:
226,190,5017,1,0,0:0:0:0:
230,190,5186,1,8,0:0:0:0:
230,190,5356,1,0,0:0:0:0:
230,190,5525,1,8,0:0:0:0:
230,190,5695,1,8,0:0:0:0:
230,190,5864,1,0,0:0:0:0:
226,190,6034,1,0,0:0:0:0:
230,190,6203,1,8,0:0:0:0:
234,207,6373,1,0,0:0:0:0:
234,209,6542,1,8,0:0:0:0:
234,209,6712,1,0,0:0:0:0:
234,209,6881,1,8,0:0:0:0:
234,209,7051,1,8,0:0:0:0:
234,209,7220,1,0,0:0:0:0:
234,207,7390,1,8,0:0:0:0:
234,209,7559,1,0,0:0:0:0:
241,192,7729,1,8,0:0:0:0:
244,192,7898,1,0,0:0:0:0:
244,192,8068,1,8,0:0:0:0:
244,192,8237,1,0,0:0:0:0:
244,192,8407,1,0,0:0:0:0:
244,192,8576,1,8,0:0:0:0:
241,192,8746,1,0,0:0:0:0:
244,192,8915,1,8,0:0:0:0:
258,193,9085,1,0,0:0:0:0:
258,193,9254,1,8,0:0:0:0:
258,193,9424,1,0,0:0:0:0:
258,193,9593,1,8,0:0:0:0:
258,193,9763,1,8,0:0:0:0:
258,193,9932,1,0,0:0:0:0:
258,193,10102,1,8,0:0:0:0:
258,193,10271,1,0,0:0:0:0:
258,193,10441,1,8,0:0:0:0:
252,192,10610,1,0,0:0:0:0:
252,192,10780,1,8,0:0:0:0:
252,192,10949,1,0,0:0:0:0:
252,192,11118,1,0,0:0:0:0:
252,192,11288,1,8,0:0:0:0:
252,192,11457,1,0,0:0:0:0:
284,231,11542,1,0,0:0:0:0:
252,192,11627,1,8,0:0:0:0:
294,222,11796,1,8,0:0:0:0:
294,222,11966,1,8,0:0:0:0:
294,222,12135,1,0,0:0:0:0:
294,222,12305,1,8,0:0:0:0:
294,222,12474,1,8,0:0:0:0:
294,222,12644,1,0,0:0:0:0:
294,222,12813,1,0,0:0:0:0:
342,230,12898,1,0,0:0:0:0:
294,222,12983,1,8,0:0:0:0:
242,199,13152,1,8,0:0:0:0:
242,199,13322,1,8,0:0:0:0:
242,199,13491,1,0,0:0:0:0:
242,199,13661,1,8,0:0:0:0:
242,199,13830,1,8,0:0:0:0:
242,199,14000,1,0,0:0:0:0:
242,199,14169,1,0,0:0:0:0:
242,199,14254,1,0,0:0:0:0:
242,199,14339,1,8,0:0:0:0:
263,197,14508,1,8,0:0:0:0:
263,197,14678,1,8,0:0:0:0:
263,197,14847,1,0,0:0:0:0:
263,197,15017,1,8,0:0:0:0:
263,197,15186,1,8,0:0:0:0:
263,197,15356,1,0,0:0:0:0:
263,197,15525,1,0,0:0:0:0:
263,197,15610,1,0,0:0:0:0:
263,197,15695,1,8,0:0:0:0:
293,197,15864,1,8,0:0:0:0:
293,197,16034,1,8,0:0:0:0:
293,197,16203,1,0,0:0:0:0:
293,197,16373,1,8,0:0:0:0:
293,197,16542,1,8,0:0:0:0:
293,197,16712,1,0,0:0:0:0:
293,197,16881,1,0,0:0:0:0:
293,197,16966,1,0,0:0:0:0:
293,197,17051,1,8,0:0:0:0:
279,193,17220,1,0,0:0:0:0:
279,193,17390,1,8,0:0:0:0:
279,193,17559,1,0,0:0:0:0:
279,193,17644,1,0,0:0:0:0:
279,193,17729,1,8,0:0:0:0:
273,192,17898,1,8,0:0:0:0:
376,201,18068,1,0,0:0:0:0:
276,209,18237,1,8,0:0:0:0:
276,209,18322,1,8,0:0:0:0:
276,209,18407,1,0,0:0:0:0:
261,187,18576,1,8,0:0:0:0:
261,187,18746,1,0,0:0:0:0:
261,187,18915,1,8,0:0:0:0:
283,214,19000,1,8,0:0:0:0:
265,202,19085,1,0,0:0:0:0:
265,202,19254,1,0,0:0:0:0:
265,202,19424,1,8,0:0:0:0:
265,202,19593,1,0,0:0:0:0:
265,202,19678,1,0,0:0:0:0:
265,202,19763,1,8,0:0:0:0:
249,201,19932,1,0,0:0:0:0:
253,197,20102,1,8,0:0:0:0:
253,197,20186,1,8,0:0:0:0:
253,197,20271,1,0,0:0:0:0:
253,197,20441,1,8,0:0:0:0:
253,197,20610,1,0,0:0:0:0:
253,197,20695,1,0,0:0:0:0:
253,197,20780,1,8,0:0:0:0:
253,197,20949,1,8,0:0:0:0:
79,234,21796,2,0,L|105:192,6,35
256,189,22474,1,0,0:0:0:0:
274,207,22644,1,0,0:0:0:0:
274,207,22813,1,8,0:0:0:0:
274,207,22983,1,0,0:0:0:0:
274,207,23152,1,0,0:0:0:0:
274,207,23322,1,8,0:0:0:0:
251,197,23830,1,0,0:0:0:0:
251,197,24000,1,0,0:0:0:0:
251,197,24169,1,8,0:0:0:0:
251,197,24339,1,0,0:0:0:0:
251,197,24508,1,0,0:0:0:0:
251,197,24678,1,8,0:0:0:0:
234,191,24763,1,0,0:0:0:0:
234,191,24847,1,8,0:0:0:0:
265,244,24932,1,0,0:0:0:0:
265,244,25017,1,8,0:0:0:0:
265,244,25102,1,8,0:0:0:0:
265,244,25186,1,0,0:0:0:0:
246,210,25356,1,0,0:0:0:0:
246,210,25525,1,8,0:0:0:0:
246,210,25695,1,0,0:0:0:0:
246,210,25864,1,0,0:0:0:0:
246,210,26034,1,8,0:0:0:0:
254,201,26542,1,0,0:0:0:0:
254,201,26712,1,0,0:0:0:0:
254,201,26881,1,8,0:0:0:0:
257,200,27051,1,0,0:0:0:0:
254,201,27220,1,8,0:0:0:0:
261,207,27305,1,0,0:0:0:0:
254,201,27390,1,8,0:0:0:0:
250,211,27474,1,0,0:0:0:0:
250,208,27559,1,8,0:0:0:0:
250,207,27644,1,8,0:0:0:0:
222,222,27729,1,8,0:0:0:0:
239,226,27813,1,8,0:0:0:0:
239,226,27898,1,0,0:0:0:0:
280,203,28068,1,0,0:0:0:0:
304,217,28152,1,0,0:0:0:0:
316,217,28237,1,8,0:0:0:0:
304,217,28407,1,0,0:0:0:0:
270,210,28491,1,0,0:0:0:0:
304,217,28576,1,0,0:0:0:0:
304,217,28746,1,8,0:0:0:0:
282,198,29254,1,0,0:0:0:0:
282,198,29424,1,0,0:0:0:0:
282,198,29508,1,0,0:0:0:0:
282,198,29593,1,8,0:0:0:0:
253,194,29763,1,0,0:0:0:0:
322,212,29847,1,0,0:0:0:0:
244,201,29932,1,0,0:0:0:0:
244,201,30102,1,8,0:0:0:0:
262,192,30186,1,0,0:0:0:0:
262,192,30271,1,8,0:0:0:0:
262,192,30356,1,0,0:0:0:0:
262,192,30441,1,0,0:0:0:0:
262,192,30525,1,8,0:0:0:0:
262,192,30610,1,0,0:0:0:0:
265,189,30780,1,0,0:0:0:0:
265,189,30864,1,0,0:0:0:0:
265,189,30949,1,8,0:0:0:0:
265,189,31118,1,0,0:0:0:0:
262,192,31203,1,0,0:0:0:0:
262,192,31288,1,0,0:0:0:0:
262,192,31457,1,8,0:0:0:0:
265,189,31966,1,0,0:0:0:0:
265,189,32135,1,0,0:0:0:0:
262,192,32220,1,0,0:0:0:0:
320,192,32305,1,0,0:0:0:0:
251,210,32474,1,0,0:0:0:0:
265,194,32644,1,8,0:0:0:0:
265,194,32729,1,8,0:0:0:0:
264,212,32813,1,0,0:0:0:0:
266,212,32898,1,8,0:0:0:0:
268,212,32983,1,8,0:0:0:0:
268,212,33068,1,0,0:0:0:0:
268,212,33152,1,8,0:0:0:0:
268,212,33237,1,8,0:0:0:0:
268,212,33322,1,4,0:0:0:0:
347,235,34678,1,0,0:0:0:0:
239,197,35525,1,0,0:0:0:0:
248,197,35610,1,0,0:0:0:0:
248,197,35695,1,8,0:0:0:0:
248,197,35780,1,8,0:0:0:0:
248,197,35864,1,8,0:0:0:0:
248,197,35949,1,8,0:0:0:0:
248,197,36034,1,0,0:0:0:0:
270,199,37390,1,0,0:0:0:0:
224,206,38237,1,0,0:0:0:0:
224,206,38322,1,0,0:0:0:0:
224,206,38407,1,8,0:0:0:0:
224,206,38491,1,0,0:0:0:0:
224,206,38576,1,8,0:0:0:0:
224,206,38661,1,8,0:0:0:0:
224,206,38746,1,0,0:0:0:0:
331,199,39085,1,8,0:0:0:0:
240,228,39424,1,0,0:0:0:0:
241,217,39593,1,0,0:0:0:0:
227,204,39678,1,0,0:0:0:0:
247,208,39763,1,8,0:0:0:0:
254,211,39932,1,8,0:0:0:0:
247,208,40102,1,0,0:0:0:0:
243,204,40441,1,8,0:0:0:0:
243,204,40780,1,0,0:0:0:0:
222,175,40949,1,0,0:0:0:0:
247,208,41118,1,8,0:0:0:0:
253,207,41288,1,8,0:0:0:0:
253,207,41373,1,8,0:0:0:0:
243,204,41457,1,0,0:0:0:0:
261,197,41627,1,8,0:0:0:0:
261,197,41796,1,0,0:0:0:0:
261,197,41966,1,8,0:0:0:0:
261,197,42135,1,0,0:0:0:0:
265,197,42220,1,0,0:0:0:0:
261,197,42305,1,8,0:0:0:0:
265,197,42390,1,8,0:0:0:0:
261,197,42474,1,0,0:0:0:0:
261,197,42559,1,0,0:0:0:0:
261,197,42644,1,8,0:0:0:0:
439,225,42813,1,0,0:0:0:0:
260,215,43491,1,0,0:0:0:0:
260,215,43576,1,0,0:0:0:0:
254,215,43661,1,0,0:0:0:0:
254,215,43746,1,0,0:0:0:0:
254,215,43830,1,8,0:0:0:0:
250,204,44169,1,4,0:0:0:0:
235,216,44339,1,0,0:0:0:0:
251,219,44424,1,0,0:0:0:0:
251,219,44508,1,8,0:0:0:0:
246,212,44678,1,0,0:0:0:0:
246,212,44847,1,8,0:0:0:0:
243,218,44890,1,8,0:0:0:0:
242,216,45017,1,8,0:0:0:0:
242,216,45059,1,8,0:0:0:0:
242,216,45186,1,8,0:0:0:0:
242,216,45229,1,8,0:0:0:0:
259,221,45356,1,8,0:0:0:0:
259,220,45398,1,8,0:0:0:0:
259,220,45525,1,0,0:0:0:0:
399,205,45610,1,0,0:0:0:0:
271,239,45695,1,8,0:0:0:0:
271,239,45780,1,0,0:0:0:0:
256,224,45864,1,8,0:0:0:0:
231,212,45949,1,8,0:0:0:0:
256,224,46034,1,0,0:0:0:0:
261,186,46118,1,0,0:0:0:0:
256,224,46203,1,8,0:0:0:0:
256,224,46288,1,0,0:0:0:0:
256,224,46373,1,8,0:0:0:0:
256,224,46457,1,0,0:0:0:0:
256,224,46542,1,8,0:0:0:0:
283,214,46599,1,8,0:0:0:0:
283,214,46655,1,8,0:0:0:0:
283,214,46712,1,0,0:0:0:0:
256,224,46881,1,12,0:0:0:0:
256,224,47051,1,0,0:0:0:0:
256,224,47135,1,0,0:0:0:0:
256,224,47220,1,0,0:0:0:0:
288,224,47390,1,12,0:0:0:0:
288,224,47559,1,0,0:0:0:0:
288,224,47644,1,0,0:0:0:0:
288,224,47729,1,0,0:0:0:0:
288,224,47898,1,12,0:0:0:0:
288,224,48068,1,0,0:0:0:0:
288,224,48152,1,0,0:0:0:0:
288,224,48237,1,0,0:0:0:0:
309,222,48407,1,12,0:0:0:0:
298,209,48576,1,0,0:0:0:0:
298,209,48661,1,0,0:0:0:0:
298,209,48746,1,0,0:0:0:0:
298,209,48915,1,12,0:0:0:0:
169,191,49085,1,0,0:0:0:0:
208,202,49254,1,12,0:0:0:0:
320,184,49593,1,0,0:0:0:0:
213,176,49763,1,0,0:0:0:0:
256,192,49847,1,0,0:0:0:0:
213,176,49932,1,8,0:0:0:0:
213,176,50102,1,0,0:0:0:0:
213,176,50271,1,0,0:0:0:0:
290,213,50356,1,0,0:0:0:0:
213,176,50441,1,8,0:0:0:0:
290,213,50525,1,0,0:0:0:0:
226,192,50610,1,8,0:0:0:0:
226,192,50695,1,0,0:0:0:0:
228,191,50780,1,8,0:0:0:0:
228,191,50864,1,8,0:0:0:0:
228,191,50949,1,0,0:0:0:0:
321,212,51118,1,0,0:0:0:0:
267,205,51203,1,0,0:0:0:0:
273,217,51288,1,8,0:0:0:0:
250,202,51457,1,0,0:0:0:0:
251,202,51627,1,0,0:0:0:0:
251,202,51712,1,0,0:0:0:0:
251,202,51796,1,8,0:0:0:0:
232,217,51881,1,0,0:0:0:0:
236,217,51966,1,8,0:0:0:0:
256,203,52022,1,8,0:0:0:0:
256,203,52079,1,8,0:0:0:0:
256,203,52135,1,8,0:0:0:0:
256,203,52192,1,8,0:0:0:0:
256,203,52248,1,8,0:0:0:0:
256,203,52305,1,0,0:0:0:0:
294,216,52474,1,0,0:0:0:0:
294,216,52644,1,8,0:0:0:0:
233,230,52813,1,0,0:0:0:0:
253,202,52983,1,0,0:0:0:0:
256,203,53068,1,0,0:0:0:0:
233,230,53152,1,0,0:0:0:0:
233,230,53322,1,12,0:0:0:0:
233,230,53491,1,0,0:0:0:0:
253,212,53576,1,0,0:0:0:0:
233,230,53661,1,0,0:0:0:0:
216,201,53830,1,12,0:0:0:0:
238,195,54000,1,0,0:0:0:0:
288,224,54085,1,0,0:0:0:0:
226,203,54169,1,0,0:0:0:0:
226,203,54339,1,12,0:0:0:0:
240,197,54508,1,0,0:0:0:0:
240,197,54678,1,12,0:0:0:0:
254,205,55017,1,4,0:0:0:0:
194,199,55186,1,0,0:0:0:0:
205,200,55271,1,0,0:0:0:0:
216,201,55356,1,8,0:0:0:0:
240,197,55525,1,0,0:0:0:0:
240,197,55695,1,8,0:0:0:0:
227,187,55737,1,8,0:0:0:0:
227,189,55864,1,8,0:0:0:0:
212,185,55907,1,8,0:0:0:0:
214,186,56034,1,8,0:0:0:0:
214,186,56076,1,8,0:0:0:0:
214,186,56203,1,8,0:0:0:0:
214,186,56246,1,8,0:0:0:0:
214,186,56373,1,0,0:0:0:0:
256,183,56457,1,8,0:0:0:0:
224,182,56542,1,0,0:0:0:0:
224,182,56627,1,0,0:0:0:0:
224,182,56712,1,8,0:0:0:0:
223,186,56796,1,8,0:0:0:0:
224,182,56881,1,0,0:0:0:0:
223,186,56966,1,0,0:0:0:0:
224,182,57051,1,8,0:0:0:0:
224,182,57135,1,0,0:0:0:0:
265,207,57220,1,8,0:0:0:0:
265,207,57305,1,0,0:0:0:0:
265,207,57390,1,8,0:0:0:0:
306,204,57446,1,8,0:0:0:0:
262,227,57503,1,8,0:0:0:0:
261,211,57559,1,0,0:0:0:0:
241,197,57729,1,12,0:0:0:0:
236,188,57898,1,0,0:0:0:0:
236,188,57983,1,0,0:0:0:0:
236,188,58068,1,0,0:0:0:0:
236,188,58237,1,12,0:0:0:0:
281,205,58407,1,0,0:0:0:0:
268,205,58491,1,0,0:0:0:0:
268,205,58576,1,0,0:0:0:0:
261,197,58746,1,12,0:0:0:0:
261,197,58915,1,0,0:0:0:0:
261,197,59000,1,0,0:0:0:0:
261,197,59085,1,0,0:0:0:0:
261,197,59254,1,12,0:0:0:0:
261,197,59424,1,0,0:0:0:0:
261,197,59508,1,0,0:0:0:0:
261,197,59593,1,0,0:0:0:0:
255,193,59763,1,12,0:0:0:0:
255,193,59932,1,0,0:0:0:0:
255,193,60102,1,12,0:0:0:0:
255,180,60441,1,0,0:0:0:0:
288,224,60525,1,0,0:0:0:0:
269,199,60610,1,0,0:0:0:0:
256,192,60695,1,0,0:0:0:0:
269,199,60780,1,8,0:0:0:0:
269,199,60949,1,0,0:0:0:0:
278,207,61118,1,0,0:0:0:0:
283,212,61203,1,0,0:0:0:0:
278,207,61288,1,8,0:0:0:0:
280,212,61373,1,8,0:0:0:0:
239,208,61457,1,0,0:0:0:0:
246,202,61542,1,8,0:0:0:0:
246,202,61627,1,0,0:0:0:0:
246,202,61712,1,8,0:0:0:0:
246,202,61796,1,0,0:0:0:0:
307,217,61966,1,0,0:0:0:0:
265,214,62051,1,0,0:0:0:0:
265,214,62135,1,8,0:0:0:0:
239,208,62305,1,0,0:0:0:0:
246,209,62474,1,8,0:0:0:0:
246,209,62559,1,0,0:0:0:0:
246,202,62644,1,8,0:0:0:0:
246,202,62729,1,0,0:0:0:0:
246,202,62813,1,8,0:0:0:0:
243,212,62870,1,8,0:0:0:0:
243,212,62926,1,8,0:0:0:0:
243,212,62983,1,0,0:0:0:0:
243,212,63039,1,0,0:0:0:0:
243,212,63096,1,0,0:0:0:0:
243,212,63152,1,8,0:0:0:0:
247,185,63322,1,0,0:0:0:0:
252,198,63491,1,8,0:0:0:0:
252,198,63661,1,0,0:0:0:0:
253,193,63746,1,0,0:0:0:0:
252,198,63830,1,8,0:0:0:0:
252,198,64000,1,0,0:0:0:0:
252,198,64169,1,8,0:0:0:0:
252,198,64339,1,8,0:0:0:0:
252,198,64424,1,8,0:0:0:0:
252,198,64508,1,0,0:0:0:0:
276,217,64678,1,8,0:0:0:0:
321,252,64847,1,8,0:0:0:0:
321,252,65017,1,8,0:0:0:0:
321,252,65186,1,8,0:0:0:0:
291,233,65271,1,0,0:0:0:0:
291,233,65356,1,8,0:0:0:0:
291,233,65441,1,8,0:0:0:0:
291,233,65525,1,0,0:0:0:0:
291,233,65610,1,0,0:0:0:0:
291,233,65695,1,0,0:0:0:0:
291,233,65780,1,0,0:0:0:0:
291,233,65864,1,12,0:0:0:0:
234,197,66034,1,0,0:0:0:0:
234,197,66118,1,0,0:0:0:0:
234,197,66203,1,8,0:0:0:0:
234,197,66373,1,0,0:0:0:0:
234,197,66542,1,8,0:0:0:0:
225,204,66585,1,8,0:0:0:0:
225,204,66712,1,0,0:0:0:0:
225,204,66881,1,8,0:0:0:0:
225,204,66924,1,8,0:0:0:0:
248,203,67051,1,0,0:0:0:0:
248,203,67135,1,0,0:0:0:0:
248,203,67220,1,8,0:0:0:0:
218,213,67305,1,8,0:0:0:0:
222,208,67390,1,0,0:0:0:0:
222,208,67559,1,8,0:0:0:0:
222,208,67644,1,0,0:0:0:0:
222,208,67729,1,8,0:0:0:0:
222,208,67813,1,8,0:0:0:0:
222,208,67898,1,0,0:0:0:0:
221,217,68068,1,0,0:0:0:0:
221,217,68152,1,0,0:0:0:0:
221,217,68237,1,8,0:0:0:0:
224,192,68294,1,8,0:0:0:0:
224,192,68350,1,8,0:0:0:0:
224,192,68407,1,0,0:0:0:0:
249,218,68576,1,12,0:0:0:0:
342,256,68746,1,0,0:0:0:0:
278,249,68830,1,0,0:0:0:0:
278,249,68915,1,0,0:0:0:0:
281,237,69085,1,12,0:0:0:0:
278,237,69254,1,0,0:0:0:0:
278,237,69339,1,0,0:0:0:0:
277,237,69424,1,0,0:0:0:0:
277,237,69593,1,12,0:0:0:0:
247,213,69763,1,0,0:0:0:0:
247,213,69847,1,0,0:0:0:0:
247,213,69932,1,0,0:0:0:0:
257,212,70102,1,12,0:0:0:0:
257,212,70271,1,0,0:0:0:0:
258,215,70356,1,0,0:0:0:0:
257,212,70441,1,0,0:0:0:0:
277,237,70610,1,12,0:0:0:0:
270,221,70780,1,0,0:0:0:0:
226,206,70864,1,0,0:0:0:0:
270,221,70949,1,12,0:0:0:0:
335,206,71288,1,0,0:0:0:0:
218,209,71457,1,0,0:0:0:0:
218,209,71542,1,0,0:0:0:0:
218,209,71627,1,8,0:0:0:0:
218,209,71796,1,0,0:0:0:0:
220,185,71966,1,8,0:0:0:0:
273,171,72051,1,8,0:0:0:0:
224,185,72135,1,0,0:0:0:0:
224,185,72220,1,0,0:0:0:0:
224,185,72305,1,8,0:0:0:0:
310,191,72390,1,0,0:0:0:0:
249,192,72474,1,8,0:0:0:0:
310,191,72559,1,8,0:0:0:0:
249,192,72644,1,0,0:0:0:0:
239,179,72813,1,0,0:0:0:0:
239,180,72898,1,0,0:0:0:0:
239,180,72983,1,8,0:0:0:0:
239,180,73152,1,8,0:0:0:0:
239,180,73237,1,8,0:0:0:0:
239,180,73322,1,0,0:0:0:0:
267,162,73407,1,8,0:0:0:0:
239,180,73491,1,0,0:0:0:0:
239,180,73576,1,0,0:0:0:0:
239,180,73661,1,8,0:0:0:0:
243,179,73717,1,8,0:0:0:0:
239,179,73774,1,8,0:0:0:0:
239,179,73830,1,8,0:0:0:0:
239,180,73887,1,8,0:0:0:0:
239,180,73943,1,8,0:0:0:0:
239,180,74000,1,0,0:0:0:0:
253,177,74169,1,0,0:0:0:0:
253,177,74339,1,8,0:0:0:0:
229,180,74508,1,0,0:0:0:0:
230,180,74678,1,0,0:0:0:0:
230,180,74763,1,0,0:0:0:0:
230,180,74847,1,0,0:0:0:0:
238,190,75017,1,12,0:0:0:0:
228,192,75186,1,0,0:0:0:0:
228,192,75271,1,0,0:0:0:0:
228,192,75356,1,0,0:0:0:0:
228,190,75525,1,12,0:0:0:0:
206,181,75695,1,0,0:0:0:0:
244,168,75780,1,0,0:0:0:0:
221,182,75864,1,0,0:0:0:0:
175,187,76034,1,8,0:0:0:0:
213,197,76118,1,8,0:0:0:0:
213,197,76203,1,0,0:0:0:0:
213,197,76288,1,0,0:0:0:0:
213,197,76373,1,8,0:0:0:0:
295,201,76457,1,8,0:0:0:0:
213,197,76542,1,8,0:0:0:0:
213,197,76627,1,8,0:0:0:0:
213,197,76712,1,0,0:0:0:0:
259,194,78068,1,8,0:0:0:0:
248,187,79424,1,0,0:0:0:0:
249,191,80780,1,8,0:0:0:0:
271,178,82135,1,8,0:0:0:0:
322,197,82474,1,8,0:0:0:0:
271,200,82813,1,8,0:0:0:0:
293,194,82983,1,0,0:0:0:0:
271,200,83152,1,8,0:0:0:0:
271,200,83491,1,8,0:0:0:0:
311,217,83661,1,0,0:0:0:0:
274,219,83830,1,8,0:0:0:0:
274,219,84169,1,8,0:0:0:0:
273,219,84339,1,0,0:0:0:0:
276,219,84424,1,0,0:0:0:0:
274,219,84508,1,8,0:0:0:0:
242,187,84678,1,0,0:0:0:0:
274,219,84847,1,8,0:0:0:0:
275,212,85017,1,0,0:0:0:0:
275,212,85186,1,8,0:0:0:0:
275,212,85356,1,0,0:0:0:0:
275,212,85525,1,8,0:0:0:0:
218,228,85610,1,0,0:0:0:0:
275,212,85695,1,8,0:0:0:0:
261,228,85780,1,0,0:0:0:0:
261,228,85864,1,8,0:0:0:0:
261,228,85949,1,0,0:0:0:0:
261,228,86034,1,8,0:0:0:0:
211,209,86203,1,0,0:0:0:0:
204,194,86881,1,0,0:0:0:0:
204,194,86966,1,0,0:0:0:0:
204,194,87051,1,0,0:0:0:0:
204,194,87135,1,0,0:0:0:0:
204,194,87220,1,8,0:0:0:0:
311,191,87559,1,4,0:0:0:0:
268,208,87729,1,0,0:0:0:0:
268,208,87813,1,0,0:0:0:0:
268,208,87898,1,8,0:0:0:0:
206,171,88068,1,0,0:0:0:0:
200,173,88237,1,8,0:0:0:0:
238,174,88280,1,8,0:0:0:0:
238,174,88407,1,0,0:0:0:0:
238,174,88449,1,0,0:0:0:0:
238,174,88576,1,8,0:0:0:0:
238,174,88618,1,8,0:0:0:0:
238,174,88746,1,8,0:0:0:0:
238,174,88788,1,8,0:0:0:0:
228,138,88915,1,0,0:0:0:0:
223,195,89000,1,8,0:0:0:0:
228,159,89085,1,0,0:0:0:0:
228,159,89169,1,0,0:0:0:0:
228,159,89254,1,8,0:0:0:0:
236,165,89339,1,8,0:0:0:0:
228,159,89424,1,0,0:0:0:0:
233,164,89508,1,0,0:0:0:0:
228,159,89593,1,8,0:0:0:0:
228,159,89678,1,8,0:0:0:0:
228,159,89763,1,8,0:0:0:0:
231,157,89847,1,0,0:0:0:0:
228,159,89932,1,8,0:0:0:0:
254,172,89989,1,8,0:0:0:0:
254,172,90045,1,8,0:0:0:0:
254,172,90102,1,0,0:0:0:0:
235,170,90271,1,12,0:0:0:0:
230,173,90441,1,0,0:0:0:0:
230,173,90525,1,0,0:0:0:0:
230,173,90610,1,0,0:0:0:0:
230,173,90780,1,12,0:0:0:0:
230,173,90949,1,0,0:0:0:0:
230,173,91034,1,0,0:0:0:0:
230,173,91118,1,0,0:0:0:0:
230,176,91288,1,12,0:0:0:0:
230,173,91457,1,0,0:0:0:0:
230,173,91542,1,0,0:0:0:0:
230,173,91627,1,0,0:0:0:0:
230,173,91796,1,12,0:0:0:0:
230,173,91966,1,0,0:0:0:0:
248,180,92051,1,0,0:0:0:0:
248,179,92135,1,0,0:0:0:0:
248,179,92305,1,12,0:0:0:0:
238,169,92474,1,0,0:0:0:0:
248,179,92644,1,12,0:0:0:0:
228,182,92983,1,0,0:0:0:0:
228,182,93152,1,0,0:0:0:0:
228,182,93237,1,0,0:0:0:0:
228,182,93322,1,8,0:0:0:0:
238,188,93491,1,0,0:0:0:0:
238,188,93661,1,0,0:0:0:0:
288,192,93746,1,0,0:0:0:0:
238,188,93830,1,8,0:0:0:0:
239,204,93915,1,0,0:0:0:0:
239,204,94000,1,8,0:0:0:0:
239,204,94085,1,0,0:0:0:0:
239,204,94169,1,0,0:0:0:0:
239,204,94254,1,8,0:0:0:0:
239,204,94339,1,0,0:0:0:0:
325,228,94508,1,0,0:0:0:0:
262,223,94593,1,0,0:0:0:0:
262,223,94678,1,8,0:0:0:0:
262,223,94847,1,0,0:0:0:0:
250,263,95017,1,0,0:0:0:0:
250,263,95102,1,0,0:0:0:0:
250,263,95186,1,8,0:0:0:0:
250,263,95271,1,0,0:0:0:0:
250,263,95356,1,8,0:0:0:0:
248,232,95412,1,8,0:0:0:0:
248,232,95469,1,8,0:0:0:0:
248,232,95525,1,8,0:0:0:0:
248,232,95582,1,8,0:0:0:0:
248,232,95638,1,8,0:0:0:0:
248,232,95695,1,0,0:0:0:0:
231,227,95864,1,0,0:0:0:0:
231,227,96034,1,8,0:0:0:0:
234,227,96203,1,0,0:0:0:0:
234,227,96373,1,0,0:0:0:0:
234,227,96457,1,0,0:0:0:0:
234,227,96542,1,0,0:0:0:0:
230,201,96712,1,12,0:0:0:0:
230,201,96881,1,0,0:0:0:0:
230,201,96966,1,0,0:0:0:0:
230,201,97051,1,0,0:0:0:0:
230,201,97220,1,12,0:0:0:0:
230,201,97390,1,0,0:0:0:0:
230,201,97474,1,0,0:0:0:0:
230,201,97559,1,0,0:0:0:0:
241,206,97729,1,12,0:0:0:0:
241,206,97898,1,0,0:0:0:0:
241,206,98068,1,12,0:0:0:0:
217,168,98407,1,4,0:0:0:0:
258,197,98576,1,0,0:0:0:0:
258,197,98661,1,0,0:0:0:0:
258,197,98746,1,8,0:0:0:0:
233,194,98915,1,0,0:0:0:0:
252,185,99085,1,8,0:0:0:0:
252,185,99127,1,8,0:0:0:0:
252,185,99254,1,0,0:0:0:0:
252,185,99296,1,0,0:0:0:0:
252,185,99424,1,8,0:0:0:0:
252,185,99466,1,8,0:0:0:0:
252,185,99593,1,8,0:0:0:0:
252,185,99635,1,8,0:0:0:0:
252,185,99763,1,0,0:0:0:0:
246,196,99847,1,8,0:0:0:0:
246,196,99932,1,8,0:0:0:0:
246,196,100017,1,0,0:0:0:0:
246,196,100102,1,8,0:0:0:0:
252,169,100186,1,8,0:0:0:0:
246,203,100271,1,0,0:0:0:0:
236,169,100356,1,0,0:0:0:0:
246,203,100441,1,8,0:0:0:0:
301,182,100525,1,8,0:0:0:0:
246,203,100610,1,8,0:0:0:0:
246,203,100695,1,0,0:0:0:0:
246,203,100780,1,8,0:0:0:0:
136,211,100836,1,8,0:0:0:0:
217,220,100892,1,8,0:0:0:0:
257,227,100949,1,0,0:0:0:0:
254,212,101118,1,12,0:0:0:0:
266,204,101288,1,0,0:0:0:0:
264,204,101373,1,0,0:0:0:0:
264,204,101457,1,0,0:0:0:0:
264,204,101627,1,12,0:0:0:0:
271,204,101796,1,0,0:0:0:0:
271,204,101881,1,0,0:0:0:0:
271,204,101966,1,0,0:0:0:0:
270,192,102135,1,12,0:0:0:0:
271,204,102305,1,0,0:0:0:0:
271,204,102390,1,0,0:0:0:0:
271,204,102474,1,0,0:0:0:0:
269,192,102644,1,12,0:0:0:0:
257,202,102813,1,0,0:0:0:0:
257,202,102898,1,0,0:0:0:0:
257,201,102983,1,0,0:0:0:0:
257,201,103152,1,12,0:0:0:0:
257,201,103322,1,0,0:0:0:0:
257,201,103491,1,12,0:0:0:0:
265,201,103830,1,0,0:0:0:0:
265,224,103915,1,0,0:0:0:0:
265,222,104000,1,0,0:0:0:0:
256,224,104085,1,0,0:0:0:0:
265,222,104169,1,8,0:0:0:0:
266,212,104339,1,0,0:0:0:0:
266,212,104508,1,0,0:0:0:0:
288,224,104593,1,0,0:0:0:0:
266,212,104678,1,8,0:0:0:0:
288,224,104763,1,8,0:0:0:0:
265,201,104847,1,8,0:0:0:0:
269,200,104932,1,0,0:0:0:0:
269,200,105017,1,8,0:0:0:0:
269,200,105102,1,8,0:0:0:0:
269,200,105186,1,0,0:0:0:0:
295,203,105356,1,0,0:0:0:0:
295,203,105441,1,0,0:0:0:0:
295,203,105525,1,8,0:0:0:0:
274,219,105695,1,0,0:0:0:0:
259,216,105864,1,0,0:0:0:0:
259,216,105949,1,0,0:0:0:0:
259,216,106034,1,8,0:0:0:0:
259,216,106118,1,0,0:0:0:0:
259,216,106203,1,8,0:0:0:0:
246,217,106260,1,8,0:0:0:0:
246,217,106316,1,8,0:0:0:0:
246,217,106373,1,0,0:0:0:0:
246,217,106429,1,0,0:0:0:0:
246,217,106486,1,0,0:0:0:0:
246,217,106542,1,8,0:0:0:0:
245,213,106712,1,0,0:0:0:0:
245,212,106881,1,8,0:0:0:0:
244,212,107051,1,0,0:0:0:0:
299,231,107135,1,0,0:0:0:0:
244,213,107220,1,8,0:0:0:0:
246,217,107390,1,0,0:0:0:0:
248,209,107559,1,8,0:0:0:0:
352,228,107644,1,0,0:0:0:0:
248,209,107729,1,8,0:0:0:0:
245,212,107813,1,8,0:0:0:0:
245,212,107898,1,0,0:0:0:0:
267,220,108068,1,8,0:0:0:0:
257,223,108237,1,8,0:0:0:0:
258,223,108407,1,8,0:0:0:0:
258,223,108576,1,8,0:0:0:0:
278,249,108661,1,8,0:0:0:0:
278,249,108746,1,8,0:0:0:0:
278,249,108830,1,8,0:0:0:0:
278,249,108915,1,0,0:0:0:0:
278,249,109000,1,0,0:0:0:0:
258,223,109085,1,0,0:0:0:0:
278,249,109169,1,0,0:0:0:0:
257,223,109254,1,8,0:0:0:0:
245,217,109424,1,0,0:0:0:0:
245,217,109508,1,0,0:0:0:0:
245,217,109593,1,8,0:0:0:0:
271,216,109763,1,0,0:0:0:0:
272,216,109932,1,8,0:0:0:0:
281,222,110017,1,8,0:0:0:0:
272,216,110102,1,8,0:0:0:0:
272,216,110186,1,0,0:0:0:0:
272,216,110271,1,8,0:0:0:0:
270,217,110441,1,8,0:0:0:0:
271,216,110610,1,0,0:0:0:0:
323,229,110780,1,0,0:0:0:0:
333,232,110864,1,0,0:0:0:0:
322,229,110949,1,8,0:0:0:0:
322,229,111118,1,0,0:0:0:0:
322,229,111288,1,8,0:0:0:0:
322,229,111373,1,0,0:0:0:0:
322,229,111457,1,8,0:0:0:0:
322,229,111542,1,0,0:0:0:0:
322,229,111627,1,8,0:0:0:0:
276,200,111796,1,8,0:0:0:0:
284,218,111966,1,0,0:0:0:0:
338,229,112135,1,0,0:0:0:0:
282,231,112220,1,0,0:0:0:0:
282,231,112305,1,8,0:0:0:0:
282,229,112474,1,0,0:0:0:0:
282,229,112644,1,8,0:0:0:0:
282,229,112729,1,8,0:0:0:0:
282,229,112813,1,0,0:0:0:0:
282,229,112898,1,0,0:0:0:0:
282,229,112983,1,8,0:0:0:0:
282,231,113152,1,8,0:0:0:0:
282,231,113322,1,0,0:0:0:0:
272,225,113491,1,0,0:0:0:0:
285,193,113576,1,0,0:0:0:0:
272,227,113661,1,8,0:0:0:0:
282,229,113830,1,0,0:0:0:0:
282,229,114000,1,8,0:0:0:0:
271,204,114085,1,0,0:0:0:0:
282,231,114169,1,8,0:0:0:0:
282,231,114254,1,0,0:0:0:0:
282,231,114339,1,8,0:0:0:0:
320,192,114424,1,8,0:0:0:0:
290,224,114508,1,8,0:0:0:0:
320,192,114593,1,8,0:0:0:0:
290,224,114678,1,0,0:0:0:0:
271,223,114847,1,0,0:0:0:0:
271,223,114932,1,0,0:0:0:0:
271,223,115017,1,8,0:0:0:0:
258,209,115186,1,0,0:0:0:0:
258,210,115356,1,8,0:0:0:0:
290,224,115441,1,8,0:0:0:0:
247,199,115525,1,8,0:0:0:0:
247,199,115610,1,0,0:0:0:0:
247,199,115695,1,8,0:0:0:0:
247,192,115864,1,8,0:0:0:0:
247,192,116034,1,0,0:0:0:0:
247,192,116203,1,0,0:0:0:0:
247,192,116288,1,0,0:0:0:0:
241,191,116373,1,8,0:0:0:0:
241,191,116542,1,0,0:0:0:0:
241,191,116712,1,8,0:0:0:0:
241,191,116796,1,0,0:0:0:0:
241,191,116881,1,8,0:0:0:0:
241,191,116966,1,0,0:0:0:0:
241,191,117051,1,8,0:0:0:0:
256,192,117220,1,8,0:0:0:0:
247,192,117390,1,0,0:0:0:0:
250,195,117559,1,0,0:0:0:0:
250,195,117644,1,0,0:0:0:0:
250,195,117729,1,8,0:0:0:0:
250,195,117898,1,0,0:0:0:0:
250,195,118068,1,0,0:0:0:0:
272,182,118152,1,0,0:0:0:0:
247,192,118237,1,8,0:0:0:0:
250,195,118322,1,8,0:0:0:0:
250,195,118407,1,0,0:0:0:0:
240,200,118576,1,0,0:0:0:0:
240,200,118746,1,8,0:0:0:0:
250,195,118830,1,8,0:0:0:0:
240,200,118915,1,0,0:0:0:0:
240,200,119085,1,8,0:0:0:0:
240,200,119254,1,8,0:0:0:0:
271,206,119339,1,8,0:0:0:0:
240,200,119424,1,0,0:0:0:0:
240,200,119593,1,0,0:0:0:0:
161,182,119678,1,0,0:0:0:0:
240,200,119763,1,8,0:0:0:0:
324,218,119847,1,8,0:0:0:0:
240,200,119932,1,8,0:0:0:0:
240,200,120017,1,8,0:0:0:0:
240,200,120102,1,0,0:0:0:0:
244,204,121457,1,8,0:0:0:0:
251,188,122813,1,0,0:0:0:0:
244,207,124169,1,8,0:0:0:0:
241,186,125525,1,8,0:0:0:0:
277,200,125864,1,8,0:0:0:0:
277,200,126203,1,8,0:0:0:0:
254,180,126373,1,0,0:0:0:0:
277,200,126542,1,8,0:0:0:0:
277,200,126881,1,8,0:0:0:0:
280,192,127220,1,8,0:0:0:0:
279,192,127559,1,8,0:0:0:0:
293,240,127729,1,0,0:0:0:0:
293,240,127813,1,0,0:0:0:0:
279,192,127898,1,8,0:0:0:0:
256,198,128068,1,0,0:0:0:0:
280,192,128237,1,8,0:0:0:0:
309,216,128407,1,0,0:0:0:0:
309,216,128576,1,8,0:0:0:0:
286,219,128746,1,0,0:0:0:0:
282,204,128915,1,8,0:0:0:0:
252,226,129000,1,0,0:0:0:0:
282,204,129085,1,8,0:0:0:0:
320,233,129169,1,0,0:0:0:0:
310,240,129254,1,8,0:0:0:0:
289,232,129339,1,0,0:0:0:0:
294,212,129424,1,8,0:0:0:0:
215,212,129593,1,0,0:0:0:0:
257,187,130949,1,12,0:0:0:0:
241,200,131118,1,0,0:0:0:0:
242,200,131288,1,0,0:0:0:0:
242,200,131457,1,0,0:0:0:0:
243,198,131627,1,8,0:0:0:0:
243,198,131796,1,0,0:0:0:0:
243,198,131966,1,8,0:0:0:0:
241,200,132135,1,8,0:0:0:0:
242,200,132305,1,8,0:0:0:0:
245,191,132474,1,0,0:0:0:0:
245,191,132644,1,0,0:0:0:0:
245,191,132813,1,0,0:0:0:0:
245,191,132983,1,8,0:0:0:0:
245,191,133152,1,0,0:0:0:0:
245,191,133322,1,8,0:0:0:0:
245,191,133491,1,8,0:0:0:0:
245,191,133661,1,8,0:0:0:0:
234,203,133830,1,0,0:0:0:0:
235,203,134000,1,0,0:0:0:0:
235,203,134169,1,0,0:0:0:0:
235,203,134339,1,8,0:0:0:0:
235,203,134508,1,0,0:0:0:0:
235,203,134678,1,8,0:0:0:0:
234,203,134847,1,8,0:0:0:0:
235,203,135017,1,8,0:0:0:0:
235,203,135186,1,0,0:0:0:0:
235,203,135356,1,0,0:0:0:0:
235,203,135525,1,0,0:0:0:0:
235,203,135695,1,8,0:0:0:0:
234,203,135864,1,0,0:0:0:0:
235,203,136034,1,8,0:0:0:0:
235,203,136203,1,8,0:0:0:0:
235,203,136373,1,0,0:0:0:0:
240,199,136542,1,8,0:0:0:0:
240,199,136712,1,0,0:0:0:0:
240,199,136881,1,0,0:0:0:0:
240,199,137051,1,8,0:0:0:0:
240,199,137220,1,0,0:0:0:0:
240,199,137390,1,8,0:0:0:0:
240,199,137559,1,8,0:0:0:0:
240,199,137729,1,0,0:0:0:0:
260,225,137898,1,8,0:0:0:0:
260,225,138068,1,0,0:0:0:0:
260,225,138237,1,0,0:0:0:0:
260,225,138407,1,8,0:0:0:0:
260,225,138576,1,0,0:0:0:0:
260,225,138746,1,8,0:0:0:0:
260,225,138915,1,8,0:0:0:0:
260,225,139085,1,0,0:0:0:0:
260,225,139254,1,8,0:0:0:0:
238,222,139424,1,0,0:0:0:0:
262,236,139593,1,0,0:0:0:0:
262,236,139763,1,8,0:0:0:0:
259,233,139932,1,0,0:0:0:0:
259,233,140102,1,8,0:0:0:0:
259,233,140271,1,8,0:0:0:0:
259,233,140441,1,0,0:0:0:0:
261,214,140610,1,8,0:0:0:0:
261,214,140780,1,0,0:0:0:0:
261,214,140949,1,0,0:0:0:0:
261,214,141118,1,8,0:0:0:0:
261,214,141288,1,0,0:0:0:0:
261,214,141457,1,8,0:0:0:0:
261,214,141627,1,8,0:0:0:0:
261,214,141796,1,0,0:0:0:0:
272,221,141966,1,0,0:0:0:0:
272,221,142051,1,0,0:0:0:0:
272,221,142135,1,8,0:0:0:0:
272,221,142305,1,0,0:0:0:0:
272,221,142474,1,8,0:0:0:0:
272,221,142644,1,8,0:0:0:0:
272,221,142813,1,0,0:0:0:0:
272,221,142983,1,8,0:0:0:0:
272,221,143152,1,0,0:0:0:0:
234,200,143322,1,0,0:0:0:0:
234,200,143407,1,0,0:0:0:0:
234,200,143491,1,8,0:0:0:0:
234,200,143661,1,0,0:0:0:0:
283,198,143830,1,8,0:0:0:0:
283,198,144000,1,8,0:0:0:0:
283,198,144169,1,0,0:0:0:0:
283,198,144339,1,8,0:0:0:0:
283,198,144508,1,0,0:0:0:0:
283,198,144678,1,0,0:0:0:0:
283,198,144763,1,0,0:0:0:0:
283,198,144847,1,8,0:0:0:0:
274,193,145017,1,0,0:0:0:0:
274,193,145186,1,8,0:0:0:0:
274,193,145356,1,8,0:0:0:0:
274,193,145525,1,0,0:0:0:0:
274,193,145695,1,8,0:0:0:0:
274,193,145864,1,0,0:0:0:0:
286,196,146034,1,0,0:0:0:0:
286,196,146118,1,0,0:0:0:0:
286,196,146203,1,8,0:0:0:0:
286,196,146373,1,0,0:0:0:0:
286,196,146542,1,8,0:0:0:0:
286,196,146712,1,8,0:0:0:0:
286,196,146881,1,0,0:0:0:0:
286,196,147051,1,8,0:0:0:0:
286,196,147220,1,0,0:0:0:0:
281,204,147390,1,8,0:0:0:0:
281,204,147474,1,0,0:0:0:0:
281,204,147559,1,8,0:0:0:0:
281,204,147729,1,8,0:0:0:0:
281,204,147898,1,0,0:0:0:0:
281,204,148068,1,0,0:0:0:0:
281,204,148152,1,8,0:0:0:0:
281,204,148237,1,0,0:0:0:0:
281,204,148407,1,8,0:0:0:0:
281,204,148576,1,0,0:0:0:0:
261,187,148746,1,8,0:0:0:0:
261,187,148830,1,0,0:0:0:0:
261,187,148915,1,8,0:0:0:0:
261,187,149085,1,8,0:0:0:0:
261,187,149254,1,0,0:0:0:0:
261,187,149424,1,0,0:0:0:0:
261,187,149508,1,8,0:0:0:0:
261,187,149593,1,0,0:0:0:0:
261,187,149763,1,8,0:0:0:0:
261,187,149932,1,0,0:0:0:0:
261,187,150102,1,8,0:0:0:0:
261,187,150186,1,0,0:0:0:0:
261,187,150271,1,8,0:0:0:0:
261,187,150441,1,8,0:0:0:0:
261,187,150610,1,0,0:0:0:0:
261,191,150695,1,0,0:0:0:0:
261,187,150780,1,8,0:0:0:0:
261,187,150864,1,8,0:0:0:0:
261,187,150949,1,0,0:0:0:0:
261,187,151118,1,8,0:0:0:0:
79,223,151966,2,0,L|112:164,6,35
207,179,152644,1,0,0:0:0:0:
231,187,152813,1,0,0:0:0:0:
231,187,152983,1,8,0:0:0:0:
231,187,153152,1,0,0:0:0:0:
231,187,153322,1,0,0:0:0:0:
231,187,153491,1,8,0:0:0:0:
224,171,154000,1,0,0:0:0:0:
224,171,154169,1,0,0:0:0:0:
224,171,154339,1,8,0:0:0:0:
224,171,154508,1,0,0:0:0:0:
224,171,154678,1,0,0:0:0:0:
224,171,154847,1,8,0:0:0:0:
254,208,154932,1,0,0:0:0:0:
254,208,155017,1,8,0:0:0:0:
254,208,155102,1,0,0:0:0:0:
254,208,155186,1,8,0:0:0:0:
254,208,155271,1,8,0:0:0:0:
254,208,155356,1,0,0:0:0:0:
299,192,155525,1,0,0:0:0:0:
299,192,155695,1,8,0:0:0:0:
299,192,155864,1,0,0:0:0:0:
299,192,156034,1,0,0:0:0:0:
299,192,156203,1,8,0:0:0:0:
251,211,156712,1,0,0:0:0:0:
251,211,156881,1,0,0:0:0:0:
251,211,157051,1,8,0:0:0:0:
251,211,157220,1,0,0:0:0:0:
251,211,157390,1,8,0:0:0:0:
264,216,157474,1,0,0:0:0:0:
251,211,157559,1,8,0:0:0:0:
229,217,157644,1,0,0:0:0:0:
229,217,157729,1,8,0:0:0:0:
229,217,157813,1,0,0:0:0:0:
229,217,157898,1,8,0:0:0:0:
240,222,157983,1,8,0:0:0:0:
240,222,158068,1,0,0:0:0:0:
251,211,158237,1,0,0:0:0:0:
244,214,158322,1,0,0:0:0:0:
244,214,158407,1,8,0:0:0:0:
244,214,158576,1,0,0:0:0:0:
244,214,158746,1,0,0:0:0:0:
244,214,158830,1,0,0:0:0:0:
244,214,158915,1,8,0:0:0:0:
212,198,159424,1,0,0:0:0:0:
212,198,159593,1,0,0:0:0:0:
226,202,159678,1,0,0:0:0:0:
229,202,159763,1,8,0:0:0:0:
242,195,159932,1,0,0:0:0:0:
220,197,160102,1,0,0:0:0:0:
221,197,160186,1,0,0:0:0:0:
221,197,160271,1,8,0:0:0:0:
242,206,160356,1,0,0:0:0:0:
242,206,160441,1,8,0:0:0:0:
242,206,160525,1,8,0:0:0:0:
242,206,160610,1,8,0:0:0:0:
242,206,160695,1,8,0:0:0:0:
242,206,160780,1,0,0:0:0:0:
259,211,160949,1,0,0:0:0:0:
259,211,161034,1,0,0:0:0:0:
259,211,161118,1,8,0:0:0:0:
259,211,161288,1,0,0:0:0:0:
259,211,161457,1,0,0:0:0:0:
289,210,161542,1,0,0:0:0:0:
289,210,161627,1,8,0:0:0:0:
283,205,162135,1,0,0:0:0:0:
283,205,162305,1,0,0:0:0:0:
283,205,162390,1,0,0:0:0:0:
283,205,162474,1,0,0:0:0:0:
283,205,162644,1,0,0:0:0:0:
283,205,162813,1,8,0:0:0:0:
315,223,162898,1,8,0:0:0:0:
283,205,162983,1,0,0:0:0:0:
315,223,163068,1,8,0:0:0:0:
315,223,163152,1,8,0:0:0:0:
315,223,163237,1,0,0:0:0:0:
315,223,163322,1,8,0:0:0:0:
315,223,163407,1,8,0:0:0:0:
315,223,163491,1,4,0:0:0:0:
251,196,165695,1,0,0:0:0:0:
251,196,165780,1,0,0:0:0:0:
251,196,165864,1,8,0:0:0:0:
251,196,165949,1,8,0:0:0:0:
251,196,166034,1,8,0:0:0:0:
247,187,166118,1,8,0:0:0:0:
247,187,166203,1,0,0:0:0:0:
240,218,168407,1,0,0:0:0:0:
262,171,168491,1,8,0:0:0:0:
262,171,168576,1,0,0:0:0:0:
268,172,168661,1,8,0:0:0:0:
268,172,168746,1,8,0:0:0:0:
268,172,168830,1,8,0:0:0:0:
261,196,168915,1,0,0:0:0:0:
261,196,169254,1,0,0:0:0:0:
261,196,169593,1,0,0:0:0:0:
285,217,169763,1,8,0:0:0:0:
285,217,169847,1,8,0:0:0:0:
261,196,169932,1,0,0:0:0:0:
289,220,170102,1,8,0:0:0:0:
261,196,170271,1,0,0:0:0:0:
266,195,170610,1,0,0:0:0:0:
261,196,170949,1,0,0:0:0:0:
303,211,171118,1,8,0:0:0:0:
261,196,171288,1,0,0:0:0:0:
250,192,171457,1,8,0:0:0:0:
282,209,171542,1,8,0:0:0:0:
266,195,171627,1,0,0:0:0:0:
270,209,171796,1,8,0:0:0:0:
270,209,171966,1,0,0:0:0:0:
270,209,172135,1,8,0:0:0:0:
270,209,172305,1,0,0:0:0:0:
300,228,172390,1,0,0:0:0:0:
279,220,172474,1,8,0:0:0:0:
300,228,172559,1,8,0:0:0:0:
279,220,172644,1,0,0:0:0:0:
300,228,172729,1,0,0:0:0:0:
279,220,172813,1,8,0:0:0:0:
260,211,172983,1,0,0:0:0:0:
254,180,173661,1,0,0:0:0:0:
254,180,173746,1,0,0:0:0:0:
254,180,173830,1,0,0:0:0:0:
254,180,173915,1,0,0:0:0:0:
254,180,174000,1,8,0:0:0:0:
254,180,174339,1,4,0:0:0:0:
287,207,174508,1,0,0:0:0:0:
251,209,174593,1,0,0:0:0:0:
240,211,174678,1,8,0:0:0:0:
248,227,174847,1,0,0:0:0:0:
248,227,175017,1,8,0:0:0:0:
261,210,175059,1,8,0:0:0:0:
261,210,175186,1,8,0:0:0:0:
261,210,175229,1,8,0:0:0:0:
261,210,175356,1,0,0:0:0:0:
261,213,175398,1,0,0:0:0:0:
261,213,175525,1,8,0:0:0:0:
261,213,175568,1,8,0:0:0:0:
261,213,175695,1,0,0:0:0:0:
250,196,175780,1,0,0:0:0:0:
267,205,175864,1,8,0:0:0:0:
267,205,175949,1,0,0:0:0:0:
267,205,176034,1,8,0:0:0:0:
266,229,176118,1,0,0:0:0:0:
249,213,176203,1,8,0:0:0:0:
265,219,176288,1,8,0:0:0:0:
265,219,176373,1,0,0:0:0:0:
268,205,176457,1,0,0:0:0:0:
231,210,176542,1,8,0:0:0:0:
231,210,176627,1,0,0:0:0:0:
231,210,176712,1,8,0:0:0:0:
211,209,176768,1,8,0:0:0:0:
211,209,176825,1,8,0:0:0:0:
211,209,176881,1,0,0:0:0:0:
236,212,177051,1,12,0:0:0:0:
255,207,177220,1,0,0:0:0:0:
255,207,177305,1,0,0:0:0:0:
255,207,177390,1,8,0:0:0:0:
248,195,177559,1,12,0:0:0:0:
239,192,177729,1,0,0:0:0:0:
248,192,177813,1,0,0:0:0:0:
248,192,177898,1,8,0:0:0:0:
248,192,178068,1,12,0:0:0:0:
248,203,178237,1,0,0:0:0:0:
248,203,178322,1,0,0:0:0:0:
248,203,178407,1,8,0:0:0:0:
277,227,178491,1,0,0:0:0:0:
277,227,178576,1,8,0:0:0:0:
292,227,178661,1,0,0:0:0:0:
292,227,178746,1,8,0:0:0:0:
292,227,178830,1,8,0:0:0:0:
262,201,178915,1,0,0:0:0:0:
267,197,179000,1,0,0:0:0:0:
267,197,179085,1,8,0:0:0:0:
307,234,179169,1,0,0:0:0:0:
307,234,179254,1,8,0:0:0:0:
296,215,179339,1,8,0:0:0:0:
296,215,179424,1,4,0:0:0:0:
296,215,179763,1,0,0:0:0:0:
267,204,179932,1,0,0:0:0:0:
262,201,180017,1,0,0:0:0:0:
267,204,180102,1,8,0:0:0:0:
288,224,180186,1,8,0:0:0:0:
267,204,180271,1,0,0:0:0:0:
286,206,180441,1,0,0:0:0:0:
288,192,180525,1,0,0:0:0:0:
239,193,180610,1,8,0:0:0:0:
239,193,180780,1,8,0:0:0:0:
286,200,180864,1,0,0:0:0:0:
286,199,180949,1,8,0:0:0:0:
290,198,181118,1,8,0:0:0:0:
306,233,181203,1,8,0:0:0:0:
306,233,181288,1,8,0:0:0:0:
306,233,181373,1,0,0:0:0:0:
286,197,181457,1,8,0:0:0:0:
286,200,181542,1,8,0:0:0:0:
286,200,181627,1,0,0:0:0:0:
286,200,181712,1,0,0:0:0:0:
286,200,181796,1,8,0:0:0:0:
286,200,181881,1,0,0:0:0:0:
286,199,181966,1,8,0:0:0:0:
286,199,182051,1,0,0:0:0:0:
286,197,182135,1,8,0:0:0:0:
273,196,182192,1,8,0:0:0:0:
273,196,182248,1,8,0:0:0:0:
273,196,182305,1,8,0:0:0:0:
273,196,182361,1,8,0:0:0:0:
273,196,182418,1,8,0:0:0:0:
273,196,182474,1,0,0:0:0:0:
246,193,182644,1,0,0:0:0:0:
242,183,182729,1,0,0:0:0:0:
246,193,182813,1,8,0:0:0:0:
246,193,182983,1,0,0:0:0:0:
204,182,183152,1,0,0:0:0:0:
221,184,183237,1,0,0:0:0:0:
221,184,183322,1,8,0:0:0:0:
254,203,183491,1,12,0:0:0:0:
164,195,183661,1,0,0:0:0:0:
186,131,183830,1,8,0:0:0:0:
198,157,183915,1,8,0:0:0:0:
198,157,184000,1,0,0:0:0:0:
198,157,184085,1,8,0:0:0:0:
198,157,184169,1,8,0:0:0:0:
198,157,184254,1,8,0:0:0:0:
198,157,184339,1,0,0:0:0:0:
198,157,184424,1,0,0:0:0:0:
198,157,184508,1,8,0:0:0:0:
219,180,184593,1,8,0:0:0:0:
219,180,184678,1,0,0:0:0:0:
219,180,184763,1,0,0:0:0:0:
219,180,184847,1,12,0:0:0:0:
259,193,185186,1,4,0:0:0:0:
231,211,185356,1,0,0:0:0:0:
235,211,185441,1,0,0:0:0:0:
236,214,185525,1,8,0:0:0:0:
254,202,185695,1,0,0:0:0:0:
254,202,185864,1,8,0:0:0:0:
275,194,185907,1,8,0:0:0:0:
273,195,186034,1,8,0:0:0:0:
273,195,186076,1,8,0:0:0:0:
273,195,186203,1,0,0:0:0:0:
275,194,186246,1,0,0:0:0:0:
231,211,186373,1,8,0:0:0:0:
231,213,186415,1,8,0:0:0:0:
231,212,186542,1,0,0:0:0:0:
254,202,186627,1,8,0:0:0:0:
254,202,186712,1,0,0:0:0:0:
254,202,186796,1,0,0:0:0:0:
254,202,186881,1,8,0:0:0:0:
210,187,186966,1,0,0:0:0:0:
249,224,187051,1,8,0:0:0:0:
244,199,187135,1,8,0:0:0:0:
249,224,187220,1,0,0:0:0:0:
249,224,187305,1,0,0:0:0:0:
249,224,187390,1,8,0:0:0:0:
249,224,187474,1,0,0:0:0:0:
252,222,187559,1,8,0:0:0:0:
266,222,187616,1,8,0:0:0:0:
269,222,187672,1,8,0:0:0:0:
283,234,187729,1,0,0:0:0:0:
248,205,187898,1,12,0:0:0:0:
228,210,188068,1,0,0:0:0:0:
228,210,188152,1,0,0:0:0:0:
228,210,188237,1,8,0:0:0:0:
228,210,188407,1,12,0:0:0:0:
228,210,188576,1,0,0:0:0:0:
228,210,188661,1,0,0:0:0:0:
228,210,188746,1,8,0:0:0:0:
248,205,188915,1,12,0:0:0:0:
282,227,189085,1,0,0:0:0:0:
267,198,189254,1,8,0:0:0:0:
285,210,189339,1,8,0:0:0:0:
283,204,189424,1,0,0:0:0:0:
283,204,189508,1,8,0:0:0:0:
283,204,189593,1,0,0:0:0:0:
283,204,189678,1,0,0:0:0:0:
275,196,189763,1,8,0:0:0:0:
275,196,189847,1,8,0:0:0:0:
275,196,189932,1,0,0:0:0:0:
275,196,190017,1,8,0:0:0:0:
275,196,190102,1,8,0:0:0:0:
275,196,190186,1,8,0:0:0:0:
275,196,190271,1,4,0:0:0:0:
276,205,190610,1,0,0:0:0:0:
160,192,190695,1,0,0:0:0:0:
220,212,190780,1,0,0:0:0:0:
256,224,190864,1,0,0:0:0:0:
226,222,190949,1,8,0:0:0:0:
256,224,191034,1,8,0:0:0:0:
243,219,191118,1,0,0:0:0:0:
241,218,191288,1,0,0:0:0:0:
241,218,191373,1,0,0:0:0:0:
241,218,191457,1,8,0:0:0:0:
264,233,191627,1,8,0:0:0:0:
269,234,191712,1,0,0:0:0:0:
269,234,191796,1,8,0:0:0:0:
269,234,191966,1,8,0:0:0:0:
246,230,192051,1,0,0:0:0:0:
246,232,192135,1,8,0:0:0:0:
236,220,192220,1,0,0:0:0:0:
224,224,192305,1,8,0:0:0:0:
224,224,192390,1,8,0:0:0:0:
254,223,192474,1,0,0:0:0:0:
249,232,192559,1,8,0:0:0:0:
249,232,192644,1,0,0:0:0:0:
263,222,192729,1,0,0:0:0:0:
264,225,192813,1,8,0:0:0:0:
264,225,192898,1,0,0:0:0:0:
264,225,192983,1,8,0:0:0:0:
263,222,193039,1,8,0:0:0:0:
263,222,193096,1,8,0:0:0:0:
263,222,193152,1,0,0:0:0:0:
263,222,193209,1,0,0:0:0:0:
263,222,193265,1,0,0:0:0:0:
263,222,193322,1,8,0:0:0:0:
230,209,193491,1,0,0:0:0:0:
245,209,193661,1,8,0:0:0:0:
230,197,193830,1,0,0:0:0:0:
207,175,193915,1,0,0:0:0:0:
240,207,194000,1,8,0:0:0:0:
269,184,194169,1,0,0:0:0:0:
265,224,194339,1,8,0:0:0:0:
265,224,194508,1,8,0:0:0:0:
265,224,194593,1,8,0:0:0:0:
265,224,194678,1,0,0:0:0:0:
230,197,194847,1,8,0:0:0:0:
230,196,195017,1,8,0:0:0:0:
230,197,195186,1,8,0:0:0:0:
230,197,195356,1,8,0:0:0:0:
264,219,195441,1,0,0:0:0:0:
230,197,195525,1,8,0:0:0:0:
255,202,195610,1,8,0:0:0:0:
230,197,195695,1,0,0:0:0:0:
251,171,195780,1,0,0:0:0:0:
230,197,195864,1,0,0:0:0:0:
255,202,195949,1,0,0:0:0:0:
230,196,196034,1,12,0:0:0:0:
169,184,196203,1,0,0:0:0:0:
236,193,196288,1,0,0:0:0:0:
236,195,196373,1,8,0:0:0:0:
224,230,196542,1,0,0:0:0:0:
224,230,196712,1,8,0:0:0:0:
234,226,196754,1,8,0:0:0:0:
258,220,196881,1,0,0:0:0:0:
258,220,197051,1,8,0:0:0:0:
246,227,197093,1,8,0:0:0:0:
277,209,197220,1,0,0:0:0:0:
277,209,197305,1,8,0:0:0:0:
277,199,197390,1,8,0:0:0:0:
272,205,197474,1,0,0:0:0:0:
272,205,197559,1,8,0:0:0:0:
272,205,197729,1,8,0:0:0:0:
272,201,197813,1,8,0:0:0:0:
261,198,197898,1,0,0:0:0:0:
261,198,197983,1,8,0:0:0:0:
260,198,198068,1,0,0:0:0:0:
261,197,198237,1,0,0:0:0:0:
261,197,198322,1,0,0:0:0:0:
261,197,198407,1,8,0:0:0:0:
253,203,198463,1,8,0:0:0:0:
253,204,198520,1,8,0:0:0:0:
256,192,198576,1,0,0:0:0:0:
249,218,198746,1,12,0:0:0:0:
342,256,198915,1,0,0:0:0:0:
278,249,199000,1,0,0:0:0:0:
278,249,199085,1,0,0:0:0:0:
281,237,199254,1,12,0:0:0:0:
278,237,199424,1,0,0:0:0:0:
278,237,199508,1,0,0:0:0:0:
277,237,199593,1,0,0:0:0:0:
277,237,199763,1,12,0:0:0:0:
247,213,199932,1,0,0:0:0:0:
247,213,200017,1,0,0:0:0:0:
247,213,200102,1,0,0:0:0:0:
257,212,200271,1,12,0:0:0:0:
257,212,200441,1,0,0:0:0:0:
242,207,200525,1,0,0:0:0:0:
257,212,200610,1,0,0:0:0:0:
266,186,200780,1,12,0:0:0:0:
270,221,200950,1,0,0:0:0:0:
270,221,201034,1,0,0:0:0:0:
270,221,201119,1,12,0:0:0:0:
289,193,201457,1,0,0:0:0:0:
267,202,201627,1,0,0:0:0:0:
267,202,201712,1,0,0:0:0:0:
267,202,201796,1,8,0:0:0:0:
256,201,201966,1,0,0:0:0:0:
256,201,202135,1,8,0:0:0:0:
256,201,202220,1,8,0:0:0:0:
256,201,202305,1,0,0:0:0:0:
257,197,202390,1,0,0:0:0:0:
259,209,202474,1,8,0:0:0:0:
253,209,202559,1,0,0:0:0:0:
259,209,202644,1,8,0:0:0:0:
259,209,202729,1,8,0:0:0:0:
259,209,202813,1,0,0:0:0:0:
274,222,202983,1,0,0:0:0:0:
274,222,203068,1,0,0:0:0:0:
274,222,203152,1,8,0:0:0:0:
274,222,203322,1,8,0:0:0:0:
274,222,203407,1,8,0:0:0:0:
274,222,203491,1,0,0:0:0:0:
236,191,203576,1,0,0:0:0:0:
281,229,203661,1,8,0:0:0:0:
281,229,203746,1,0,0:0:0:0:
279,228,203830,1,8,0:0:0:0:
281,221,203887,1,8,0:0:0:0:
281,221,203943,1,8,0:0:0:0:
281,221,204000,1,8,0:0:0:0:
281,221,204056,1,8,0:0:0:0:
281,221,204113,1,8,0:0:0:0:
281,221,204169,1,0,0:0:0:0:
289,239,204339,1,0,0:0:0:0:
289,239,204508,1,8,0:0:0:0:
291,241,204678,1,0,0:0:0:0:
291,241,204847,1,0,0:0:0:0:
258,213,204932,1,0,0:0:0:0:
295,237,205017,1,0,0:0:0:0:
295,237,205186,1,12,0:0:0:0:
295,237,205356,1,0,0:0:0:0:
274,222,205441,1,0,0:0:0:0:
274,222,205525,1,0,0:0:0:0:
274,222,205695,1,12,0:0:0:0:
274,222,205864,1,0,0:0:0:0:
335,204,205949,1,0,0:0:0:0:
268,253,206034,1,0,0:0:0:0:
268,253,206203,1,8,0:0:0:0:
282,249,206288,1,8,0:0:0:0:
282,249,206373,1,0,0:0:0:0:
256,224,206457,1,0,0:0:0:0:
282,249,206542,1,8,0:0:0:0:
282,249,206627,1,8,0:0:0:0:
282,249,206712,1,8,0:0:0:0:
282,249,206796,1,8,0:0:0:0:
282,249,206881,1,0,0:0:0:0:
249,185,208237,1,8,0:0:0:0:
270,188,209593,1,0,0:0:0:0:
245,189,210949,1,8,0:0:0:0:
260,201,212305,1,8,0:0:0:0:
262,195,212644,1,8,0:0:0:0:
262,195,212983,1,8,0:0:0:0:
241,199,213152,1,0,0:0:0:0:
262,195,213322,1,8,0:0:0:0:
262,195,213661,1,8,0:0:0:0:
271,185,213830,1,0,0:0:0:0:
285,187,214000,1,8,0:0:0:0:
316,222,214339,1,8,0:0:0:0:
288,227,214508,1,0,0:0:0:0:
288,227,214593,1,0,0:0:0:0:
316,222,214678,1,8,0:0:0:0:
323,232,214847,1,0,0:0:0:0:
316,222,215017,1,8,0:0:0:0:
257,189,215186,1,0,0:0:0:0:
257,189,215356,1,8,0:0:0:0:
257,189,215525,1,0,0:0:0:0:
253,208,215695,1,8,0:0:0:0:
231,208,215780,1,0,0:0:0:0:
253,208,215864,1,8,0:0:0:0:
231,208,215949,1,0,0:0:0:0:
253,208,216034,1,8,0:0:0:0:
231,208,216118,1,0,0:0:0:0:
276,246,216203,1,8,0:0:0:0:
145,202,216373,1,0,0:0:0:0:
251,196,217051,1,0,0:0:0:0:
251,196,217135,1,0,0:0:0:0:
251,196,217220,1,0,0:0:0:0:
251,196,217305,1,0,0:0:0:0:
251,196,217390,1,8,0:0:0:0:
268,221,217729,1,4,0:0:0:0:
291,197,217898,1,0,0:0:0:0:
279,197,217983,1,0,0:0:0:0:
277,197,218068,1,8,0:0:0:0:
277,197,218237,1,0,0:0:0:0:
266,191,218407,1,8,0:0:0:0:
284,197,218449,1,8,0:0:0:0:
285,197,218576,1,0,0:0:0:0:
285,197,218618,1,0,0:0:0:0:
285,197,218746,1,0,0:0:0:0:
285,197,218788,1,0,0:0:0:0:
285,197,218915,1,8,0:0:0:0:
285,197,218957,1,8,0:0:0:0:
285,197,219085,1,0,0:0:0:0:
274,192,219169,1,0,0:0:0:0:
274,192,219254,1,8,0:0:0:0:
274,192,219339,1,0,0:0:0:0:
274,192,219424,1,8,0:0:0:0:
274,216,219508,1,8,0:0:0:0:
274,216,219593,1,0,0:0:0:0:
274,216,219678,1,8,0:0:0:0:
274,216,219763,1,8,0:0:0:0:
274,216,219847,1,0,0:0:0:0:
274,216,219932,1,8,0:0:0:0:
261,208,220017,1,0,0:0:0:0:
261,208,220102,1,8,0:0:0:0:
291,202,220158,1,8,0:0:0:0:
291,202,220215,1,8,0:0:0:0:
289,209,220271,1,0,0:0:0:0:
254,205,220441,1,12,0:0:0:0:
250,196,220610,1,0,0:0:0:0:
250,196,220695,1,0,0:0:0:0:
250,196,220780,1,8,0:0:0:0:
252,196,220949,1,12,0:0:0:0:
247,191,221118,1,0,0:0:0:0:
247,191,221203,1,0,0:0:0:0:
247,191,221288,1,8,0:0:0:0:
247,191,221457,1,12,0:0:0:0:
241,183,221627,1,0,0:0:0:0:
361,212,221712,1,0,0:0:0:0:
241,182,221796,1,8,0:0:0:0:
257,191,221881,1,8,0:0:0:0:
257,191,221966,1,0,0:0:0:0:
257,191,222051,1,8,0:0:0:0:
257,191,222135,1,8,0:0:0:0:
257,191,222220,1,0,0:0:0:0:
257,191,222305,1,8,0:0:0:0:
257,191,222390,1,8,0:0:0:0:
257,191,222474,1,0,0:0:0:0:
257,191,222559,1,0,0:0:0:0:
257,191,222644,1,8,0:0:0:0:
247,205,222729,1,8,0:0:0:0:
196,192,222813,1,4,0:0:0:0:
320,160,223152,1,0,0:0:0:0:
323,216,223237,1,0,0:0:0:0:
256,192,223322,1,0,0:0:0:0:
187,198,223407,1,0,0:0:0:0:
268,162,223491,1,8,0:0:0:0:
268,162,223661,1,0,0:0:0:0:
268,162,223830,1,0,0:0:0:0:
256,192,223915,1,0,0:0:0:0:
265,224,224000,1,8,0:0:0:0:
265,224,224169,1,8,0:0:0:0:
288,192,224254,1,0,0:0:0:0:
291,234,224339,1,8,0:0:0:0:
286,232,224508,1,8,0:0:0:0:
281,226,224593,1,0,0:0:0:0:
307,243,224678,1,0,0:0:0:0:
307,243,224763,1,0,0:0:0:0:
306,247,224847,1,8,0:0:0:0:
306,247,224932,1,0,0:0:0:0:
306,247,225017,1,8,0:0:0:0:
306,247,225102,1,8,0:0:0:0:
306,247,225186,1,0,0:0:0:0:
306,247,225271,1,0,0:0:0:0:
306,247,225356,1,8,0:0:0:0:
346,262,225441,1,0,0:0:0:0:
314,258,225525,1,8,0:0:0:0:
301,246,225582,1,8,0:0:0:0:
301,246,225638,1,8,0:0:0:0:
301,246,225695,1,8,0:0:0:0:
301,246,225751,1,8,0:0:0:0:
301,246,225808,1,8,0:0:0:0:
301,246,225864,1,0,0:0:0:0:
289,222,226034,1,0,0:0:0:0:
257,194,226118,1,0,0:0:0:0:
296,230,226203,1,8,0:0:0:0:
296,230,226373,1,0,0:0:0:0:
291,234,226542,1,0,0:0:0:0:
290,234,226627,1,0,0:0:0:0:
290,234,226712,1,8,0:0:0:0:
277,230,226881,1,12,0:0:0:0:
243,234,227051,1,0,0:0:0:0:
243,234,227220,1,8,0:0:0:0:
310,208,227305,1,0,0:0:0:0:
243,259,227390,1,8,0:0:0:0:
246,259,227474,1,8,0:0:0:0:
246,259,227559,1,0,0:0:0:0:
246,259,227644,1,8,0:0:0:0:
246,259,227729,1,8,0:0:0:0:
246,259,227813,1,0,0:0:0:0:
246,259,227898,1,8,0:0:0:0:
234,201,227983,1,8,0:0:0:0:
239,207,228068,1,0,0:0:0:0:
243,207,228152,1,0,0:0:0:0:
243,207,228237,1,12,0:0:0:0:
286,201,228576,1,4,0:0:0:0:
222,197,228746,1,0,0:0:0:0:
234,201,228830,1,0,0:0:0:0:
236,198,228915,1,8,0:0:0:0:
257,213,229085,1,0,0:0:0:0:
258,213,229254,1,8,0:0:0:0:
230,187,229296,1,8,0:0:0:0:
231,184,229424,1,0,0:0:0:0:
231,184,229466,1,0,0:0:0:0:
231,184,229593,1,0,0:0:0:0:
231,184,229635,1,0,0:0:0:0:
231,184,229763,1,8,0:0:0:0:
231,184,229805,1,8,0:0:0:0:
231,184,229932,1,0,0:0:0:0:
212,200,230017,1,8,0:0:0:0:
212,200,230102,1,8,0:0:0:0:
212,200,230186,1,0,0:0:0:0:
212,200,230271,1,8,0:0:0:0:
256,208,230356,1,8,0:0:0:0:
252,202,230441,1,0,0:0:0:0:
252,202,230525,1,8,0:0:0:0:
252,202,230610,1,0,0:0:0:0:
252,202,230695,1,0,0:0:0:0:
224,194,230780,1,8,0:0:0:0:
256,192,230864,1,0,0:0:0:0:
276,183,230949,1,8,0:0:0:0:
276,183,231005,1,8,0:0:0:0:
276,183,231062,1,8,0:0:0:0:
288,192,231118,1,0,0:0:0:0:
288,192,231288,1,12,0:0:0:0:
224,194,231457,1,0,0:0:0:0:
256,192,231542,1,0,0:0:0:0:
256,192,231627,1,8,0:0:0:0:
256,192,231796,1,12,0:0:0:0:
256,192,231966,1,0,0:0:0:0:
256,192,232051,1,0,0:0:0:0:
256,192,232135,1,8,0:0:0:0:
256,192,232305,1,12,0:0:0:0:
256,192,232474,1,0,0:0:0:0:
256,192,232559,1,0,0:0:0:0:
256,192,232644,1,8,0:0:0:0:
256,192,232729,1,8,0:0:0:0:
256,192,232813,1,0,0:0:0:0:
256,192,232898,1,8,0:0:0:0:
256,192,232983,1,0,0:0:0:0:
256,192,233068,1,0,0:0:0:0:
256,192,233152,1,8,0:0:0:0:
256,192,233237,1,0,0:0:0:0:
256,192,233322,1,8,0:0:0:0:
256,192,233407,1,8,0:0:0:0:
256,192,233491,1,0,0:0:0:0:
256,224,233576,1,8,0:0:0:0:
256,224,233661,1,4,0:0:0:0:
352,224,234000,1,0,0:0:0:0:
273,187,234085,1,0,0:0:0:0:
271,207,234169,1,0,0:0:0:0:
352,224,234254,1,0,0:0:0:0:
276,207,234339,1,8,0:0:0:0:
271,213,234424,1,8,0:0:0:0:
279,205,234508,1,0,0:0:0:0:
283,202,234678,1,0,0:0:0:0:
288,192,234763,1,0,0:0:0:0:
284,222,234847,1,8,0:0:0:0:
330,214,235017,1,8,0:0:0:0:
278,179,235102,1,0,0:0:0:0:
284,203,235186,1,8,0:0:0:0:
284,203,235356,1,8,0:0:0:0:
296,238,235441,1,8,0:0:0:0:
296,238,235525,1,0,0:0:0:0:
296,238,235610,1,8,0:0:0:0:
296,238,235695,1,8,0:0:0:0:
279,229,235780,1,0,0:0:0:0:
279,229,235864,1,8,0:0:0:0:
279,229,235949,1,0,0:0:0:0:
279,229,236034,1,8,0:0:0:0:
304,245,236118,1,8,0:0:0:0:
304,247,236203,1,0,0:0:0:0:
304,247,236288,1,0,0:0:0:0:
304,247,236373,1,8,0:0:0:0:
299,232,236429,1,8,0:0:0:0:
299,232,236486,1,8,0:0:0:0:
299,232,236542,1,0,0:0:0:0:
299,232,236599,1,0,0:0:0:0:
299,232,236655,1,0,0:0:0:0:
299,232,236712,1,8,0:0:0:0:
279,201,236881,1,0,0:0:0:0:
279,194,237051,1,8,0:0:0:0:
279,201,237220,1,0,0:0:0:0:
279,201,237305,1,0,0:0:0:0:
279,201,237390,1,8,0:0:0:0:
215,205,237559,1,0,0:0:0:0:
231,209,237729,1,8,0:0:0:0:
265,192,237813,1,0,0:0:0:0:
264,194,237898,1,8,0:0:0:0:
264,194,237983,1,8,0:0:0:0:
264,235,238068,1,0,0:0:0:0:
279,201,238237,1,8,0:0:0:0:
240,212,238407,1,8,0:0:0:0:
240,212,238576,1,8,0:0:0:0:
225,216,238746,1,8,0:0:0:0:
236,213,238830,1,8,0:0:0:0:
261,217,238915,1,8,0:0:0:0:
261,217,239000,1,8,0:0:0:0:
261,217,239085,1,0,0:0:0:0:
261,217,239169,1,0,0:0:0:0:
261,217,239254,1,0,0:0:0:0:
261,217,239339,1,0,0:0:0:0:
261,217,239424,1,8,0:0:0:0:
193,196,239593,1,0,0:0:0:0:
225,207,239678,1,0,0:0:0:0:
225,207,239763,1,8,0:0:0:0:
225,207,239932,1,0,0:0:0:0:
233,209,240102,1,8,0:0:0:0:
233,209,240186,1,8,0:0:0:0:
233,209,240271,1,0,0:0:0:0:
233,209,240356,1,0,0:0:0:0:
233,209,240441,1,8,0:0:0:0:
238,203,240610,1,8,0:0:0:0:
236,203,240780,1,0,0:0:0:0:
236,203,240864,1,0,0:0:0:0:
236,203,240949,1,0,0:0:0:0:
236,203,241118,1,8,0:0:0:0:
238,204,241288,1,0,0:0:0:0:
238,204,241457,1,8,0:0:0:0:
254,193,241542,1,0,0:0:0:0:
238,203,241627,1,8,0:0:0:0:
236,203,241712,1,0,0:0:0:0:
236,203,241796,1,8,0:0:0:0:
245,206,241966,1,8,0:0:0:0:
245,206,242135,1,0,0:0:0:0:
226,228,242305,1,0,0:0:0:0:
218,221,242390,1,0,0:0:0:0:
226,228,242474,1,8,0:0:0:0:
226,228,242644,1,0,0:0:0:0:
226,228,242813,1,8,0:0:0:0:
320,201,242898,1,8,0:0:0:0:
226,228,242983,1,8,0:0:0:0:
229,207,243068,1,0,0:0:0:0:
231,207,243152,1,8,0:0:0:0:
264,227,243322,1,8,0:0:0:0:
264,227,243491,1,0,0:0:0:0:
261,231,243576,1,0,0:0:0:0:
261,231,243661,1,0,0:0:0:0:
261,231,243830,1,8,0:0:0:0:
254,216,244000,1,0,0:0:0:0:
254,216,244169,1,8,0:0:0:0:
254,216,244254,1,0,0:0:0:0:
254,216,244339,1,8,0:0:0:0:
254,216,244424,1,0,0:0:0:0:
254,216,244508,1,8,0:0:0:0:
183,196,244593,1,0,0:0:0:0:
254,216,244678,1,8,0:0:0:0:
261,231,244763,1,8,0:0:0:0:
254,216,244847,1,0,0:0:0:0:
268,222,245017,1,0,0:0:0:0:
268,222,245102,1,0,0:0:0:0:
268,222,245186,1,8,0:0:0:0:
268,222,245356,1,0,0:0:0:0:
251,226,245525,1,8,0:0:0:0:
336,246,245610,1,8,0:0:0:0:
251,226,245695,1,0,0:0:0:0:
251,226,245780,1,0,0:0:0:0:
251,226,245864,1,8,0:0:0:0:
251,226,246034,1,8,0:0:0:0:
251,226,246203,1,0,0:0:0:0:
312,213,246288,1,0,0:0:0:0:
295,226,246373,1,0,0:0:0:0:
293,230,246542,1,8,0:0:0:0:
298,230,246712,1,0,0:0:0:0:
298,230,246881,1,8,0:0:0:0:
298,230,246966,1,0,0:0:0:0:
298,230,247051,1,8,0:0:0:0:
298,230,247135,1,0,0:0:0:0:
298,230,247220,1,8,0:0:0:0:
298,230,247390,1,8,0:0:0:0:
298,230,247559,1,0,0:0:0:0:
255,207,247729,1,0,0:0:0:0:
255,207,247813,1,0,0:0:0:0:
256,211,247898,1,8,0:0:0:0:
256,211,248068,1,0,0:0:0:0:
256,211,248237,1,0,0:0:0:0:
256,211,248322,1,0,0:0:0:0:
256,211,248407,1,8,0:0:0:0:
313,234,248491,1,8,0:0:0:0:
245,208,248576,1,0,0:0:0:0:
240,207,248746,1,0,0:0:0:0:
240,207,248915,1,8,0:0:0:0:
288,256,249000,1,8,0:0:0:0:
271,216,249085,1,0,0:0:0:0:
271,216,249254,1,8,0:0:0:0:
276,221,249424,1,8,0:0:0:0:
288,224,249508,1,8,0:0:0:0:
278,221,249593,1,0,0:0:0:0:
278,221,249763,1,0,0:0:0:0:
228,161,249847,1,0,0:0:0:0:
278,221,249932,1,8,0:0:0:0:
281,221,250017,1,8,0:0:0:0:
281,221,250102,1,8,0:0:0:0:
281,221,250186,1,8,0:0:0:0:
282,221,250271,1,0,0:0:0:0:
235,197,251627,1,8,0:0:0:0:
253,183,252983,1,0,0:0:0:0:
235,197,254339,1,8,0:0:0:0:
267,205,255695,1,8,0:0:0:0:
267,205,256034,1,8,0:0:0:0:
267,205,256373,1,8,0:0:0:0:
225,151,256542,1,0,0:0:0:0:
267,205,256712,1,8,0:0:0:0:
267,205,257051,1,8,0:0:0:0:
291,208,257390,1,8,0:0:0:0:
291,208,257729,1,8,0:0:0:0:
305,251,257898,1,0,0:0:0:0:
305,251,257983,1,0,0:0:0:0:
291,208,258068,1,8,0:0:0:0:
305,251,258237,1,0,0:0:0:0:
291,208,258407,1,8,0:0:0:0:
276,212,258576,1,0,0:0:0:0:
274,212,258746,1,8,0:0:0:0:
274,212,258915,1,0,0:0:0:0:
244,207,259085,1,8,0:0:0:0:
201,190,259169,1,0,0:0:0:0:
252,207,259254,1,8,0:0:0:0:
230,193,259339,1,0,0:0:0:0:
230,193,259424,1,8,0:0:0:0:
230,193,259508,1,0,0:0:0:0:
230,193,259593,1,8,0:0:0:0:
261,188,259763,1,0,0:0:0:0:
250,197,261118,1,8,0:0:0:0:
250,197,261288,1,8,0:0:0:0:
250,197,261457,1,0,0:0:0:0:
250,197,261627,1,8,0:0:0:0:
250,197,261796,1,0,0:0:0:0:
250,197,261966,1,0,0:0:0:0:
250,197,262135,1,8,0:0:0:0:
250,197,262305,1,0,0:0:0:0:
250,197,262474,1,8,0:0:0:0:
260,220,262644,1,8,0:0:0:0:
260,220,262813,1,0,0:0:0:0:
260,220,262983,1,8,0:0:0:0:
260,220,263152,1,0,0:0:0:0:
260,220,263322,1,0,0:0:0:0:
260,220,263491,1,8,0:0:0:0:
260,220,263661,1,0,0:0:0:0:
260,220,263830,1,8,0:0:0:0:
275,237,264000,1,8,0:0:0:0:
275,237,264169,1,0,0:0:0:0:
275,237,264339,1,8,0:0:0:0:
275,237,264508,1,0,0:0:0:0:
275,237,264678,1,0,0:0:0:0:
275,237,264847,1,8,0:0:0:0:
275,237,265017,1,0,0:0:0:0:
275,237,265186,1,8,0:0:0:0:
257,219,265356,1,8,0:0:0:0:
257,219,265525,1,0,0:0:0:0:
257,219,265695,1,8,0:0:0:0:
261,221,265864,1,0,0:0:0:0:
261,221,266034,1,0,0:0:0:0:
261,221,266203,1,8,0:0:0:0:
261,221,266373,1,0,0:0:0:0:
261,221,266542,1,8,0:0:0:0:
288,254,266712,1,0,0:0:0:0:
288,254,266881,1,0,0:0:0:0:
289,240,267051,1,8,0:0:0:0:
289,240,267220,1,0,0:0:0:0:
289,240,267390,1,0,0:0:0:0:
289,240,267559,1,8,0:0:0:0:
289,240,267729,1,0,0:0:0:0:
289,240,267898,1,8,0:0:0:0:
256,192,268068,1,0,0:0:0:0:
256,192,268237,1,0,0:0:0:0:
256,192,268407,1,8,0:0:0:0:
256,192,268576,1,0,0:0:0:0:
256,192,268746,1,0,0:0:0:0:
256,192,268915,1,8,0:0:0:0:
266,213,269085,1,0,0:0:0:0:
266,213,269254,1,8,0:0:0:0:
266,213,269424,1,0,0:0:0:0:
266,213,269593,1,0,0:0:0:0:
266,213,269763,1,8,0:0:0:0:
266,213,269932,1,0,0:0:0:0:
266,213,270102,1,0,0:0:0:0:
266,213,270271,1,8,0:0:0:0:
266,213,270441,1,0,0:0:0:0:
266,213,270610,1,8,0:0:0:0:
248,237,270780,1,0,0:0:0:0:
248,237,270949,1,0,0:0:0:0:
248,237,271118,1,8,0:0:0:0:
248,237,271288,1,0,0:0:0:0:
248,237,271457,1,0,0:0:0:0:
248,237,271627,1,8,0:0:0:0:
248,237,271796,1,0,0:0:0:0:
248,237,271966,1,8,0:0:0:0:
249,221,272135,1,8,0:0:0:0:
250,185,272220,1,0,0:0:0:0:
249,221,272305,1,8,0:0:0:0:
249,221,272474,1,8,0:0:0:0:
249,224,272644,1,8,0:0:0:0:
249,224,272813,1,0,0:0:0:0:
249,224,272983,1,8,0:0:0:0:
249,224,273152,1,0,0:0:0:0:
249,224,273322,1,8,0:0:0:0:
282,227,273491,1,8,0:0:0:0:
289,231,273576,1,0,0:0:0:0:
282,227,273661,1,8,0:0:0:0:
282,227,273830,1,8,0:0:0:0:
282,227,274000,1,8,0:0:0:0:
282,227,274169,1,0,0:0:0:0:
282,227,274339,1,8,0:0:0:0:
282,227,274508,1,0,0:0:0:0:
282,227,274678,1,8,0:0:0:0:
284,230,274847,1,8,0:0:0:0:
282,227,274932,1,0,0:0:0:0:
284,230,275017,1,8,0:0:0:0:
284,230,275186,1,8,0:0:0:0:
284,230,275356,1,8,0:0:0:0:
284,230,275525,1,0,0:0:0:0:
284,230,275695,1,8,0:0:0:0:
284,230,275864,1,0,0:0:0:0:
284,230,276034,1,8,0:0:0:0:
272,221,276203,1,8,0:0:0:0:
237,204,276288,1,0,0:0:0:0:
240,208,276373,1,8,0:0:0:0:
240,208,276542,1,8,0:0:0:0:
240,208,276712,1,8,0:0:0:0:
240,208,276881,1,0,0:0:0:0:
240,208,277051,1,8,0:0:0:0:
240,208,277220,1,0,0:0:0:0:
163,183,277390,1,8,0:0:0:0:
227,203,277559,1,0,0:0:0:0:
249,209,277644,1,0,0:0:0:0:
251,201,277729,1,8,0:0:0:0:
253,201,277898,1,0,0:0:0:0:
253,201,278068,1,8,0:0:0:0:
253,201,278237,1,8,0:0:0:0:
253,201,278322,1,0,0:0:0:0:
224,160,278407,1,8,0:0:0:0:
256,192,278576,1,8,0:0:0:0:
256,192,278746,1,8,0:0:0:0:
261,183,278915,1,0,0:0:0:0:
192,192,279000,1,0,0:0:0:0:
263,190,279085,1,8,0:0:0:0:
281,196,279254,1,0,0:0:0:0:
311,189,279424,1,8,0:0:0:0:
305,193,279593,1,8,0:0:0:0:
305,194,279678,1,0,0:0:0:0:
305,194,279763,1,8,0:0:0:0:
305,195,279932,1,8,0:0:0:0:
305,195,280102,1,8,0:0:0:0:
289,196,280271,1,0,0:0:0:0:
266,178,280356,1,0,0:0:0:0:
289,196,280441,1,8,0:0:0:0:
289,196,280610,1,0,0:0:0:0:
289,196,280780,1,8,0:0:0:0:
289,196,280864,1,0,0:0:0:0:
289,196,280949,1,8,0:0:0:0:
305,195,281034,1,8,0:0:0:0:
289,196,281118,1,0,0:0:0:0:
289,196,281288,1,8,0:0:0:0:
