osu file format v14

[General]
AudioFilename: audio.mp3
AudioLeadIn: 0
PreviewTime: -1
Countdown: 0
SampleSet: None
StackLeniency: 0.3
Mode: 0
LetterboxInBreaks: 0
WidescreenStoryboard: 1

[Editor]
Bookmarks: 23028
DistanceSpacing: 1
BeatDivisor: 4
GridSize: 32
TimelineZoom: 4.299998

[Metadata]
Title:Crazy Tek
TitleUnicode:Crazy Tek
Artist:P*Light
ArtistUnicode:P*Light
Creator:abcd452
Version:testo
Source:
Tags:
BeatmapID:1230029
BeatmapSetID:460531

[Difficulty]
HPDrainRate:5
CircleSize:4.1
OverallDifficulty:9.2
ApproachRate:9.5
SliderMultiplier:3
SliderTickRate:2

[Events]
//Background and Video events
0,0,"bloodborne_anime-HD.jpg",0,0
//Break Periods
2,46524,55681
2,97347,102270
//Storyboard Layer 0 (Background)
//Storyboard Layer 1 (Fail)
//Storyboard Layer 2 (Pass)
//Storyboard Layer 3 (Foreground)
//Storyboard Sound Samples

[TimingPoints]
1148,352.941176470588,4,1,0,70,1,0
2559,-133.333333333333,4,1,0,70,0,0
12442,-100,4,1,0,70,0,0
13147,-133.333333333333,4,1,0,70,0,0
13853,-100,4,1,0,70,0,0
15971,-133.333333333333,4,1,0,70,0,0
16677,-100,4,1,0,70,0,0
17736,-133.333333333333,4,1,0,70,0,0
18089,-100,4,1,0,70,0,0
25851,-125,4,1,0,70,0,0
26559,-95.2380952380952,4,1,0,70,0,0
27265,-125,4,1,0,70,0,0
27971,-95.2380952380952,4,1,0,70,0,0
31500,-125,4,1,0,70,0,0
32206,-95.2380952380952,4,1,0,70,0,0
41471,-142.857142857143,4,1,0,70,0,0
43500,-125,4,1,0,70,0,0
45265,-95.2380952380952,4,1,0,70,0,0
46324,-133.333333333333,4,1,0,70,0,0
57618,-100,4,1,0,70,0,0
63265,-90.9090909090909,4,1,0,70,0,0
67500,-111.111111111111,4,1,0,70,0,0
68912,-74.0740740740741,4,1,0,70,0,1
79500,-200,4,1,0,70,0,1
79853,-133.333333333333,4,1,0,70,0,1
80206,-74.0740740740741,4,1,0,70,0,1
90089,-95.2380952380952,4,1,0,70,0,1
91500,-90.9090909090909,4,1,0,70,0,0
102795,-74.0740740740741,4,1,0,70,0,1
104736,-95.2380952380952,4,1,0,70,0,1
105265,-74.0740740740741,4,1,0,70,0,1

[HitObjects]
99,169,1148,6,0,P|111:229|201:252,1,150
270,75,1500,2,0,L|163:197,1,150
349,330,1853,1,0,0:0:0:0:
349,330,1942,1,0,0:0:0:0:
349,330,2030,1,0,0:0:0:0:
33,278,2206,1,0,0:0:0:0:
33,278,2295,1,0,0:0:0:0:
33,278,2383,1,0,0:0:0:0:
217,233,2559,6,0,L|230:305,2,56.2500021457673
111,131,2912,2,0,L|98:59,2,56.2500021457673
253,163,3265,2,0,L|321:187,2,56.2500021457673
123,232,3618,2,0,L|67:279,2,56.2500021457673
171,93,3971,5,0,0:0:0:0:
171,93,4059,1,0,0:0:0:0:
171,93,4147,1,0,0:0:0:0:
317,95,4324,2,0,L|408:152,2,56.2500021457673
210,196,4677,2,0,L|115:246,2,56.2500021457673
347,248,5030,2,0,L|350:140,2,56.2500021457673
210,194,5383,5,0,0:0:0:0:
182,178,5471,1,0,0:0:0:0:
208,164,5559,1,0,0:0:0:0:
113,276,5736,2,0,L|47:340,2,56.2500021457673
270,263,6089,2,0,L|358:288,2,56.2500021457673
242,107,6442,2,0,L|219:17,2,56.2500021457673
89,147,6795,5,0,0:0:0:0:
68,158,6883,1,0,0:0:0:0:
44,170,6971,1,0,0:0:0:0:
156,72,7147,2,0,P|106:94|87:145,1,112.500004291535
200,269,7500,1,0,0:0:0:0:
200,269,7853,1,0,0:0:0:0:
456,164,8206,6,0,P|441:223|393:261,1,112.500004291535
236,144,8559,1,0,0:0:0:0:
257,174,8647,1,0,0:0:0:0:
276,143,8736,1,0,0:0:0:0:
123,143,8912,2,0,L|285:144,1,112.500004291535
53,143,9265,1,0,0:0:0:0:
88,110,9353,1,0,0:0:0:0:
123,143,9442,1,0,0:0:0:0:
389,143,9618,6,0,L|255:143,1,112.500004291535
123,143,9971,2,0,L|257:143,1,112.500004291535
469,241,10324,2,0,L|335:241,1,112.500004291535
43,241,10677,2,0,L|177:241,1,112.500004291535
469,143,11030,5,0,0:0:0:0:
43,241,11383,1,0,0:0:0:0:
460,36,11736,1,0,0:0:0:0:
253,140,11912,1,0,0:0:0:0:
209,301,12089,1,0,0:0:0:0:
255,330,12177,1,0,0:0:0:0:
311,329,12265,1,0,0:0:0:0:
356,297,12353,1,0,0:0:0:0:
375,245,12442,6,0,P|368:153|302:70,1,150
75,162,12795,2,0,P|82:254|148:337,1,150
234,87,13147,2,0,L|258:154,2,56.2500021457673
278,297,13500,2,0,L|254:230,2,56.2500021457673
295,180,13853,6,0,P|184:255|190:276,1,150
355,219,14206,2,0,P|353:133|248:131,1,150
49,109,14559,1,0,0:0:0:0:
303,108,14736,1,0,0:0:0:0:
49,109,14912,2,0,P|29:193|77:271,1,150
303,108,15265,6,0,P|257:52|184:77,1,150
76,319,15618,2,0,P|128:258|94:174,1,150
48,52,15971,2,0,L|49:124,2,56.2500021457673
237,118,16324,2,0,L|238:190,2,56.2500021457673
350,217,16677,6,0,B|467:195|467:195|421:160,1,150
237,174,17030,2,0,B|274:292|274:292|297:257,1,150
332,48,17383,1,0,0:0:0:0:
146,173,17559,1,0,0:0:0:0:
355,286,17736,1,0,0:0:0:0:
387,241,17824,1,0,0:0:0:0:
389,186,17912,1,0,0:0:0:0:
360,139,18000,1,0,0:0:0:0:
309,117,18089,6,0,B|271:76|271:76|203:132|157:92,1,150
266,176,18442,2,0,B|304:217|304:217|372:161|418:201,1,150
186,107,18795,1,0,0:0:0:0:
186,318,18971,1,0,0:0:0:0:
186,318,19059,1,0,0:0:0:0:
186,318,19147,1,0,0:0:0:0:
410,231,19324,5,0,0:0:0:0:
441,200,19412,1,0,0:0:0:0:
463,170,19500,6,0,P|443:91|375:59,1,150
118,110,19853,2,0,P|170:176|253:101,1,150
386,60,20206,1,0,0:0:0:0:
273,261,20383,1,0,0:0:0:0:
118,110,20559,2,0,L|128:218,1,75
261,335,20736,2,0,L|279:232,1,75
355,81,20912,2,0,L|399:181,1,75
406,189,21089,5,0,0:0:0:0:
395,243,21177,1,0,0:0:0:0:
351,274,21265,1,0,0:0:0:0:
296,261,21353,1,0,0:0:0:0:
245,237,21441,1,0,0:0:0:0:
191,223,21530,1,0,0:0:0:0:
140,241,21618,5,0,0:0:0:0:
138,294,21706,1,0,0:0:0:0:
184,323,21794,1,0,0:0:0:0:
239,316,21883,1,0,0:0:0:0:
281,280,21971,5,0,0:0:0:0:
297,227,22059,1,0,0:0:0:0:
289,172,22147,1,0,0:0:0:0:
262,123,22236,1,0,0:0:0:0:
48,115,22324,6,0,L|156:155,1,75
464,269,22500,6,0,L|356:229,1,75
37,229,22677,6,0,L|150:209,1,75
474,154,22853,6,0,L|361:174,1,75
85,333,23030,6,0,L|208:228,1,150
222,341,23383,2,0,P|271:255|251:186,1,150
72,68,23736,6,0,B|17:104|22:163|22:163|66:143|102:175,1,157.499995193482
307,147,24089,2,0,P|255:220|187:271,1,157.499995193482
72,68,24442,1,0,0:0:0:0:
440,316,24795,1,0,0:0:0:0:
223,48,25147,6,0,P|175:115|209:177,1,157.499995193482
376,184,25500,2,0,P|317:122|238:120,1,157.499995193482
435,236,25853,2,0,P|454:209|457:178,2,60
280,181,26206,2,0,P|259:202|250:230,2,60
496,112,26559,6,0,P|427:118|373:211,1,157.499995193482
282,311,26912,2,0,P|205:285|164:191,1,157.499995193482
213,71,27265,2,0,P|240:104|250:137,2,60
264,241,27618,2,0,P|237:208|227:175,2,60
390,335,27971,6,0,P|427:253|385:159,1,157.499995193482
285,96,28324,2,0,P|248:178|290:272,1,157.499995193482
411,190,28677,1,0,0:0:0:0:
101,190,28853,1,0,0:0:0:0:
226,349,29030,1,0,0:0:0:0:
258,299,29118,1,0,0:0:0:0:
263,240,29206,1,0,0:0:0:0:
238,186,29294,1,0,0:0:0:0:
191,150,29383,6,0,P|119:101|42:133,1,157.499995193482
144,287,29736,2,0,P|222:249|233:166,1,157.499995193482
158,33,30089,1,0,0:0:0:0:
354,351,30442,1,0,0:0:0:0:
354,33,30795,6,0,P|443:68|456:140,1,157.499995193482
461,278,31147,2,0,P|387:242|371:170,1,157.499995193482
346,209,31500,2,0,P|337:250|314:273,2,60
166,175,31853,2,0,P|174:133|198:111,2,60
141,210,32206,6,0,P|120:136|51:106,1,157.499995193482
92,260,32559,2,0,P|187:267|212:197,1,157.499995193482
177,75,32912,6,0,P|131:135|148:210,1,157.499995193482
246,84,33265,2,0,P|194:3|123:26,1,157.499995193482
205,155,33618,1,0,0:0:0:0:
307,155,33971,1,0,0:0:0:0:
103,155,34324,1,0,0:0:0:0:
409,155,34500,1,0,0:0:0:0:
256,308,34677,1,0,0:0:0:0:
256,248,34765,1,0,0:0:0:0:
256,128,34853,5,0,0:0:0:0:
256,188,34941,1,0,0:0:0:0:
256,68,35030,6,0,B|171:33|171:33|195:99,1,157.499995193482
256,248,35383,2,0,B|341:283|341:283|317:217,1,157.499995193482
256,68,35736,1,0,0:0:0:0:
194,221,35912,1,0,0:0:0:0:
256,68,36089,1,0,0:0:0:0:
318,221,36265,1,0,0:0:0:0:
256,68,36442,6,0,L|103:146,1,157.499995193482
221,91,36795,2,0,L|374:169,1,157.499995193482
255,114,37147,2,0,P|260:162|218:217,2,78.7499975967408
310,232,37500,2,0,P|265:212|239:148,2,78.7499975967408
107,216,37853,6,0,P|159:178|250:190,1,157.499995193482
180,248,38206,2,0,P|127:285|36:273,1,157.499995193482
68,73,38559,1,0,0:0:0:0:
39,275,38736,1,0,0:0:0:0:
68,73,38912,1,0,0:0:0:0:
39,275,39089,1,0,0:0:0:0:
64,153,39265,6,0,P|123:175|244:164,1,157.499995193482
64,153,39618,2,0,P|123:175|244:164,1,157.499995193482
406,59,39971,1,0,0:0:0:0:
216,172,40147,1,0,0:0:0:0:
413,285,40325,5,0,0:0:0:0:
410,225,40413,1,0,0:0:0:0:
388,170,40501,1,0,0:0:0:0:
348,125,40589,1,0,0:0:0:0:
310,129,40677,5,0,0:0:0:0:
285,157,40765,1,0,0:0:0:0:
282,194,40853,1,0,0:0:0:0:
304,224,40941,1,0,0:0:0:0:
339,233,41029,1,0,0:0:0:0:
374,220,41118,1,0,0:0:0:0:
407,205,41206,1,0,0:0:0:0:
439,220,41294,1,0,0:0:0:0:
448,256,41382,1,0,0:0:0:0:
453,308,41471,5,0,0:0:0:0:
420,348,41559,1,0,0:0:0:0:
392,303,41647,1,0,0:0:0:0:
352,268,41735,1,0,0:0:0:0:
301,280,41823,1,0,0:0:0:0:
276,326,41912,1,0,0:0:0:0:
224,336,42000,1,0,0:0:0:0:
185,318,42089,5,0,0:0:0:0:
158,310,42177,1,0,0:0:0:0:
141,278,42265,1,0,0:0:0:0:
158,246,42353,1,0,0:0:0:0:
194,243,42441,1,0,0:0:0:0:
229,230,42530,5,0,0:0:0:0:
264,226,42618,1,0,0:0:0:0:
281,194,42706,1,0,0:0:0:0:
264,162,42794,1,0,0:0:0:0:
215,142,42882,1,0,0:0:0:0:
169,115,42971,1,0,0:0:0:0:
150,66,43059,1,0,0:0:0:0:
182,25,43147,1,0,0:0:0:0:
233,13,43235,1,0,0:0:0:0:
284,24,43323,1,0,0:0:0:0:
330,48,43412,1,0,0:0:0:0:
340,59,43500,5,0,0:0:0:0:
369,110,43588,1,0,0:0:0:0:
364,169,43676,1,0,0:0:0:0:
314,194,43764,1,0,0:0:0:0:
262,165,43852,1,0,0:0:0:0:
207,144,43941,1,0,0:0:0:0:
155,170,44029,1,0,0:0:0:0:
158,224,44117,1,0,0:0:0:0:
215,226,44205,1,0,0:0:0:0:
246,178,44294,1,0,0:0:0:0:
216,127,44382,1,0,0:0:0:0:
161,106,44470,1,0,0:0:0:0:
103,117,44558,1,0,0:0:0:0:
64,161,44647,1,0,0:0:0:0:
60,220,44735,1,0,0:0:0:0:
89,272,44823,1,0,0:0:0:0:
138,306,44912,6,0,L|228:297,1,60
426,272,45089,2,0,L|336:281,1,60
89,272,45265,6,0,L|198:260,1,78.7499975967408
476,238,45442,2,0,L|371:249,1,78.7499975967408
256,68,45618,6,0,L|244:244,1,157.499995193482
179,248,45971,2,0,P|266:292|312:216,1,157.499995193482
256,68,46324,5,0,0:0:0:0:
90,130,56206,6,0,P|205:111|279:187,1,225.000008583069
276,180,56736,1,0,0:0:0:0:
276,180,56912,1,0,0:0:0:0:
220,254,57265,2,0,L|313:266,2,56.2500021457673
276,180,57618,6,0,P|347:261|331:324,1,150
99,281,57971,1,0,0:0:0:0:
390,350,58147,1,0,0:0:0:0:
185,133,58324,2,0,P|150:213|219:283,1,150
271,75,58677,2,0,P|286:174|216:209,1,150
29,290,59030,5,0,0:0:0:0:
102,276,59118,1,0,0:0:0:0:
176,262,59206,1,0,0:0:0:0:
467,193,59383,1,0,0:0:0:0:
176,262,59559,1,0,0:0:0:0:
468,327,59736,2,0,P|495:248|441:176,1,150
271,75,60089,1,0,0:0:0:0:
102,197,60265,1,0,0:0:0:0:
236,344,60442,5,0,0:0:0:0:
291,296,60530,1,0,0:0:0:0:
297,223,60618,1,0,0:0:0:0:
57,46,60795,1,0,0:0:0:0:
91,343,60971,1,0,0:0:0:0:
327,159,61147,1,0,0:0:0:0:
185,159,61324,1,0,0:0:0:0:
327,159,61500,2,0,P|422:202|500:170,1,150
327,159,61853,5,0,0:0:0:0:
264,119,61941,1,0,0:0:0:0:
191,124,62029,1,0,0:0:0:0:
334,185,62206,2,0,P|259:112|175:115,1,150
354,370,62559,1,0,0:0:0:0:
150,150,62736,1,0,0:0:0:0:
448,110,62912,2,0,P|444:184|427:205,3,75
370,290,63265,5,0,0:0:0:0:
335,216,63353,1,0,0:0:0:0:
350,137,63441,1,0,0:0:0:0:
468,312,63618,1,0,0:0:0:0:
240,267,63795,1,0,0:0:0:0:
190,42,63971,5,0,0:0:0:0:
138,104,64059,1,0,0:0:0:0:
135,185,64147,1,0,0:0:0:0:
329,312,64324,1,0,0:0:0:0:
249,95,64500,1,0,0:0:0:0:
140,299,64677,5,0,0:0:0:0:
219,283,64765,1,0,0:0:0:0:
275,224,64853,1,0,0:0:0:0:
70,116,65030,1,0,0:0:0:0:
234,276,65206,1,0,0:0:0:0:
266,46,65383,5,0,0:0:0:0:
322,103,65471,1,0,0:0:0:0:
337,183,65559,1,0,0:0:0:0:
124,274,65736,1,0,0:0:0:0:
148,44,65912,1,0,0:0:0:0:
337,183,66089,5,0,0:0:0:0:
310,243,66177,1,0,0:0:0:0:
254,279,66265,1,0,0:0:0:0:
188,291,66353,1,0,0:0:0:0:
123,275,66441,1,0,0:0:0:0:
78,227,66530,1,0,0:0:0:0:
83,162,66618,1,0,0:0:0:0:
142,137,66706,1,0,0:0:0:0:
204,162,66795,5,0,0:0:0:0:
256,205,66883,1,0,0:0:0:0:
311,245,66971,1,0,0:0:0:0:
375,262,67059,1,0,0:0:0:0:
434,233,67147,1,0,0:0:0:0:
455,171,67236,1,0,0:0:0:0:
435,107,67324,1,0,0:0:0:0:
384,65,67412,1,0,0:0:0:0:
318,59,67500,5,0,0:0:0:0:
241,77,67589,1,0,0:0:0:0:
326,101,67677,5,0,0:0:0:0:
248,119,67766,1,0,0:0:0:0:
333,142,67853,5,0,0:0:0:0:
255,160,67942,1,0,0:0:0:0:
340,183,68030,5,0,0:0:0:0:
262,201,68119,1,0,0:0:0:0:
347,224,68206,6,0,P|335:290|264:328,1,134.999995880127
133,236,68559,2,0,P|231:234|289:275,1,134.999995880127
150,137,68912,6,0,P|260:179|224:291,1,202.500000772476
137,356,69265,2,0,P|120:251|227:208,1,202.500000772476
295,287,69618,1,0,0:0:0:0:
349,332,69706,1,0,0:0:0:0:
414,303,69794,1,0,0:0:0:0:
418,232,69882,1,0,0:0:0:0:
355,198,69970,1,0,0:0:0:0:
282,216,70059,1,0,0:0:0:0:
212,228,70147,1,0,0:0:0:0:
170,171,70235,1,0,0:0:0:0:
203,108,70324,6,0,P|291:77|406:127,1,202.500000772476
170,171,70677,1,0,0:0:0:0:
316,262,70853,1,0,0:0:0:0:
272,324,70942,1,0,0:0:0:0:
197,337,71030,1,0,0:0:0:0:
125,316,71118,1,0,0:0:0:0:
79,259,71206,1,0,0:0:0:0:
75,185,71294,1,0,0:0:0:0:
115,123,71382,1,0,0:0:0:0:
156,186,71471,1,0,0:0:0:0:
231,189,71559,1,0,0:0:0:0:
280,133,71647,1,0,0:0:0:0:
251,63,71736,6,0,P|165:37|43:75,1,202.500000772476
134,252,72089,1,0,0:0:0:0:
334,230,72265,1,0,0:0:0:0:
196,337,72442,1,0,0:0:0:0:
124,353,72530,1,0,0:0:0:0:
61,317,72618,1,0,0:0:0:0:
40,246,72706,1,0,0:0:0:0:
73,181,72794,1,0,0:0:0:0:
149,181,72883,1,0,0:0:0:0:
217,206,72971,1,0,0:0:0:0:
284,177,73059,1,0,0:0:0:0:
313,108,73147,6,0,P|353:151|284:259,1,202.500000772476
122,70,73500,1,0,0:0:0:0:
122,70,73589,1,0,0:0:0:0:
122,70,73677,1,0,0:0:0:0:
122,70,73765,1,0,0:0:0:0:
122,70,73853,1,0,0:0:0:0:
148,140,73941,1,0,0:0:0:0:
174,210,74029,1,0,0:0:0:0:
201,280,74117,1,0,0:0:0:0:
227,350,74206,6,0,L|321:296,1,101.250000386238
424,122,74383,6,0,L|330:176,1,101.250000386238
87,253,74559,6,0,P|74:143|197:37,1,202.500000772476
273,185,74912,2,0,P|410:164|408:63,1,202.500000772476
294,71,75265,1,0,0:0:0:0:
319,141,75353,1,0,0:0:0:0:
370,195,75441,1,0,0:0:0:0:
438,224,75529,1,0,0:0:0:0:
505,190,75618,1,0,0:0:0:0:
438,166,75706,1,0,0:0:0:0:
370,195,75794,1,0,0:0:0:0:
319,249,75882,1,0,0:0:0:0:
294,319,75971,6,0,P|388:353|403:213,1,202.500000772476
319,249,76324,2,0,P|221:191|244:103,1,202.500000772476
282,60,76589,1,0,0:0:0:0:
324,116,76677,1,0,0:0:0:0:
288,176,76765,1,0,0:0:0:0:
215,195,76853,1,0,0:0:0:0:
150,222,76941,1,0,0:0:0:0:
152,293,77029,1,0,0:0:0:0:
218,316,77117,1,0,0:0:0:0:
272,263,77206,1,0,0:0:0:0:
237,196,77294,1,0,0:0:0:0:
202,130,77383,6,0,P|121:76|40:149,1,202.500000772476
64,331,77736,2,0,P|126:208|120:136,1,202.500000772476
63,101,78000,1,0,0:0:0:0:
112,48,78089,1,0,0:0:0:0:
183,71,78177,1,0,0:0:0:0:
250,104,78265,1,0,0:0:0:0:
302,157,78353,1,0,0:0:0:0:
260,204,78441,1,0,0:0:0:0:
207,166,78530,1,0,0:0:0:0:
250,104,78618,1,0,0:0:0:0:
319,75,78706,1,0,0:0:0:0:
390,50,78795,6,0,P|425:117|403:195,2,101.250000386238
88,141,79147,2,0,P|91:215|149:272,2,101.250000386238
425,333,79500,6,0,L|416:190,1,112.5
414,164,79853,6,0,L|428:386,1,168.750006437302
426,366,80206,6,0,L|411:143,1,202.500000772476
237,255,80559,2,0,P|169:184|189:89,1,202.500000772476
363,84,80912,1,0,0:0:0:0:
345,156,81000,1,0,0:0:0:0:
301,216,81088,1,0,0:0:0:0:
237,255,81176,1,0,0:0:0:0:
162,260,81264,1,0,0:0:0:0:
143,189,81353,1,0,0:0:0:0:
201,143,81441,1,0,0:0:0:0:
274,131,81529,1,0,0:0:0:0:
345,156,81618,6,0,P|386:239|305:314,1,202.500000772476
143,189,81971,2,0,P|102:106|183:31,1,202.500000772476
301,46,82236,1,0,0:0:0:0:
364,81,82324,1,0,0:0:0:0:
399,146,82412,1,0,0:0:0:0:
377,215,82500,1,0,0:0:0:0:
312,249,82588,1,0,0:0:0:0:
245,211,82677,1,0,0:0:0:0:
223,142,82765,1,0,0:0:0:0:
158,107,82853,1,0,0:0:0:0:
88,126,82941,1,0,0:0:0:0:
58,195,83030,6,0,B|60:209|60:209|76:225|102:235|102:235|113:257|113:257|136:284|136:284|144:305|144:305|168:319|168:319|183:311|183:311|198:325|198:325|210:321,1,202.500000772476
392,288,83383,1,0,0:0:0:0:
247,147,83559,1,0,0:0:0:0:
425,207,83736,1,0,0:0:0:0:
473,261,83824,1,0,0:0:0:0:
462,333,83912,1,0,0:0:0:0:
401,372,84000,1,0,0:0:0:0:
331,350,84088,1,0,0:0:0:0:
311,277,84177,1,0,0:0:0:0:
338,208,84265,1,0,0:0:0:0:
329,134,84353,1,0,0:0:0:0:
284,73,84441,5,0,0:0:0:0:
276,72,84530,1,0,0:0:0:0:
268,71,84618,1,0,0:0:0:0:
260,70,84706,1,0,0:0:0:0:
252,72,84795,2,0,P|189:85|148:127,3,75
131,112,85059,1,0,0:0:0:0:
118,181,85147,1,0,0:0:0:0:
158,239,85235,1,0,0:0:0:0:
224,264,85323,1,0,0:0:0:0:
293,277,85411,1,0,0:0:0:0:
363,288,85500,6,0,L|430:199,1,101.250000386238
185,58,85677,2,0,L|118:147,1,101.250000386238
356,284,85853,6,0,P|381:188|281:91,1,202.500000772476
255,103,86118,1,0,0:0:0:0:
183,124,86206,2,0,P|158:220|258:317,1,202.500000772476
290,325,86471,1,0,0:0:0:0:
356,284,86559,6,0,P|381:188|281:91,1,202.500000772476
233,66,86824,1,0,0:0:0:0:
151,125,86912,2,0,P|126:221|226:318,1,202.500000772476
296,340,87177,1,0,0:0:0:0:
391,265,87265,6,0,P|416:169|316:72,1,202.500000772476
220,63,87530,1,0,0:0:0:0:
104,145,87618,2,0,P|79:241|179:338,1,202.500000772476
274,344,87883,1,0,0:0:0:0:
395,272,87971,2,0,P|420:176|320:79,1,202.500000772476
222,86,88236,1,0,0:0:0:0:
107,169,88324,2,0,P|104:268|223:340,1,202.500000772476
348,329,88677,5,0,0:0:0:0:
422,339,88765,1,0,0:0:0:0:
465,278,88853,1,0,0:0:0:0:
430,212,88941,1,0,0:0:0:0:
355,213,89029,1,0,0:0:0:0:
295,264,89118,1,0,0:0:0:0:
221,244,89206,1,0,0:0:0:0:
189,174,89294,1,0,0:0:0:0:
222,106,89382,1,0,0:0:0:0:
299,86,89471,1,0,0:0:0:0:
371,109,89559,1,0,0:0:0:0:
406,178,89647,1,0,0:0:0:0:
381,250,89735,1,0,0:0:0:0:
439,305,89824,1,0,0:0:0:0:
363,325,89912,1,0,0:0:0:0:
289,352,90000,1,0,0:0:0:0:
221,311,90089,6,0,L|103:277,1,78.7499975967408
234,293,90265,2,0,L|116:259,1,78.7499975967408
221,73,90442,6,0,L|103:107,1,78.7499975967408
234,91,90618,2,0,L|116:125,1,78.7499975967408
46,192,90795,2,0,L|216:192,1,157.499995193482
466,192,91147,2,0,L|296:192,1,157.499995193482
256,66,91500,6,0,L|256:277,1,165.000005035401
125,240,91853,2,0,B|221:138|307:332|413:203,1,275.000008392334
380,234,92206,1,0,0:0:0:0:
146,125,92324,1,0,0:0:0:0:
271,351,92442,1,0,0:0:0:0:
303,95,92559,1,0,0:0:0:0:
127,283,92677,1,0,0:0:0:0:
380,234,92795,1,0,0:0:0:0:
146,125,92912,2,0,B|132:258|132:258|253:228|265:97,1,330.000010070801
256,55,93500,5,0,0:0:0:0:
434,184,93618,1,0,0:0:0:0:
229,266,93736,1,0,0:0:0:0:
501,241,93853,1,0,0:0:0:0:
326,27,93971,2,0,L|332:201,1,110.000003356934
256,192,94324,12,0,94795,0:0:0:0:
85,123,94912,5,0,0:0:0:0:
300,74,95030,1,0,0:0:0:0:
118,196,95147,1,0,0:0:0:0:
387,254,95265,1,0,0:0:0:0:
184,67,95383,1,0,0:0:0:0:
219,338,95500,1,0,0:0:0:0:
392,123,95618,1,0,0:0:0:0:
256,192,95736,12,0,96265,0:0:0:0:
255,192,96324,5,0,0:0:0:0:
92,62,96442,1,0,0:0:0:0:
161,255,96559,1,0,0:0:0:0:
296,100,96677,1,0,0:0:0:0:
260,302,96795,2,0,P|346:265|354:111,1,220.000006713867
155,145,97147,5,0,0:0:0:0:
93,104,102795,6,0,P|110:216|251:280,2,202.500000772476
285,39,103324,1,0,0:0:0:0:
407,199,103500,5,0,0:0:0:0:
432,244,103588,1,0,0:0:0:0:
427,294,103676,1,0,0:0:0:0:
385,325,103764,1,0,0:0:0:0:
334,330,103852,1,0,0:0:0:0:
285,312,103941,1,0,0:0:0:0:
259,268,104029,1,0,0:0:0:0:
270,217,104117,1,0,0:0:0:0:
282,167,104206,6,0,P|292:107|155:53,1,202.500000772476
55,194,104559,1,0,0:0:0:0:
189,325,104736,1,0,0:0:0:0:
264,339,104824,1,0,0:0:0:0:
330,299,104912,1,0,0:0:0:0:
352,225,105000,1,0,0:0:0:0:
319,155,105088,1,0,0:0:0:0:
250,114,105177,1,0,0:0:0:0:
233,187,105265,1,0,0:0:0:0:
263,259,105353,1,0,0:0:0:0:
330,299,105441,1,0,0:0:0:0:
407,294,105529,1,0,0:0:0:0:
468,246,105618,6,0,P|467:152|362:64,1,202.500000772476
