osu file format v14

[General]
AudioFilename: audio.mp3
AudioLeadIn: 0
PreviewTime: 66906
Countdown: 0
SampleSet: Soft
StackLeniency: 0.7
Mode: 3
LetterboxInBreaks: 0
SpecialStyle: 0
WidescreenStoryboard: 0

[Editor]
DistanceSpacing: 1.2
BeatDivisor: 4
GridSize: 8
TimelineZoom: 2.6

[Metadata]
Title:BUBBLE RAVER
TitleUnicode:BUBBLE RAVER
Artist:P*Light
ArtistUnicode:P*Light
Creator:SpectorDG
Version:ADVANCED
Source:SOUND VOLTEX II -infinite infection-
Tags:Arcade Championship 2013 KAC Amusement 夏だ!休みだ!自由研究オリジナル楽曲コンテストIt's Summer! It's Holiday! Independent Research Original Song Contest III GRAVITY WARS KONAMI BEMANI SDVX2 SDVX3 FLOOR Happy Hardcore supekuta Tofu1222 Shima Rin ExNeko FAMoss Video Game Instrumental Electronic
BeatmapID:1673730
BeatmapSetID:796928

[Difficulty]
HPDrainRate:8
CircleSize:4
OverallDifficulty:7
ApproachRate:5
SliderMultiplier:1.4
SliderTickRate:1

[Events]
//Background and Video events
0,0,"bg.jpg",0,0
//Break Periods
//Storyboard Layer 0 (Background)
//Storyboard Layer 1 (Fail)
//Storyboard Layer 2 (Pass)
//Storyboard Layer 3 (Foreground)
//Storyboard Layer 4 (Overlay)
//Storyboard Sound Samples

[TimingPoints]
786,344.827586206897,4,2,1,70,1,0
11820,-100.0,4,2,1,70,0,1
33889,-100.0,4,2,1,70,0,0
83544,-100.0,4,2,1,70,0,1
105613,-100.0,4,2,1,70,0,0

[HitObjects]
64,192,786,1,2,0:0:0:0:
448,192,786,128,4,2165:0:0:0:0:
320,192,958,1,0,0:0:0:0:
192,192,1130,1,0,0:0:0:80:LR_Drum Rim Fast.wav
64,192,1303,1,0,0:0:0:0:
192,192,1389,1,0,0:0:0:100:LR_Drum EDge.wav
320,192,1475,1,0,0:0:0:50:LR_Drum Kick Low.wav
64,192,1561,1,0,0:0:0:50:LR_Drum Kick Low.wav
192,192,1648,1,0,0:0:0:100:LR_Drum EDge.wav
320,192,1820,1,0,0:0:0:0:
192,192,1906,1,0,0:0:0:100:LR_Drum EDge.wav
64,192,1992,1,0,0:0:0:0:
192,192,2079,1,0,0:0:0:80:LR_Drum Rim Fast.wav
320,192,2165,128,0,2854:0:0:0:50:LR_Drum Kick Low.wav
64,192,2337,1,0,0:0:0:0:
192,192,2510,1,0,0:0:0:80:LR_Drum Rim Fast.wav
64,192,2682,1,0,0:0:0:0:
448,192,2768,1,0,0:0:0:100:LR_Drum EDge.wav
192,192,2854,128,0,3544:0:0:0:50:LR_Drum Kick Low.wav
448,192,3027,1,0,0:0:0:50:LR_Drum Kick Low.wav
64,192,3199,1,0,0:0:0:100:LR_Drum EDge.wav
320,192,3286,1,0,0:0:0:100:LR_Drum EDge.wav
448,192,3372,1,0,0:0:0:100:LR_Drum EDge.wav
320,192,3458,1,0,0:0:0:100:LR_Drum EDge.wav
64,192,3544,128,0,4923:0:0:0:50:LR_Drum Kick Low.wav
448,192,3717,1,0,0:0:0:0:
320,192,3889,1,0,0:0:0:80:LR_Drum Rim Fast.wav
192,192,4061,1,0,0:0:0:0:
448,192,4148,1,0,0:0:0:100:LR_Drum EDge.wav
320,192,4234,1,0,0:0:0:50:LR_Drum Kick Low.wav
192,192,4320,1,0,0:0:0:50:LR_Drum Kick Low.wav
320,192,4406,1,0,0:0:0:100:LR_Drum EDge.wav
448,192,4579,1,0,0:0:0:0:
320,192,4665,1,0,0:0:0:100:LR_Drum EDge.wav
192,192,4751,1,0,0:0:0:0:
448,192,4837,1,0,0:0:0:100:LR_Drum EDge.wav
192,192,4923,128,0,5613:0:0:0:80:LR_Drum Rim Fast.wav
448,192,5096,1,0,0:0:0:0:
64,192,5182,1,0,0:0:0:0:
320,192,5268,1,0,0:0:0:50:LR_Drum Kick Low.wav
448,192,5354,1,0,0:0:0:50:LR_Drum Kick Low.wav
64,192,5441,1,0,0:0:0:80:LR_Drum Rim Fast.wav
320,192,5613,128,0,6303:0:0:0:0:
64,192,5699,1,0,0:0:0:100:LR_Drum EDge.wav
448,192,5786,1,0,0:0:0:50:LR_Drum Kick Low.wav
192,192,5872,1,0,0:0:0:50:LR_Drum Kick Low.wav
64,192,5958,1,0,0:0:0:0:
192,192,6044,1,0,0:0:0:80:LR_Drum Rim Fast.wav
448,192,6130,128,0,6303:0:0:0:80:LR_Drum Rim Fast.wav
64,192,6303,1,4,0:0:0:0:
192,192,6303,1,2,0:0:0:0:
320,192,6475,1,0,0:0:0:100:LR_Drum EDge.wav
64,192,6648,1,0,0:0:0:80:LR_Drum Rim Fast.wav
192,192,6648,1,0,0:0:0:0:
320,192,6820,1,0,0:0:0:100:LR_Drum EDge.wav
192,192,6992,1,0,0:0:0:50:LR_Drum Kick Low.wav
448,192,6992,1,0,0:0:0:0:
320,192,7079,1,0,0:0:0:50:LR_Drum Kick Low.wav
64,192,7165,1,0,0:0:0:80:LR_Drum Rim Fast.wav
448,192,7165,1,0,0:0:0:0:
192,192,7337,1,0,0:0:0:50:LR_Drum Kick Low.wav
320,192,7510,128,0,7682:0:0:0:0:
64,192,7682,1,2,0:0:0:0:
192,192,7682,1,4,0:0:0:0:
448,192,7854,1,0,0:0:0:100:LR_Drum EDge.wav
320,192,7941,1,0,0:0:0:100:LR_Drum EDge.wav
64,192,8027,1,0,0:0:0:80:LR_Drum Rim Fast.wav
192,192,8027,1,0,0:0:0:0:
448,192,8113,1,0,0:0:0:100:LR_Drum EDge.wav
192,192,8199,1,0,0:0:0:100:LR_Drum EDge.wav
64,192,8372,1,0,0:0:0:50:LR_Drum Kick Low.wav
320,192,8372,1,0,0:0:0:0:
448,192,8458,1,0,0:0:0:50:LR_Drum Kick Low.wav
192,192,8544,1,0,0:0:0:80:LR_Drum Rim Fast.wav
320,192,8630,1,0,0:0:0:100:LR_Drum EDge.wav
64,192,8717,1,0,0:0:0:100:LR_Drum EDge.wav
448,192,8717,1,0,0:0:0:0:
192,192,8803,1,0,0:0:0:100:LR_Drum EDge.wav
320,192,8889,1,0,0:0:0:0:
192,192,8975,1,0,0:0:0:0:
64,192,9061,128,4,9234:0:0:0:0:
448,192,9061,1,2,0:0:0:0:
192,192,9234,128,0,9406:0:0:0:0:
320,192,9406,128,0,9579:0:0:0:0:
448,192,9579,128,0,9751:0:0:0:0:
64,192,9751,128,0,10096:0:0:0:0:
448,192,10096,128,0,10441:0:0:0:0:
64,192,10441,1,0,0:0:0:50:LR_Drum Kick Low.wav
192,192,10441,1,0,0:0:0:0:
320,192,10613,1,0,0:0:0:50:LR_Drum Kick Low.wav
64,192,10786,1,0,0:0:0:100:LR_Drum Rim Fast.wav
448,192,10786,1,0,0:0:0:0:
192,192,10958,1,0,0:0:0:50:LR_Drum Kick Low.wav
448,192,11130,1,0,0:0:0:100:LR_Drum Rim Fast.wav
64,192,11217,1,0,0:0:0:100:LR_Drum Rim Fast.wav
448,192,11303,1,0,0:0:0:100:LR_Drum Rim Fast.wav
320,192,11389,1,0,0:0:0:100:LR_Drum Rim Fast.wav
64,192,11475,128,0,11820:0:0:0:70:h05.wav
192,192,11475,1,0,0:0:0:0:
320,192,11820,1,4,0:0:0:0:
448,192,11820,1,2,0:0:0:0:
320,192,11992,1,0,0:0:0:0:
64,192,12165,1,8,0:0:0:0:
192,192,12251,1,0,0:0:0:0:
448,192,12337,1,0,0:0:0:0:
320,192,12423,1,0,0:0:0:0:
64,192,12510,128,2,12768:0:0:0:0:
192,192,12510,1,0,0:0:0:0:
192,192,12768,128,0,13027:0:0:0:0:
448,192,12854,1,8,0:0:0:0:
320,192,13027,128,0,13199:0:0:0:0:
64,192,13199,1,2,0:0:0:0:
192,192,13199,1,0,0:0:0:0:
64,192,13372,1,0,0:0:0:0:
448,192,13544,1,8,0:0:0:0:
320,192,13630,1,0,0:0:0:0:
64,192,13717,1,0,0:0:0:0:
192,192,13803,1,0,0:0:0:0:
320,192,13889,1,2,0:0:0:0:
448,192,13889,128,0,14148:0:0:0:0:
320,192,14148,128,0,14406:0:0:0:0:
64,192,14234,1,8,0:0:0:0:
64,192,14406,128,2,14579:0:0:0:0:
192,192,14406,1,0,0:0:0:0:
320,192,14579,1,2,0:0:0:0:
448,192,14579,1,0,0:0:0:0:
320,192,14751,1,0,0:0:0:0:
64,192,14923,1,8,0:0:0:0:
192,192,14923,1,0,0:0:0:0:
192,192,15096,1,0,0:0:0:0:
320,192,15268,1,2,0:0:0:0:
448,192,15268,1,0,0:0:0:0:
320,192,15527,1,0,0:0:0:0:
64,192,15613,1,8,0:0:0:0:
192,192,15613,1,0,0:0:0:0:
448,192,15786,1,0,0:0:0:0:
320,192,15872,1,0,0:0:0:0:
64,192,15958,1,2,0:0:0:0:
192,192,15958,1,0,0:0:0:0:
64,192,16130,1,0,0:0:0:0:
320,192,16303,1,8,0:0:0:0:
448,192,16303,1,0,0:0:0:0:
448,192,16475,1,0,0:0:0:0:
64,192,16648,1,2,0:0:0:0:
192,192,16648,1,0,0:0:0:0:
320,192,16906,1,2,0:0:0:0:
448,192,16906,1,0,0:0:0:0:
192,192,16992,1,0,0:0:0:0:
64,192,17165,1,2,0:0:0:0:
448,192,17165,1,0,0:0:0:0:
192,192,17337,1,4,0:0:0:0:
320,192,17337,1,2,0:0:0:0:
192,192,17510,1,0,0:0:0:0:
448,192,17682,1,8,0:0:0:0:
192,192,17768,1,0,0:0:0:0:
320,192,17854,1,0,0:0:0:0:
64,192,17941,1,0,0:0:0:0:
192,192,18027,1,2,0:0:0:0:
448,192,18027,128,0,18286:0:0:0:0:
320,192,18286,128,0,18544:0:0:0:0:
64,192,18372,1,8,0:0:0:0:
192,192,18544,128,0,18717:0:0:0:0:
320,192,18717,1,2,0:0:0:0:
448,192,18717,1,0,0:0:0:0:
448,192,18889,1,0,0:0:0:0:
64,192,19061,1,8,0:0:0:0:
320,192,19148,1,0,0:0:0:0:
192,192,19234,1,0,0:0:0:0:
448,192,19320,1,0,0:0:0:0:
64,192,19406,128,2,19665:0:0:0:0:
320,192,19406,1,0,0:0:0:0:
192,192,19665,128,0,19923:0:0:0:0:
448,192,19751,1,8,0:0:0:0:
320,192,19923,1,2,0:0:0:0:
448,192,19923,128,0,20096:0:0:0:0:
64,192,20096,1,2,0:0:0:0:
192,192,20096,1,4,0:0:0:0:
320,192,20268,1,0,0:0:0:70:LR_Snare Fast.wav
192,192,20354,1,0,0:0:0:70:LR_Snare Fast.wav
64,192,20441,1,8,0:0:0:0:
448,192,20441,1,0,0:0:0:0:
192,192,20613,1,0,0:0:0:70:LR_Snare Fast.wav
320,192,20699,1,0,0:0:0:70:LR_Snare Fast.wav
64,192,20786,1,6,0:0:0:0:
192,192,20872,1,0,0:0:0:70:LR_Snare Fast.wav
448,192,20958,1,0,0:0:0:70:LR_Snare Fast.wav
320,192,21044,1,0,0:0:0:70:LR_Snare Fast.wav
64,192,21130,1,8,0:0:0:0:
192,192,21217,1,0,0:0:0:70:LR_Snare Fast.wav
448,192,21303,1,0,0:0:0:70:LR_Snare Fast.wav
320,192,21389,1,0,0:0:0:70:LR_Snare Fast.wav
64,192,21475,1,2,0:0:0:0:
192,192,21475,1,4,0:0:0:0:
448,192,21561,1,0,0:0:0:0:
64,192,21734,1,4,0:0:0:0:
192,192,21734,1,2,0:0:0:0:
320,192,21820,1,0,0:0:0:0:
64,192,21992,1,4,0:0:0:0:
192,192,21992,1,2,0:0:0:0:
448,192,22079,1,0,0:0:0:0:
192,192,22251,1,0,0:0:0:0:
320,192,22337,1,0,0:0:0:0:
192,192,22423,1,0,0:0:0:0:
320,192,22510,1,0,0:0:0:70:h05.wav
448,192,22510,128,0,22854:0:0:0:0:
64,192,22854,128,4,24234:0:0:0:0:
192,192,22854,1,2,0:0:0:0:
320,192,23027,1,0,0:0:0:0:
448,192,23199,1,8,0:0:0:0:
192,192,23286,1,0,0:0:0:0:
320,192,23372,1,0,0:0:0:0:
448,192,23458,1,0,0:0:0:0:
192,192,23544,1,2,0:0:0:0:
320,192,23803,1,0,0:0:0:0:
448,192,23889,1,8,0:0:0:0:
192,192,24061,1,0,0:0:0:0:
320,192,24234,1,2,0:0:0:0:
448,192,24234,128,0,24923:0:0:0:0:
192,192,24320,1,0,0:0:0:0:
64,192,24406,1,0,0:0:0:0:
320,192,24492,1,0,0:0:0:0:
64,192,24579,1,8,0:0:0:0:
192,192,24665,1,0,0:0:0:0:
320,192,24751,1,0,0:0:0:0:
64,192,24837,1,0,0:0:0:0:
320,192,24923,1,2,0:0:0:0:
192,192,25010,1,0,0:0:0:0:
448,192,25096,1,0,0:0:0:0:
320,192,25182,1,0,0:0:0:0:
64,192,25268,1,8,0:0:0:0:
192,192,25268,1,0,0:0:0:0:
64,192,25441,1,2,0:0:0:0:
192,192,25441,1,0,0:0:0:0:
448,192,25527,1,0,0:0:0:0:
64,192,25613,1,2,0:0:0:0:
320,192,25613,1,0,0:0:0:0:
320,192,25786,1,0,0:0:0:0:
64,192,25958,1,8,0:0:0:0:
192,192,25958,1,0,0:0:0:0:
192,192,26130,1,0,0:0:0:0:
64,192,26303,1,2,0:0:0:0:
448,192,26303,1,0,0:0:0:0:
64,192,26561,1,0,0:0:0:0:
320,192,26648,1,8,0:0:0:0:
448,192,26648,1,0,0:0:0:0:
192,192,26820,1,0,0:0:0:0:
64,192,26992,1,2,0:0:0:0:
448,192,26992,1,0,0:0:0:0:
448,192,27165,1,0,0:0:0:0:
64,192,27337,1,8,0:0:0:0:
320,192,27337,1,0,0:0:0:0:
320,192,27510,1,0,0:0:0:0:
64,192,27682,1,2,0:0:0:0:
192,192,27682,1,0,0:0:0:0:
64,192,27941,1,2,0:0:0:0:
192,192,27941,1,0,0:0:0:0:
320,192,28199,1,2,0:0:0:0:
448,192,28199,1,0,0:0:0:0:
64,192,28372,1,4,0:0:0:0:
192,192,28372,1,2,0:0:0:0:
320,192,28544,1,0,0:0:0:0:
192,192,28630,1,0,0:0:0:70:LR_Snare Fast.wav
64,192,28717,1,8,0:0:0:0:
448,192,28717,1,0,0:0:0:0:
192,192,28889,1,0,0:0:0:70:LR_Snare Fast.wav
320,192,28975,1,0,0:0:0:0:
64,192,29061,1,2,0:0:0:0:
448,192,29061,1,0,0:0:0:0:
192,192,29148,1,0,0:0:0:70:LR_Snare Fast.wav
448,192,29320,1,0,0:0:0:0:
64,192,29406,1,8,0:0:0:0:
320,192,29406,1,0,0:0:0:0:
448,192,29579,1,0,0:0:0:70:LR_Snare Fast.wav
64,192,29665,1,0,0:0:0:70:LR_Snare Fast.wav
192,192,29751,1,2,0:0:0:0:
320,192,29751,1,0,0:0:0:0:
448,192,29837,1,0,0:0:0:0:
64,192,29923,1,0,0:0:0:0:
192,192,30010,1,0,0:0:0:70:LR_Snare Fast.wav
320,192,30096,1,8,0:0:0:0:
448,192,30182,1,0,0:0:0:0:
192,192,30268,1,0,0:0:0:70:LR_Snare Fast.wav
64,192,30354,1,0,0:0:0:0:
448,192,30441,1,2,0:0:0:0:
320,192,30527,1,0,0:0:0:70:LR_Snare Fast.wav
192,192,30613,1,0,0:0:0:0:
64,192,30699,1,0,0:0:0:0:
192,192,30786,1,8,0:0:0:0:
320,192,30872,1,0,0:0:0:70:LR_Snare Fast.wav
448,192,30958,1,2,0:0:0:0:
320,192,31044,1,0,0:0:0:70:LR_Snare Fast.wav
64,192,31130,1,4,0:0:0:0:
192,192,31130,1,2,0:0:0:0:
320,192,31303,1,0,0:0:0:70:LR_Snare Fast.wav
192,192,31389,1,0,0:0:0:70:LR_Snare Fast.wav
64,192,31475,1,8,0:0:0:0:
448,192,31475,1,0,0:0:0:0:
320,192,31648,1,0,0:0:0:70:LR_Snare Fast.wav
64,192,31734,1,0,0:0:0:70:LR_Snare Fast.wav
192,192,31820,1,6,0:0:0:0:
448,192,31906,1,0,0:0:0:70:LR_Snare Fast.wav
320,192,31992,1,0,0:0:0:70:LR_Snare Fast.wav
64,192,32079,1,0,0:0:0:70:LR_Snare Fast.wav
192,192,32165,1,8,0:0:0:0:
320,192,32251,1,0,0:0:0:70:LR_Snare Fast.wav
64,192,32337,1,0,0:0:0:70:LR_Snare Fast.wav
192,192,32423,1,0,0:0:0:70:LR_Snare Fast.wav
320,192,32510,1,4,0:0:0:0:
448,192,32510,1,2,0:0:0:0:
64,192,32596,1,0,0:0:0:0:
320,192,32768,1,2,0:0:0:0:
448,192,32768,1,4,0:0:0:0:
192,192,32854,1,0,0:0:0:0:
320,192,33027,1,2,0:0:0:0:
448,192,33027,1,4,0:0:0:0:
64,192,33113,1,0,0:0:0:0:
320,192,33199,1,0,0:0:0:0:
192,192,33286,1,0,0:0:0:0:
320,192,33372,1,0,0:0:0:0:
192,192,33458,1,0,0:0:0:0:
64,192,33544,128,0,33889:0:0:0:70:h05.wav
448,192,33544,1,0,0:0:0:0:
320,192,33889,1,2,0:0:0:0:
448,192,33889,1,4,0:0:0:0:
192,192,34061,1,0,0:0:0:0:
448,192,34320,1,0,0:0:0:0:
320,192,34579,1,0,0:0:0:0:
64,192,34837,1,0,0:0:0:0:
320,192,35096,1,0,0:0:0:0:
192,192,35268,1,0,0:0:0:0:
448,192,35527,1,0,0:0:0:0:
320,192,35786,1,0,0:0:0:0:
192,192,36044,1,0,0:0:0:0:
64,192,36303,1,0,0:0:0:0:
320,192,36648,1,0,0:0:0:0:
64,192,36820,1,0,0:0:0:0:
448,192,37079,1,0,0:0:0:0:
192,192,37337,1,0,0:0:0:0:
448,192,37596,1,0,0:0:0:0:
320,192,37854,1,0,0:0:0:0:
64,192,38027,1,0,0:0:0:0:
192,192,38286,1,0,0:0:0:0:
320,192,38544,1,0,0:0:0:0:
448,192,38803,1,0,0:0:0:0:
64,192,39061,1,0,0:0:0:70:LR_Snare Fast.wav
192,192,39148,1,0,0:0:0:70:LR_Snare Fast.wav
448,192,39234,1,0,0:0:0:70:LR_Snare Fast.wav
320,192,39320,1,0,0:0:0:0:
64,192,39406,1,2,0:0:0:0:
192,192,39406,1,4,0:0:0:0:
192,192,39665,1,2,0:0:0:0:
320,192,39665,1,0,0:0:0:0:
64,192,39923,1,2,0:0:0:0:
192,192,39923,1,0,0:0:0:0:
320,192,40096,1,2,0:0:0:0:
448,192,40096,1,0,0:0:0:0:
192,192,40354,1,2,0:0:0:0:
320,192,40354,1,0,0:0:0:0:
64,192,40613,1,2,0:0:0:0:
192,192,40613,1,0,0:0:0:0:
64,192,40786,1,2,0:0:0:0:
448,192,40786,1,4,0:0:0:0:
320,192,41044,1,2,0:0:0:0:
448,192,41044,1,0,0:0:0:0:
64,192,41303,1,2,0:0:0:0:
192,192,41303,1,0,0:0:0:0:
320,192,41475,1,2,0:0:0:0:
448,192,41475,1,0,0:0:0:0:
64,192,41561,1,2,0:0:0:0:
192,192,41561,1,0,0:0:0:0:
192,192,41734,1,2,0:0:0:0:
320,192,41734,1,0,0:0:0:0:
320,192,41992,1,2,0:0:0:0:
448,192,41992,1,0,0:0:0:0:
64,192,42165,1,4,0:0:0:0:
192,192,42165,1,2,0:0:0:0:
320,192,42337,1,2,0:0:0:0:
448,192,42337,1,0,0:0:0:0:
64,192,42510,1,2,0:0:0:0:
192,192,42510,1,0,0:0:0:0:
320,192,42682,1,2,0:0:0:0:
448,192,42682,1,0,0:0:0:0:
192,192,42854,1,2,0:0:0:0:
320,192,42941,1,2,0:0:0:0:
64,192,43027,1,2,0:0:0:0:
320,192,43113,1,2,0:0:0:0:
192,192,43199,1,2,0:0:0:0:
448,192,43286,1,2,0:0:0:0:
192,192,43372,1,2,0:0:0:0:
320,192,43458,1,2,0:0:0:0:
64,192,43544,1,0,0:0:0:50:LR_Drum Kick Low.wav
192,192,43544,1,0,0:0:0:0:
320,192,43717,1,0,0:0:0:50:LR_Drum Kick Low.wav
192,192,43889,1,0,0:0:0:80:LR_Drum Rim Fast.wav
448,192,43889,1,0,0:0:0:0:
64,192,44061,1,0,0:0:0:50:LR_Drum Kick Low.wav
320,192,44234,1,0,0:0:0:80:LR_Drum Rim Fast.wav
192,192,44320,1,0,0:0:0:80:LR_Drum Rim Fast.wav
320,192,44406,1,0,0:0:0:80:LR_Drum Rim Fast.wav
64,192,44492,1,0,0:0:0:80:LR_Drum Rim Fast.wav
192,192,44579,1,0,0:0:0:70:h05.wav
448,192,44579,128,0,44923:0:0:0:0:
64,192,44923,1,4,0:0:0:0:
192,192,44923,1,2,0:0:0:0:
320,192,45096,1,0,0:0:0:0:
64,192,45268,1,8,0:0:0:0:
448,192,45268,1,0,0:0:0:0:
192,192,45441,1,0,0:0:0:0:
320,192,45613,1,2,0:0:0:0:
64,192,45699,1,0,0:0:0:0:
192,192,45786,1,0,0:0:0:0:
320,192,45872,1,0,0:0:0:0:
64,192,45958,1,8,0:0:0:0:
448,192,45958,1,0,0:0:0:0:
192,192,46130,1,0,0:0:0:0:
448,192,46303,1,2,0:0:0:0:
320,192,46389,1,0,0:0:0:0:
192,192,46475,1,0,0:0:0:0:
64,192,46561,1,0,0:0:0:0:
320,192,46648,1,8,0:0:0:0:
448,192,46648,1,0,0:0:0:0:
64,192,46820,1,0,0:0:0:0:
192,192,46992,1,2,0:0:0:0:
320,192,47079,1,0,0:0:0:0:
192,192,47165,1,0,0:0:0:0:
320,192,47251,1,0,0:0:0:0:
64,192,47337,128,8,47682:0:0:0:0:
192,192,47337,1,0,0:0:0:0:
320,192,47682,1,2,0:0:0:0:
448,192,47682,1,0,0:0:0:0:
64,192,47854,1,0,0:0:0:0:
320,192,48027,1,8,0:0:0:0:
448,192,48027,1,0,0:0:0:0:
192,192,48199,1,0,0:0:0:0:
320,192,48372,1,2,0:0:0:0:
448,192,48372,1,0,0:0:0:0:
64,192,48544,1,0,0:0:0:0:
448,192,48630,1,0,0:0:0:0:
192,192,48717,1,8,0:0:0:0:
320,192,48717,1,0,0:0:0:0:
448,192,48889,1,0,0:0:0:0:
64,192,49061,1,2,0:0:0:0:
192,192,49148,1,0,0:0:0:0:
320,192,49234,1,0,0:0:0:0:
448,192,49320,1,0,0:0:0:0:
64,192,49406,1,8,0:0:0:0:
192,192,49406,1,0,0:0:0:0:
320,192,49579,1,0,0:0:0:0:
448,192,49751,1,2,0:0:0:0:
320,192,49837,1,0,0:0:0:0:
192,192,49923,1,0,0:0:0:0:
64,192,50010,1,0,0:0:0:0:
320,192,50096,1,8,0:0:0:0:
448,192,50096,1,0,0:0:0:0:
64,192,50268,1,2,0:0:0:0:
192,192,50268,1,0,0:0:0:0:
320,192,50441,1,4,0:0:0:0:
448,192,50441,1,2,0:0:0:0:
64,192,50527,1,0,0:0:0:0:
448,192,50613,1,0,0:0:0:0:
192,192,50699,1,0,0:0:0:0:
320,192,50786,1,8,0:0:0:0:
64,192,50872,1,0,0:0:0:0:
320,192,50958,1,0,0:0:0:0:
64,192,51130,1,2,0:0:0:0:
448,192,51130,1,0,0:0:0:0:
320,192,51217,1,0,0:0:0:0:
64,192,51303,1,0,0:0:0:0:
448,192,51389,1,0,0:0:0:0:
192,192,51475,1,8,0:0:0:0:
320,192,51561,1,0,0:0:0:0:
64,192,51648,1,0,0:0:0:0:
192,192,51820,1,2,0:0:0:0:
448,192,51820,1,0,0:0:0:0:
320,192,51906,1,0,0:0:0:0:
64,192,51992,1,0,0:0:0:0:
448,192,52079,1,0,0:0:0:0:
64,192,52165,1,8,0:0:0:0:
192,192,52251,1,0,0:0:0:0:
448,192,52337,1,0,0:0:0:0:
320,192,52510,1,2,0:0:0:0:
192,192,52596,1,0,0:0:0:0:
320,192,52682,1,0,0:0:0:0:
192,192,52768,1,0,0:0:0:0:
320,192,52854,1,8,0:0:0:0:
448,192,52854,128,0,53199:0:0:0:0:
64,192,53199,1,2,0:0:0:0:
192,192,53199,1,0,0:0:0:0:
320,192,53372,1,0,0:0:0:0:
64,192,53544,1,8,0:0:0:0:
192,192,53544,1,0,0:0:0:0:
448,192,53717,1,0,0:0:0:0:
64,192,53889,1,2,0:0:0:0:
192,192,53889,1,0,0:0:0:0:
320,192,54061,1,0,0:0:0:0:
64,192,54148,1,0,0:0:0:0:
192,192,54234,1,8,0:0:0:0:
448,192,54234,1,0,0:0:0:0:
64,192,54406,1,2,0:0:0:0:
192,192,54406,1,0,0:0:0:0:
320,192,54579,1,6,0:0:0:0:
192,192,54665,1,0,0:0:0:0:
448,192,54751,1,0,0:0:0:0:
320,192,54837,1,0,0:0:0:0:
64,192,54923,1,0,0:0:0:0:
192,192,55010,1,0,0:0:0:0:
448,192,55096,1,0,0:0:0:0:
320,192,55182,1,0,0:0:0:0:
64,192,55268,1,0,0:0:0:0:
192,192,55354,1,0,0:0:0:0:
320,192,55441,1,0,0:0:0:0:
448,192,55527,1,0,0:0:0:0:
64,192,55613,1,0,0:0:0:70:h05.wav
192,192,55699,1,0,0:0:0:0:
320,192,55786,1,0,0:0:0:0:
64,192,55958,1,4,0:0:0:0:
448,192,55958,1,2,0:0:0:0:
192,192,56130,1,0,0:0:0:0:
320,192,56303,1,8,0:0:0:0:
448,192,56303,1,0,0:0:0:0:
192,192,56475,1,0,0:0:0:0:
64,192,56648,1,2,0:0:0:0:
320,192,56734,1,0,0:0:0:0:
192,192,56820,1,0,0:0:0:0:
64,192,56906,1,0,0:0:0:0:
320,192,56992,1,8,0:0:0:0:
448,192,56992,1,0,0:0:0:0:
192,192,57165,1,0,0:0:0:0:
448,192,57337,1,2,0:0:0:0:
64,192,57423,1,0,0:0:0:0:
192,192,57510,1,0,0:0:0:0:
320,192,57596,1,0,0:0:0:0:
64,192,57682,1,8,0:0:0:0:
448,192,57682,1,0,0:0:0:0:
320,192,57854,1,0,0:0:0:0:
192,192,58027,1,2,0:0:0:0:
64,192,58113,1,0,0:0:0:0:
320,192,58199,1,0,0:0:0:0:
192,192,58286,1,0,0:0:0:0:
64,192,58372,1,8,0:0:0:0:
448,192,58372,1,0,0:0:0:0:
320,192,58544,1,0,0:0:0:0:
64,192,58717,1,2,0:0:0:0:
192,192,58717,1,0,0:0:0:0:
320,192,58889,1,0,0:0:0:0:
192,192,58975,1,0,0:0:0:0:
64,192,59061,1,8,0:0:0:0:
448,192,59061,1,0,0:0:0:0:
192,192,59234,1,0,0:0:0:0:
320,192,59406,1,2,0:0:0:0:
64,192,59492,1,0,0:0:0:0:
448,192,59579,1,0,0:0:0:0:
320,192,59665,1,0,0:0:0:0:
64,192,59751,1,8,0:0:0:0:
192,192,59751,1,0,0:0:0:0:
448,192,59923,1,0,0:0:0:0:
64,192,60096,1,2,0:0:0:0:
192,192,60182,1,0,0:0:0:0:
320,192,60268,1,0,0:0:0:0:
448,192,60354,1,0,0:0:0:0:
64,192,60441,1,8,0:0:0:0:
192,192,60441,1,0,0:0:0:0:
320,192,60613,1,0,0:0:0:0:
64,192,60786,1,2,0:0:0:0:
192,192,60872,1,0,0:0:0:0:
64,192,60958,1,0,0:0:0:0:
192,192,61044,1,0,0:0:0:0:
320,192,61130,1,8,0:0:0:0:
448,192,61130,1,0,0:0:0:0:
320,192,61303,1,2,0:0:0:0:
448,192,61303,1,0,0:0:0:0:
64,192,61475,1,4,0:0:0:0:
192,192,61475,1,2,0:0:0:0:
448,192,61648,1,0,0:0:0:0:
192,192,61734,1,0,0:0:0:70:LR_Snare Fast.wav
320,192,61734,1,0,0:0:0:0:
64,192,61992,1,0,0:0:0:70:LR_Snare Fast.wav
448,192,61992,1,0,0:0:0:0:
192,192,62165,1,0,0:0:0:0:
320,192,62251,1,0,0:0:0:70:LR_Snare Fast.wav
64,192,62337,1,0,0:0:0:0:
192,192,62423,1,0,0:0:0:0:
320,192,62510,128,2,62854:0:0:0:0:
448,192,62510,1,0,0:0:0:0:
64,192,62854,1,4,0:0:0:0:
192,192,62854,1,2,0:0:0:0:
448,192,63027,1,0,0:0:0:0:
64,192,63113,1,0,0:0:0:70:LR_Snare Fast.wav
320,192,63113,1,0,0:0:0:0:
64,192,63372,1,0,0:0:0:70:LR_Snare Fast.wav
192,192,63372,1,0,0:0:0:0:
320,192,63544,1,0,0:0:0:0:
192,192,63630,1,0,0:0:0:70:LR_Snare Fast.wav
448,192,63717,1,0,0:0:0:0:
320,192,63803,1,0,0:0:0:0:
64,192,63889,1,0,0:0:0:0:
192,192,63889,128,0,64234:0:0:0:0:
320,192,64234,1,4,0:0:0:0:
448,192,64234,1,2,0:0:0:0:
64,192,64406,1,0,0:0:0:70:LR_Snare Fast.wav
320,192,64492,1,0,0:0:0:70:LR_Snare Fast.wav
64,192,64579,1,2,0:0:0:0:
192,192,64579,1,0,0:0:0:0:
448,192,64751,1,0,0:0:0:70:LR_Snare Fast.wav
192,192,64837,1,0,0:0:0:70:LR_Snare Fast.wav
64,192,64923,1,2,0:0:0:0:
320,192,64923,1,0,0:0:0:0:
448,192,65010,1,0,0:0:0:70:LR_Snare Fast.wav
192,192,65096,1,0,0:0:0:70:LR_Snare Fast.wav
320,192,65182,1,0,0:0:0:70:LR_Snare Fast.wav
64,192,65268,1,2,0:0:0:0:
448,192,65268,1,0,0:0:0:0:
192,192,65354,1,0,0:0:0:70:LR_Snare Fast.wav
320,192,65441,1,0,0:0:0:70:LR_Snare Fast.wav
192,192,65527,1,0,0:0:0:70:LR_Snare Fast.wav
64,192,65613,1,2,0:0:0:0:
448,192,65613,1,4,0:0:0:0:
320,192,65786,1,0,0:0:0:0:
320,192,65958,1,0,0:0:0:0:
192,192,66130,1,0,0:0:0:0:
448,192,66303,1,0,0:0:0:0:
320,192,66475,1,0,0:0:0:0:
64,192,66648,1,0,0:0:0:70:h05.wav
192,192,66734,1,0,0:0:0:0:
320,192,66820,1,0,0:0:0:0:
448,192,66906,1,0,0:0:0:0:
64,192,66992,1,2,0:0:0:0:
192,192,66992,1,4,0:0:0:0:
64,192,67165,1,0,0:0:0:0:
320,192,67337,1,0,0:0:0:80:LR_Drum Rim Fast.wav
448,192,67337,1,0,0:0:0:0:
448,192,67510,1,0,0:0:0:0:
64,192,67682,1,0,0:0:0:50:LR_Drum Kick Low.wav
192,192,67682,1,0,0:0:0:0:
64,192,67941,1,0,0:0:0:0:
192,192,67941,1,0,0:0:0:0:
448,192,68199,1,0,0:0:0:0:
192,192,68372,1,0,0:0:0:50:LR_Drum Kick Low.wav
320,192,68372,1,0,0:0:0:0:
192,192,68544,1,0,0:0:0:0:
64,192,68717,1,0,0:0:0:80:LR_Drum Rim Fast.wav
448,192,68717,1,0,0:0:0:0:
64,192,68889,1,0,0:0:0:0:
320,192,69061,1,0,0:0:0:50:LR_Drum Kick Low.wav
448,192,69061,1,0,0:0:0:0:
320,192,69320,1,0,0:0:0:0:
448,192,69320,1,0,0:0:0:0:
64,192,69579,1,0,0:0:0:100:LR_Drum EDge.wav
192,192,69751,1,0,0:0:0:50:LR_Drum Kick Low.wav
320,192,69751,1,0,0:0:0:0:
320,192,69923,1,0,0:0:0:0:
64,192,70096,1,0,0:0:0:80:LR_Drum Rim Fast.wav
448,192,70096,1,0,0:0:0:0:
448,192,70268,1,0,0:0:0:0:
64,192,70441,1,0,0:0:0:50:LR_Drum Kick Low.wav
192,192,70441,1,0,0:0:0:0:
64,192,70699,1,0,0:0:0:0:
192,192,70699,1,0,0:0:0:0:
320,192,70958,1,0,0:0:0:0:
64,192,71130,1,0,0:0:0:80:LR_Drum Rim Fast.wav
448,192,71130,1,0,0:0:0:0:
448,192,71303,1,0,0:0:0:0:
64,192,71475,1,0,0:0:0:50:LR_Drum Kick Low.wav
320,192,71475,1,0,0:0:0:0:
64,192,71648,1,0,0:0:0:80:LR_Drum Rim Fast.wav
192,192,71820,1,0,0:0:0:0:
448,192,71820,1,0,0:0:0:0:
192,192,72079,1,0,0:0:0:50:LR_Drum Kick Low.wav
448,192,72079,1,0,0:0:0:0:
320,192,72337,1,0,0:0:0:80:LR_Drum Rim Fast.wav
64,192,72510,1,4,0:0:0:0:
192,192,72510,1,2,0:0:0:0:
192,192,72768,1,0,0:0:0:70:LR_Snare Fast.wav
320,192,72768,1,0,0:0:0:0:
64,192,73027,1,0,0:0:0:70:LR_Snare Fast.wav
448,192,73027,1,0,0:0:0:0:
192,192,73199,1,0,0:0:0:50:LR_Drum Kick Low.wav
320,192,73286,1,0,0:0:0:50:LR_Drum Kick Low.wav
448,192,73286,1,0,0:0:0:0:
64,192,73544,1,0,0:0:0:70:LR_Snare Fast.wav
192,192,73544,1,0,0:0:0:0:
448,192,73630,1,0,0:0:0:70:LR_Snare Fast.wav
320,192,73717,1,0,0:0:0:70:LR_Snare Fast.wav
192,192,73889,1,6,0:0:0:0:
320,192,73975,1,0,0:0:0:0:
64,192,74061,1,0,0:0:0:70:LR_Snare Fast.wav
320,192,74148,1,0,0:0:0:70:LR_Snare Fast.wav
192,192,74234,1,0,0:0:0:80:LR_Drum Rim Fast.wav
448,192,74320,1,0,0:0:0:70:LR_Snare Fast.wav
192,192,74406,1,0,0:0:0:70:LR_Snare Fast.wav
320,192,74492,1,0,0:0:0:70:LR_Snare Fast.wav
64,192,74579,1,0,0:0:0:70:LR_Snare Fast.wav
192,192,74665,1,0,0:0:0:70:LR_Snare Fast.wav
448,192,74751,1,0,0:0:0:80:LR_Drum Rim Fast.wav
320,192,74837,1,0,0:0:0:70:LR_Snare Fast.wav
64,192,74923,1,0,0:0:0:70:LR_Snare Fast.wav
192,192,75010,1,0,0:0:0:70:LR_Snare Fast.wav
448,192,75096,1,0,0:0:0:70:LR_Snare Fast.wav
320,192,75182,1,0,0:0:0:70:LR_Snare Fast.wav
64,192,75268,128,4,75441:0:0:0:0:
192,192,75268,1,2,0:0:0:0:
320,192,75441,128,0,75613:0:0:0:0:
192,192,75613,128,0,75786:0:0:0:0:
448,192,75786,128,0,75958:0:0:0:0:
64,192,75958,128,0,76303:0:0:0:0:
448,192,76303,128,0,76648:0:0:0:0:
64,192,76648,1,0,0:0:0:50:LR_Drum Kick Low.wav
192,192,76648,1,0,0:0:0:0:
320,192,76820,1,0,0:0:0:50:LR_Drum Kick Low.wav
64,192,76992,1,0,0:0:0:100:LR_Drum Rim Fast.wav
448,192,76992,1,0,0:0:0:0:
192,192,77165,1,0,0:0:0:50:LR_Drum Kick Low.wav
448,192,77337,1,0,0:0:0:100:LR_Drum Rim Fast.wav
320,192,77423,1,0,0:0:0:100:LR_Drum Rim Fast.wav
64,192,77510,1,0,0:0:0:100:LR_Drum Rim Fast.wav
192,192,77596,1,0,0:0:0:100:LR_Drum Rim Fast.wav
320,192,77682,1,0,0:0:0:70:h05.wav
448,192,77682,128,0,78027:0:0:0:0:
64,192,78027,1,4,0:0:0:0:
192,192,78027,1,2,0:0:0:0:
192,192,78199,1,0,0:0:0:0:
320,192,78717,1,4,0:0:0:0:
448,192,78717,1,2,0:0:0:0:
320,192,78889,1,0,0:0:0:0:
64,192,79406,1,4,0:0:0:0:
192,192,79406,1,2,0:0:0:0:
64,192,79579,1,0,0:0:0:0:
320,192,79751,1,4,0:0:0:0:
448,192,79751,1,2,0:0:0:0:
448,192,79923,1,0,0:0:0:0:
64,192,80096,128,0,80268:0:0:0:0:
192,192,80096,1,0,0:0:0:0:
320,192,80268,1,0,0:0:0:0:
448,192,80268,128,0,80441:0:0:0:0:
64,192,80441,1,0,0:0:0:0:
192,192,80441,128,0,80613:0:0:0:0:
320,192,80613,128,0,80786:0:0:0:0:
448,192,80613,1,0,0:0:0:0:
64,192,80786,1,4,0:0:0:0:
192,192,80786,1,2,0:0:0:0:
64,192,80958,1,0,0:0:0:0:
320,192,81130,1,8,0:0:0:0:
192,192,81217,1,0,0:0:0:0:
448,192,81303,1,0,0:0:0:0:
320,192,81389,1,0,0:0:0:0:
64,192,81475,128,2,81734:0:0:0:0:
192,192,81475,1,0,0:0:0:0:
448,192,81734,1,0,0:0:0:0:
192,192,81820,1,8,0:0:0:0:
320,192,81820,1,0,0:0:0:0:
64,192,81992,1,2,0:0:0:0:
448,192,81992,1,0,0:0:0:0:
320,192,82165,1,2,0:0:0:0:
320,192,82337,1,0,0:0:0:0:
192,192,82510,1,0,0:0:0:0:
64,192,82596,1,0,0:0:0:0:
448,192,82682,1,0,0:0:0:0:
320,192,82768,1,0,0:0:0:0:
64,192,82854,1,0,0:0:0:0:
192,192,82941,1,0,0:0:0:0:
64,192,83027,1,0,0:0:0:0:
192,192,83113,1,0,0:0:0:0:
320,192,83199,1,0,0:0:0:70:h05.wav
448,192,83199,128,0,83544:0:0:0:0:
64,192,83544,1,4,0:0:0:0:
192,192,83544,1,2,0:0:0:0:
192,192,83717,1,0,0:0:0:0:
448,192,83889,1,8,0:0:0:0:
320,192,83975,1,0,0:0:0:0:
64,192,84061,1,0,0:0:0:0:
192,192,84148,1,0,0:0:0:0:
320,192,84234,1,2,0:0:0:0:
448,192,84234,128,0,84492:0:0:0:0:
320,192,84492,128,0,84751:0:0:0:0:
64,192,84579,1,8,0:0:0:0:
192,192,84751,128,0,84923:0:0:0:0:
320,192,84923,1,2,0:0:0:0:
448,192,84923,1,0,0:0:0:0:
448,192,85096,1,0,0:0:0:0:
64,192,85268,1,8,0:0:0:0:
192,192,85354,1,0,0:0:0:0:
448,192,85441,1,0,0:0:0:0:
320,192,85527,1,0,0:0:0:0:
64,192,85613,128,2,85872:0:0:0:0:
192,192,85613,1,0,0:0:0:0:
192,192,85872,128,0,86130:0:0:0:0:
448,192,85958,1,8,0:0:0:0:
320,192,86130,1,2,0:0:0:0:
448,192,86130,128,0,86303:0:0:0:0:
64,192,86303,1,2,0:0:0:0:
192,192,86303,1,0,0:0:0:0:
192,192,86475,1,0,0:0:0:0:
320,192,86648,1,8,0:0:0:0:
448,192,86648,1,0,0:0:0:0:
320,192,86820,1,0,0:0:0:0:
64,192,86992,1,2,0:0:0:0:
192,192,86992,1,0,0:0:0:0:
192,192,87251,1,0,0:0:0:0:
320,192,87337,1,8,0:0:0:0:
448,192,87337,1,0,0:0:0:0:
64,192,87510,1,0,0:0:0:0:
192,192,87596,1,0,0:0:0:0:
320,192,87682,1,2,0:0:0:0:
448,192,87682,1,0,0:0:0:0:
448,192,87854,1,0,0:0:0:0:
64,192,88027,1,8,0:0:0:0:
192,192,88027,1,0,0:0:0:0:
64,192,88199,1,0,0:0:0:0:
320,192,88372,1,2,0:0:0:0:
448,192,88372,1,0,0:0:0:0:
64,192,88630,1,2,0:0:0:0:
448,192,88630,1,0,0:0:0:0:
320,192,88717,1,0,0:0:0:0:
64,192,88889,1,2,0:0:0:0:
192,192,88889,1,0,0:0:0:0:
320,192,89061,1,4,0:0:0:0:
448,192,89061,1,2,0:0:0:0:
448,192,89234,1,0,0:0:0:0:
64,192,89406,1,8,0:0:0:0:
320,192,89492,1,0,0:0:0:0:
192,192,89579,1,0,0:0:0:0:
448,192,89665,1,0,0:0:0:0:
64,192,89751,128,2,90010:0:0:0:0:
320,192,89751,1,0,0:0:0:0:
192,192,90010,128,0,90268:0:0:0:0:
448,192,90096,1,8,0:0:0:0:
320,192,90268,128,0,90441:0:0:0:0:
64,192,90441,1,2,0:0:0:0:
192,192,90441,1,0,0:0:0:0:
64,192,90613,1,0,0:0:0:0:
448,192,90786,1,8,0:0:0:0:
192,192,90872,1,0,0:0:0:0:
320,192,90958,1,0,0:0:0:0:
64,192,91044,1,0,0:0:0:0:
192,192,91130,1,2,0:0:0:0:
448,192,91130,128,0,91389:0:0:0:0:
320,192,91389,128,0,91648:0:0:0:0:
64,192,91475,1,8,0:0:0:0:
64,192,91648,128,2,91820:0:0:0:0:
192,192,91648,1,0,0:0:0:0:
320,192,91820,1,4,0:0:0:0:
448,192,91820,1,2,0:0:0:0:
192,192,91992,1,0,0:0:0:70:LR_Snare Fast.wav
320,192,92079,1,0,0:0:0:70:LR_Snare Fast.wav
64,192,92165,1,8,0:0:0:0:
448,192,92165,1,0,0:0:0:0:
320,192,92337,1,0,0:0:0:70:LR_Snare Fast.wav
192,192,92423,1,0,0:0:0:70:LR_Snare Fast.wav
448,192,92510,1,6,0:0:0:0:
320,192,92596,1,0,0:0:0:70:LR_Snare Fast.wav
64,192,92682,1,0,0:0:0:70:LR_Snare Fast.wav
192,192,92768,1,0,0:0:0:70:LR_Snare Fast.wav
448,192,92854,1,8,0:0:0:0:
320,192,92941,1,0,0:0:0:70:LR_Snare Fast.wav
64,192,93027,1,0,0:0:0:70:LR_Snare Fast.wav
192,192,93113,1,0,0:0:0:70:LR_Snare Fast.wav
320,192,93199,1,4,0:0:0:0:
448,192,93199,1,2,0:0:0:0:
64,192,93286,1,0,0:0:0:0:
320,192,93458,1,2,0:0:0:0:
448,192,93458,1,4,0:0:0:0:
192,192,93544,1,0,0:0:0:0:
320,192,93717,1,2,0:0:0:0:
448,192,93717,1,4,0:0:0:0:
64,192,93803,1,0,0:0:0:0:
320,192,93975,1,0,0:0:0:0:
192,192,94061,1,0,0:0:0:0:
320,192,94148,1,0,0:0:0:0:
64,192,94234,128,0,94579:0:0:0:70:h05.wav
192,192,94234,1,0,0:0:0:0:
320,192,94579,1,4,0:0:0:0:
448,192,94579,128,2,95958:0:0:0:0:
192,192,94751,1,0,0:0:0:0:
64,192,94923,1,8,0:0:0:0:
320,192,95010,1,0,0:0:0:0:
192,192,95096,1,0,0:0:0:0:
64,192,95182,1,0,0:0:0:0:
320,192,95268,1,2,0:0:0:0:
192,192,95527,1,0,0:0:0:0:
64,192,95613,1,8,0:0:0:0:
320,192,95786,1,0,0:0:0:0:
64,192,95958,128,2,96648:0:0:0:0:
192,192,95958,1,0,0:0:0:0:
320,192,96044,1,0,0:0:0:0:
448,192,96130,1,0,0:0:0:0:
192,192,96217,1,0,0:0:0:0:
448,192,96303,1,8,0:0:0:0:
320,192,96389,1,0,0:0:0:0:
192,192,96475,1,0,0:0:0:0:
448,192,96561,1,0,0:0:0:0:
192,192,96648,1,2,0:0:0:0:
320,192,96734,1,0,0:0:0:0:
64,192,96820,1,0,0:0:0:0:
192,192,96906,1,0,0:0:0:0:
320,192,96992,1,8,0:0:0:0:
448,192,96992,1,0,0:0:0:0:
320,192,97165,1,2,0:0:0:0:
448,192,97165,1,0,0:0:0:0:
64,192,97251,1,0,0:0:0:0:
192,192,97337,1,2,0:0:0:0:
448,192,97337,1,0,0:0:0:0:
192,192,97510,1,0,0:0:0:0:
320,192,97682,1,8,0:0:0:0:
448,192,97682,1,0,0:0:0:0:
320,192,97854,1,0,0:0:0:0:
64,192,98027,1,2,0:0:0:0:
448,192,98027,1,0,0:0:0:0:
448,192,98286,1,0,0:0:0:0:
64,192,98372,1,8,0:0:0:0:
192,192,98372,1,0,0:0:0:0:
320,192,98544,1,0,0:0:0:0:
64,192,98717,1,2,0:0:0:0:
448,192,98717,1,0,0:0:0:0:
64,192,98889,1,0,0:0:0:0:
192,192,99061,1,8,0:0:0:0:
448,192,99061,1,0,0:0:0:0:
192,192,99234,1,0,0:0:0:0:
320,192,99406,1,2,0:0:0:0:
448,192,99406,1,0,0:0:0:0:
320,192,99665,1,2,0:0:0:0:
448,192,99665,1,0,0:0:0:0:
64,192,99923,1,2,0:0:0:0:
192,192,99923,1,0,0:0:0:0:
320,192,100096,1,4,0:0:0:0:
448,192,100096,1,2,0:0:0:0:
192,192,100268,1,0,0:0:0:0:
320,192,100354,1,0,0:0:0:70:LR_Snare Fast.wav
64,192,100441,1,8,0:0:0:0:
448,192,100441,1,0,0:0:0:0:
320,192,100613,1,0,0:0:0:70:LR_Snare Fast.wav
192,192,100699,1,0,0:0:0:0:
64,192,100786,1,2,0:0:0:0:
448,192,100786,1,0,0:0:0:0:
320,192,100872,1,0,0:0:0:70:LR_Snare Fast.wav
64,192,101044,1,0,0:0:0:0:
192,192,101130,1,8,0:0:0:0:
448,192,101130,1,0,0:0:0:0:
64,192,101303,1,0,0:0:0:70:LR_Snare Fast.wav
448,192,101389,1,0,0:0:0:70:LR_Snare Fast.wav
192,192,101475,1,2,0:0:0:0:
320,192,101475,1,0,0:0:0:0:
64,192,101561,1,0,0:0:0:0:
448,192,101648,1,0,0:0:0:0:
320,192,101734,1,0,0:0:0:70:LR_Snare Fast.wav
192,192,101820,1,8,0:0:0:0:
64,192,101906,1,0,0:0:0:0:
320,192,101992,1,0,0:0:0:70:LR_Snare Fast.wav
448,192,102079,1,0,0:0:0:0:
64,192,102165,1,2,0:0:0:0:
192,192,102251,1,0,0:0:0:70:LR_Snare Fast.wav
320,192,102337,1,0,0:0:0:0:
448,192,102423,1,0,0:0:0:0:
320,192,102510,1,8,0:0:0:0:
192,192,102596,1,0,0:0:0:70:LR_Snare Fast.wav
64,192,102682,1,2,0:0:0:0:
192,192,102768,1,0,0:0:0:70:LR_Snare Fast.wav
320,192,102854,1,2,0:0:0:0:
448,192,102854,1,4,0:0:0:0:
64,192,103027,1,2,0:0:0:0:
192,192,103027,1,0,0:0:0:0:
320,192,103113,1,0,0:0:0:70:LR_Snare Fast.wav
64,192,103199,1,8,0:0:0:0:
448,192,103199,1,2,0:0:0:0:
192,192,103372,1,2,0:0:0:0:
320,192,103372,1,0,0:0:0:0:
64,192,103458,1,0,0:0:0:70:LR_Snare Fast.wav
320,192,103544,1,2,0:0:0:0:
448,192,103544,1,4,0:0:0:0:
64,192,103717,1,2,0:0:0:0:
192,192,103717,1,0,0:0:0:0:
448,192,103803,1,0,0:0:0:70:LR_Snare Fast.wav
320,192,103889,1,10,0:0:0:0:
192,192,103975,1,0,0:0:0:70:LR_Snare Fast.wav
448,192,104061,1,2,0:0:0:0:
320,192,104148,1,0,0:0:0:70:LR_Snare Fast.wav
64,192,104234,1,2,0:0:0:0:
192,192,104234,1,4,0:0:0:0:
448,192,104320,1,0,0:0:0:0:
64,192,104492,1,4,0:0:0:0:
192,192,104492,1,2,0:0:0:0:
320,192,104579,1,0,0:0:0:0:
64,192,104751,1,4,0:0:0:0:
192,192,104751,1,2,0:0:0:0:
448,192,104837,1,0,0:0:0:0:
192,192,104923,1,2,0:0:0:0:
320,192,105010,1,2,0:0:0:0:
192,192,105096,1,2,0:0:0:0:
320,192,105182,1,2,0:0:0:0:
64,192,105268,128,2,105613:0:0:0:0:
448,192,105268,128,0,105613:0:0:0:0:
192,192,105613,1,4,0:0:0:0:
320,192,105613,1,2,0:0:0:0:
64,192,105786,1,2,0:0:0:0:
448,192,105786,1,0,0:0:0:0:
192,192,105958,1,2,0:0:0:0:
320,192,106044,1,2,0:0:0:0:
64,192,106130,1,2,0:0:0:0:
192,192,106217,1,2,0:0:0:0:
320,192,106303,1,2,0:0:0:0:
448,192,106303,1,0,0:0:0:0:
192,192,106561,1,2,0:0:0:0:
320,192,106561,1,0,0:0:0:0:
64,192,106820,1,2,0:0:0:0:
192,192,106820,1,0,0:0:0:0:
64,192,107337,1,2,0:0:0:0:
320,192,107337,128,4,109406:0:0:0:0:
448,192,107337,128,0,109406:0:0:0:70:h05.wav
192,192,109406,1,0,0:0:0:0:
64,192,109492,1,0,0:0:0:0:
320,192,109579,1,0,0:0:0:0:
64,192,109665,1,0,0:0:0:0:
