osu file format v14

[General]
AudioFilename: audio.mp3
AudioLeadIn: 0
PreviewTime: 97180
Countdown: 0
SampleSet: Soft
StackLeniency: 0.7
Mode: 3
LetterboxInBreaks: 0
SpecialStyle: 0
WidescreenStoryboard: 1

[Editor]
DistanceSpacing: 0.7
BeatDivisor: 4
GridSize: 4
TimelineZoom: 2.1

[Metadata]
Title:ADAM
TitleUnicode:ADAM
Artist:P*Light
ArtistUnicode:P*Light
Creator:Murumoo
Version:Hard
Source:WACCA
Tags:syadow- Lirai DE-CADE DECADE TCDR-0028 video game electronic instrumental アルティメット・タノシー!!!!!!!!!! Hardcore TANO*C
BeatmapID:2306627
BeatmapSetID:1103802

[Difficulty]
HPDrainRate:7.5
CircleSize:4
OverallDifficulty:7.5
ApproachRate:5
SliderMultiplier:1.4
SliderTickRate:1

[Events]
//Background and Video events
0,0,"bg.jpg",0,0
//Break Periods
//Storyboard Layer 0 (Background)
//Storyboard Layer 1 (Fail)
//Storyboard Layer 2 (Pass)
//Storyboard Layer 3 (Foreground)
//Storyboard Layer 4 (Overlay)
//Storyboard Sound Samples
Sample,44380,0,"bass.wav",40
Sample,44980,0,"bass.wav",40
Sample,45580,0,"bass.wav",40
Sample,46180,0,"bass.wav",40
Sample,46630,0,"bass.wav",40
Sample,65980,0,"bass.wav",40
Sample,66430,0,"bass.wav",40
Sample,66880,0,"bass.wav",40
Sample,92380,0,"bass.wav",40
Sample,92980,0,"bass.wav",40
Sample,93580,0,"bass.wav",40
Sample,94180,0,"bass.wav",40
Sample,94780,0,"bass.wav",40
Sample,113980,0,"bass.wav",40
Sample,114430,0,"bass.wav",40
Sample,114880,0,"bass.wav",40

[TimingPoints]
1180,300,4,2,1,60,1,0
49180,-100,4,2,1,60,0,1
68380,-100,4,2,1,60,0,0
97180,-100,4,2,1,60,0,1
116380,-100,4,2,1,60,0,0

[HitObjects]
448,192,1180,5,0,0:0:0:0:
320,192,1330,1,0,0:0:0:0:
192,192,1480,1,0,0:0:0:0:
64,192,1630,1,0,0:0:0:0:
320,192,1780,1,0,0:0:0:0:
192,192,1930,1,0,0:0:0:0:
448,192,2080,1,0,0:0:0:0:
320,192,2230,1,0,0:0:0:0:
64,192,2380,1,0,0:0:0:0:
192,192,2530,1,0,0:0:0:0:
320,192,2680,1,0,0:0:0:0:
448,192,2830,1,0,0:0:0:0:
192,192,2980,1,0,0:0:0:0:
320,192,3130,1,0,0:0:0:0:
64,192,3280,1,0,0:0:0:0:
192,192,3430,1,0,0:0:0:0:
320,192,3580,1,0,0:0:0:0:
192,192,3730,1,0,0:0:0:0:
448,192,3880,1,0,0:0:0:0:
320,192,4030,1,0,0:0:0:0:
192,192,4180,1,0,0:0:0:0:
320,192,4330,1,0,0:0:0:0:
448,192,4480,1,0,0:0:0:0:
64,192,4630,1,0,0:0:0:0:
192,192,4780,1,0,0:0:0:0:
320,192,4930,1,0,0:0:0:0:
192,192,5080,1,0,0:0:0:0:
448,192,5230,1,0,0:0:0:0:
320,192,5380,1,0,0:0:0:0:
64,192,5530,1,0,0:0:0:0:
192,192,5680,1,0,0:0:0:0:
320,192,5830,1,0,0:0:0:0:
64,192,5980,1,0,0:0:0:70:drum.wav
448,192,5980,1,0,0:0:0:0:
192,192,6130,1,0,0:0:0:0:
320,192,6205,1,0,0:0:0:0:
448,192,6280,1,0,0:0:0:70:Clap.wav
192,192,6430,1,0,0:0:0:0:
320,192,6580,1,0,0:0:0:0:
64,192,6730,1,0,0:0:0:0:
192,192,6880,1,0,0:0:0:70:Clap.wav
320,192,7030,1,0,0:0:0:0:
64,192,7180,1,0,0:0:0:0:
448,192,7180,1,0,0:0:0:0:
320,192,7330,1,0,0:0:0:0:
192,192,7405,1,0,0:0:0:0:
64,192,7480,1,0,0:0:0:70:Clap.wav
320,192,7630,1,0,0:0:0:0:
192,192,7780,1,0,0:0:0:0:
448,192,7930,1,0,0:0:0:0:
320,192,8080,1,0,0:0:0:70:Clap.wav
192,192,8230,1,0,0:0:0:0:
64,192,8380,1,0,0:0:0:0:
448,192,8380,1,0,0:0:0:0:
192,192,8530,1,0,0:0:0:0:
320,192,8605,1,0,0:0:0:0:
448,192,8680,1,0,0:0:0:70:Clap.wav
192,192,8830,1,0,0:0:0:0:
320,192,8980,1,0,0:0:0:0:
448,192,9130,1,0,0:0:0:0:
64,192,9280,1,0,0:0:0:70:Clap.wav
192,192,9430,1,0,0:0:0:0:
320,192,9580,1,0,0:0:0:0:
448,192,9580,1,0,0:0:0:0:
64,192,9730,1,0,0:0:0:0:
192,192,9880,1,0,0:0:0:70:Clap.wav
320,192,10030,1,0,0:0:0:0:
192,192,10180,1,0,0:0:0:0:
320,192,10330,128,0,10480:0:0:0:0:
64,192,10480,1,0,0:0:0:0:
64,192,10780,1,0,0:0:0:70:drum.wav
192,192,10780,1,0,0:0:0:50:finish.wav
448,192,10780,128,0,10930:0:0:0:0:
320,192,10930,128,0,11080:0:0:0:0:
192,192,11080,128,0,11230:0:0:0:0:
64,192,11230,128,0,11530:0:0:0:0:
192,192,11530,1,0,0:0:0:70:drum.wav
320,192,11530,128,0,11680:0:0:0:50:finish.wav
448,192,11530,1,0,0:0:0:0:
192,192,11680,128,0,11830:0:0:0:0:
320,192,11830,128,0,11980:0:0:0:0:
448,192,11980,128,0,12130:0:0:0:0:
192,192,12130,128,0,12280:0:0:0:0:
320,192,12280,128,0,12430:0:0:0:0:
64,192,12430,128,0,12580:0:0:0:0:
192,192,12580,128,0,12730:0:0:0:0:
320,192,12730,128,0,12880:0:0:0:0:
64,192,12880,1,0,0:0:0:0:
192,192,12955,1,0,0:0:0:0:
320,192,13030,1,0,0:0:0:0:
64,192,13180,128,0,13330:0:0:0:70:drum.wav
320,192,13180,1,0,0:0:0:70:finish.wav
448,192,13180,1,0,0:0:0:0:
192,192,13330,128,0,13480:0:0:0:0:
320,192,13480,128,0,13630:0:0:0:0:
448,192,13630,128,0,13930:0:0:0:0:
64,192,13930,1,0,0:0:0:70:drum.wav
192,192,13930,128,0,14080:0:0:0:70:finish.wav
320,192,13930,1,0,0:0:0:0:
320,192,14080,128,0,14230:0:0:0:0:
192,192,14230,128,0,14380:0:0:0:0:
64,192,14380,128,0,14530:0:0:0:0:
320,192,14530,128,0,14680:0:0:0:0:
192,192,14680,1,0,0:0:0:0:
320,192,14755,1,0,0:0:0:0:
64,192,14830,1,0,0:0:0:0:
192,192,14905,1,0,0:0:0:0:
448,192,14980,1,0,0:0:0:0:
320,192,15055,1,0,0:0:0:0:
192,192,15130,128,0,15280:0:0:0:0:
320,192,15280,128,0,15505:0:0:0:0:
448,192,15430,128,0,15505:0:0:0:0:
64,192,15580,1,0,0:0:0:70:drum.wav
192,192,15580,1,0,0:0:0:70:finish.wav
448,192,15580,128,0,15730:0:0:0:0:
320,192,15730,128,0,15880:0:0:0:0:
192,192,15880,128,0,16030:0:0:0:0:
64,192,16030,128,0,16330:0:0:0:0:
192,192,16330,1,0,0:0:0:70:drum.wav
320,192,16330,128,0,16480:0:0:0:70:finish.wav
448,192,16330,1,0,0:0:0:0:
192,192,16480,128,0,16630:0:0:0:0:
320,192,16630,128,0,16780:0:0:0:0:
448,192,16780,128,0,16930:0:0:0:0:
192,192,16930,128,0,17080:0:0:0:0:
320,192,17080,128,0,17230:0:0:0:0:
64,192,17230,128,0,17380:0:0:0:0:
192,192,17380,128,0,17530:0:0:0:0:
320,192,17530,128,0,17680:0:0:0:0:
64,192,17680,1,0,0:0:0:0:
192,192,17755,1,0,0:0:0:0:
320,192,17830,1,0,0:0:0:0:
64,192,17980,128,0,18130:0:0:0:70:drum.wav
320,192,17980,1,0,0:0:0:70:finish.wav
448,192,17980,1,0,0:0:0:0:
192,192,18130,128,0,18280:0:0:0:0:
320,192,18280,128,0,18430:0:0:0:0:
448,192,18430,128,0,18730:0:0:0:0:
64,192,18730,1,0,0:0:0:70:drum.wav
192,192,18730,128,0,18880:0:0:0:70:finish.wav
320,192,18730,1,0,0:0:0:0:
320,192,18880,128,0,19030:0:0:0:0:
192,192,19030,128,0,19180:0:0:0:0:
64,192,19180,128,0,19330:0:0:0:0:
320,192,19330,128,0,19480:0:0:0:0:
192,192,19480,1,0,0:0:0:0:
64,192,19555,1,0,0:0:0:0:
320,192,19630,1,0,0:0:0:0:
192,192,19705,1,0,0:0:0:0:
448,192,19780,128,0,19930:0:0:0:0:
192,192,19930,128,0,20080:0:0:0:0:
64,192,20080,1,0,0:0:0:70:Clap.wav
448,192,20080,1,0,0:0:0:0:
64,192,20380,1,0,0:0:0:70:drum.wav
320,192,20380,1,0,0:0:0:70:finish.wav
448,192,20380,1,0,0:0:0:0:
192,192,20530,1,0,0:0:0:0:
320,192,20680,1,0,0:0:0:70:snare.wav
448,192,20680,1,0,0:0:0:0:
64,192,20830,1,0,0:0:0:70:drum.wav
192,192,20830,1,0,0:0:0:70:finish.wav
448,192,20830,128,0,21130:0:0:0:0:
64,192,21130,1,0,0:0:0:70:snare.wav
320,192,21130,1,0,0:0:0:0:
64,192,21280,1,0,0:0:0:70:drum.wav
192,192,21280,1,0,0:0:0:70:finish.wav
448,192,21280,1,0,0:0:0:0:
320,192,21430,1,0,0:0:0:70:snare.wav
64,192,21580,1,0,0:0:0:70:drum.wav
192,192,21580,1,0,0:0:0:70:finish.wav
448,192,21580,1,0,0:0:0:0:
320,192,21730,1,0,0:0:0:0:
64,192,21880,1,0,0:0:0:70:snare.wav
192,192,21880,1,0,0:0:0:0:
64,192,22030,128,0,22480:0:0:0:70:drum.wav
320,192,22030,1,0,0:0:0:70:finish.wav
448,192,22030,1,0,0:0:0:0:
320,192,22480,1,0,0:0:0:0:
64,192,22780,1,0,0:0:0:70:drum.wav
192,192,22780,1,0,0:0:0:70:finish.wav
448,192,22780,1,0,0:0:0:0:
320,192,22930,1,0,0:0:0:0:
64,192,23080,1,0,0:0:0:70:snare.wav
192,192,23080,1,0,0:0:0:0:
64,192,23230,128,0,23530:0:0:0:70:drum.wav
320,192,23230,1,0,0:0:0:70:finish.wav
448,192,23230,1,0,0:0:0:0:
192,192,23530,1,0,0:0:0:70:snare.wav
448,192,23530,1,0,0:0:0:0:
64,192,23680,1,0,0:0:0:70:drum.wav
320,192,23680,1,0,0:0:0:70:finish.wav
448,192,23680,1,0,0:0:0:0:
192,192,23830,1,0,0:0:0:70:snare.wav
64,192,23980,1,0,0:0:0:70:drum.wav
320,192,23980,1,0,0:0:0:70:finish.wav
448,192,23980,1,0,0:0:0:0:
192,192,24130,1,0,0:0:0:0:
320,192,24280,1,0,0:0:0:70:snare.wav
448,192,24280,1,0,0:0:0:0:
64,192,24430,1,0,0:0:0:70:drum.wav
192,192,24430,1,0,0:0:0:70:finish.wav
448,192,24430,128,0,24880:0:0:0:0:
192,192,24880,1,0,0:0:0:0:
64,192,25180,1,0,0:0:0:70:drum.wav
320,192,25180,1,0,0:0:0:70:finish.wav
448,192,25180,1,0,0:0:0:0:
320,192,25330,1,0,0:0:0:0:
64,192,25480,1,0,0:0:0:70:snare.wav
192,192,25480,1,0,0:0:0:0:
192,192,25630,1,0,0:0:0:70:drum.wav
448,192,25630,1,0,0:0:0:0:
64,192,25780,1,0,0:0:0:70:drum.wav
320,192,25780,1,0,0:0:0:0:
320,192,25930,1,0,0:0:0:70:snare.wav
448,192,25930,1,0,0:0:0:0:
64,192,26080,1,0,0:0:0:70:drum.wav
192,192,26155,1,0,0:0:0:70:drum.wav
320,192,26230,1,0,0:0:0:70:snare.wav
64,192,26380,1,0,0:0:0:70:drum.wav
192,192,26380,1,0,0:0:0:70:finish.wav
448,192,26380,1,0,0:0:0:0:
192,192,26530,1,0,0:0:0:70:drum.wav
320,192,26680,1,0,0:0:0:70:snare.wav
448,192,26680,1,0,0:0:0:0:
64,192,26830,1,0,0:0:0:70:drum.wav
320,192,26830,1,0,0:0:0:0:
192,192,26980,1,0,0:0:0:70:drum.wav
448,192,26980,1,0,0:0:0:0:
64,192,27130,1,0,0:0:0:70:snare.wav
192,192,27130,1,0,0:0:0:0:
448,192,27280,1,0,0:0:0:70:drum.wav
320,192,27355,1,0,0:0:0:70:drum.wav
192,192,27430,1,0,0:0:0:70:snare.wav
64,192,27580,1,0,0:0:0:70:drum.wav
320,192,27580,1,0,0:0:0:70:finish.wav
448,192,27580,1,0,0:0:0:0:
320,192,27730,1,0,0:0:0:70:drum.wav
64,192,27880,1,0,0:0:0:70:drum.wav
192,192,27955,1,0,0:0:0:70:drum.wav
320,192,28030,1,0,0:0:0:70:snare.wav
448,192,28105,1,0,0:0:0:70:drum.wav
64,192,28180,1,0,0:0:0:70:drum.wav
192,192,28180,1,0,0:0:0:0:
320,192,28330,1,0,0:0:0:70:drum.wav
448,192,28330,1,0,0:0:0:70:snare.wav
64,192,28480,1,0,0:0:0:70:drum.wav
192,192,28480,1,0,0:0:0:0:
192,192,28630,1,0,0:0:0:70:drum.wav
320,192,28630,1,0,0:0:0:70:snare.wav
64,192,28780,128,0,29080:0:0:0:70:drum.wav
320,192,28780,1,0,0:0:0:70:finish.wav
448,192,28780,1,0,0:0:0:0:
192,192,29080,128,0,29380:0:0:0:0:
448,192,29380,1,0,0:0:0:0:
320,192,29455,1,0,0:0:0:0:
64,192,29530,1,0,0:0:0:0:
192,192,29605,1,0,0:0:0:0:
320,192,29680,1,0,0:0:0:70:Clap.wav
448,192,29680,1,0,0:0:0:0:
64,192,29980,1,0,0:0:0:70:drum.wav
320,192,29980,1,0,0:0:0:70:finish.wav
448,192,29980,1,0,0:0:0:0:
192,192,30130,1,0,0:0:0:0:
320,192,30280,1,0,0:0:0:70:drum.wav
448,192,30280,1,0,0:0:0:0:
64,192,30430,1,0,0:0:0:0:
192,192,30580,1,0,0:0:0:70:drum.wav
448,192,30580,1,0,0:0:0:0:
320,192,30730,1,0,0:0:0:0:
64,192,30880,1,0,0:0:0:70:drum.wav
448,192,30880,1,0,0:0:0:0:
192,192,31030,1,0,0:0:0:0:
64,192,31180,1,0,0:0:0:70:drum.wav
320,192,31180,1,0,0:0:0:0:
448,192,31330,1,0,0:0:0:0:
64,192,31480,1,0,0:0:0:70:drum.wav
192,192,31480,1,0,0:0:0:0:
320,192,31630,1,0,0:0:0:0:
64,192,31780,1,0,0:0:0:70:drum.wav
448,192,31780,1,0,0:0:0:0:
192,192,31930,1,0,0:0:0:0:
320,192,32080,1,0,0:0:0:70:drum.wav
448,192,32080,1,0,0:0:0:0:
64,192,32230,1,0,0:0:0:70:drum.wav
192,192,32230,1,0,0:0:0:0:
320,192,32380,1,0,0:0:0:70:drum.wav
448,192,32380,1,0,0:0:0:0:
192,192,32530,1,0,0:0:0:0:
320,192,32680,1,0,0:0:0:70:drum.wav
448,192,32680,1,0,0:0:0:0:
64,192,32830,1,0,0:0:0:0:
192,192,32980,1,0,0:0:0:70:drum.wav
448,192,32980,1,0,0:0:0:0:
320,192,33130,1,0,0:0:0:0:
64,192,33280,1,0,0:0:0:70:drum.wav
448,192,33280,1,0,0:0:0:0:
192,192,33430,1,0,0:0:0:0:
64,192,33580,1,0,0:0:0:70:drum.wav
448,192,33580,128,0,33730:0:0:0:0:
192,192,33730,1,0,0:0:0:0:
64,192,33880,1,0,0:0:0:70:drum.wav
320,192,33880,128,0,34030:0:0:0:0:
448,192,34030,1,0,0:0:0:0:
64,192,34180,1,0,0:0:0:70:drum.wav
192,192,34180,128,0,34330:0:0:0:0:
448,192,34330,1,0,0:0:0:70:drum.wav
320,192,34405,1,0,0:0:0:70:drum.wav
192,192,34480,1,0,0:0:0:70:drum.wav
320,192,34630,1,0,0:0:0:70:drum.wav
64,192,34780,1,0,0:0:0:70:drum.wav
192,192,34780,1,0,0:0:0:70:finish.wav
448,192,34780,1,0,0:0:0:0:
320,192,34930,1,0,0:0:0:0:
64,192,35080,1,0,0:0:0:70:drum.wav
192,192,35080,1,0,0:0:0:0:
448,192,35230,1,0,0:0:0:0:
64,192,35380,1,0,0:0:0:70:drum.wav
320,192,35380,1,0,0:0:0:0:
192,192,35530,1,0,0:0:0:0:
64,192,35680,1,0,0:0:0:70:drum.wav
448,192,35680,1,0,0:0:0:0:
320,192,35830,1,0,0:0:0:0:
192,192,35980,1,0,0:0:0:70:drum.wav
448,192,35980,1,0,0:0:0:0:
64,192,36130,1,0,0:0:0:0:
320,192,36280,1,0,0:0:0:70:drum.wav
448,192,36280,1,0,0:0:0:0:
192,192,36430,1,0,0:0:0:0:
64,192,36580,1,0,0:0:0:70:drum.wav
448,192,36580,1,0,0:0:0:0:
320,192,36730,1,0,0:0:0:0:
64,192,36880,1,0,0:0:0:70:drum.wav
192,192,36880,1,0,0:0:0:0:
320,192,37030,1,0,0:0:0:70:drum.wav
448,192,37030,1,0,0:0:0:0:
64,192,37180,1,0,0:0:0:70:drum.wav
192,192,37180,1,0,0:0:0:70:finish.wav
448,192,37180,128,0,37330:0:0:0:0:
320,192,37330,128,0,37480:0:0:0:0:
64,192,37480,1,0,0:0:0:70:drum.wav
192,192,37480,1,0,0:0:0:0:
64,192,37630,128,0,37930:0:0:0:0:
320,192,37780,1,0,0:0:0:70:drum.wav
448,192,37780,1,0,0:0:0:0:
192,192,37930,128,0,38080:0:0:0:0:
64,192,38080,1,0,0:0:0:70:drum.wav
320,192,38080,128,0,38230:0:0:0:0:
448,192,38230,128,0,38380:0:0:0:0:
64,192,38380,1,0,0:0:0:70:drum.wav
192,192,38380,128,0,38530:0:0:0:70:finish.wav
320,192,38530,128,0,38680:0:0:0:0:
64,192,38680,1,0,0:0:0:70:drum.wav
448,192,38680,1,0,0:0:0:0:
448,192,38830,128,0,39130:0:0:0:0:
64,192,38980,1,0,0:0:0:70:drum.wav
192,192,38980,1,0,0:0:0:0:
320,192,39130,128,0,39280:0:0:0:0:
192,192,39280,1,0,0:0:0:0:
64,192,39580,1,0,0:0:0:70:drum.wav
192,192,39580,1,0,0:0:0:70:finish.wav
448,192,39580,1,0,0:0:0:0:
320,192,39730,1,0,0:0:0:0:
64,192,39880,128,0,40030:0:0:0:70:snare.wav
192,192,39880,128,0,40030:0:0:0:0:
448,192,40030,1,0,0:0:0:0:
64,192,40180,1,0,0:0:0:70:drum.wav
320,192,40180,1,0,0:0:0:0:
192,192,40330,1,0,0:0:0:0:
320,192,40480,128,0,40630:0:0:0:70:snare.wav
448,192,40480,128,0,40630:0:0:0:0:
64,192,40630,1,0,0:0:0:0:
192,192,40705,1,0,0:0:0:0:
320,192,40780,1,0,0:0:0:70:drum.wav
448,192,40855,1,0,0:0:0:0:
64,192,40930,1,0,0:0:0:0:
192,192,41005,1,0,0:0:0:0:
320,192,41080,128,0,41230:0:0:0:70:snare.wav
448,192,41080,128,0,41230:0:0:0:0:
192,192,41230,1,0,0:0:0:0:
320,192,41305,1,0,0:0:0:0:
64,192,41380,1,0,0:0:0:70:drum.wav
192,192,41455,1,0,0:0:0:0:
320,192,41530,1,0,0:0:0:0:
64,192,41680,128,0,41830:0:0:0:70:snare.wav
192,192,41680,128,0,41830:0:0:0:0:
320,192,41830,1,0,0:0:0:70:drum.wav
448,192,41830,1,0,0:0:0:0:
64,192,41980,1,0,0:0:0:70:drum.wav
192,192,41980,1,0,0:0:0:0:
192,192,42130,1,0,0:0:0:0:
320,192,42280,128,0,42430:0:0:0:70:snare.wav
448,192,42280,128,0,42430:0:0:0:0:
64,192,42430,1,0,0:0:0:0:
192,192,42580,1,0,0:0:0:70:drum.wav
448,192,42580,1,0,0:0:0:0:
320,192,42730,1,0,0:0:0:0:
64,192,42880,128,0,43030:0:0:0:70:snare.wav
192,192,42880,128,0,43030:0:0:0:0:
448,192,43030,1,0,0:0:0:0:
64,192,43180,1,0,0:0:0:70:drum.wav
320,192,43180,128,0,43330:0:0:0:0:
192,192,43330,1,0,0:0:0:0:
64,192,43480,128,0,43630:0:0:0:70:snare.wav
448,192,43480,128,0,43630:0:0:0:0:
192,192,43630,1,0,0:0:0:0:
320,192,43780,128,0,43930:0:0:0:70:drum.wav
448,192,43780,1,0,0:0:0:0:
192,192,43930,1,0,0:0:0:70:drum.wav
320,192,44005,1,0,0:0:0:70:drum.wav
64,192,44080,128,0,44230:0:0:0:70:snare.wav
448,192,44080,1,0,0:0:0:0:
192,192,44230,128,0,44380:0:0:0:70:drum.wav
320,192,44380,1,0,0:0:0:70:drum.wav
448,192,44380,1,0,0:0:0:70:finish.wav
192,192,44455,1,0,0:0:0:40:bass.wav
64,192,44530,1,0,0:0:0:40:bass.wav
320,192,44605,1,0,0:0:0:40:bass.wav
192,192,44680,1,0,0:0:0:70:snare.wav
448,192,44680,1,0,0:0:0:40:bass.wav
64,192,44755,1,0,0:0:0:40:bass.wav
320,192,44830,1,0,0:0:0:40:bass.wav
448,192,44905,1,0,0:0:0:40:bass.wav
192,192,44980,1,0,0:0:0:70:drum.wav
320,192,45055,1,0,0:0:0:40:bass.wav
64,192,45130,1,0,0:0:0:40:bass.wav
192,192,45205,1,0,0:0:0:40:bass.wav
320,192,45280,1,0,0:0:0:70:snare.wav
448,192,45280,1,0,0:0:0:40:bass.wav
192,192,45355,1,0,0:0:0:40:bass.wav
64,192,45430,1,0,0:0:0:40:bass.wav
448,192,45505,1,0,0:0:0:40:bass.wav
320,192,45580,1,0,0:0:0:70:drum.wav
192,192,45655,1,0,0:0:0:40:bass.wav
320,192,45730,1,0,0:0:0:40:bass.wav
64,192,45805,1,0,0:0:0:40:bass.wav
192,192,45880,1,0,0:0:0:70:snare.wav
448,192,45880,1,0,0:0:0:40:bass.wav
320,192,45955,1,0,0:0:0:40:bass.wav
64,192,46030,1,0,0:0:0:40:bass.wav
192,192,46105,1,0,0:0:0:40:bass.wav
320,192,46180,1,0,0:0:0:70:drum.wav
448,192,46255,1,0,0:0:0:40:bass.wav
192,192,46330,1,0,0:0:0:40:bass.wav
320,192,46405,1,0,0:0:0:40:bass.wav
64,192,46480,1,0,0:0:0:70:snare.wav
448,192,46480,1,0,0:0:0:40:bass.wav
192,192,46555,1,0,0:0:0:40:bass.wav
320,192,46630,1,0,0:0:0:70:drum.wav
64,192,46705,1,0,0:0:0:40:bass.wav
192,192,46780,1,0,0:0:0:70:drum.wav
448,192,46780,128,0,46930:0:0:0:70:finish.wav
320,192,46930,128,0,47080:0:0:0:0:
64,192,47080,1,0,0:0:0:70:snare.wav
192,192,47080,1,0,0:0:0:0:
64,192,47230,128,0,47530:0:0:0:70:drum.wav
448,192,47230,1,0,0:0:0:70:finish.wav
320,192,47530,1,0,0:0:0:70:snare.wav
448,192,47530,1,0,0:0:0:0:
64,192,47680,1,0,0:0:0:70:drum.wav
448,192,47680,1,0,0:0:0:70:finish.wav
192,192,47830,1,0,0:0:0:70:snare.wav
320,192,47830,1,0,0:0:0:0:
192,192,47980,1,0,0:0:0:70:drum.wav
448,192,47980,128,0,48130:0:0:0:70:finish.wav
320,192,48130,128,0,48280:0:0:0:0:
64,192,48280,1,0,0:0:0:70:snare.wav
192,192,48280,1,0,0:0:0:0:
64,192,48430,128,0,48880:0:0:0:70:drum.wav
448,192,48430,1,0,0:0:0:70:finish.wav
320,192,48880,1,0,0:0:0:0:
64,192,49180,1,0,0:0:0:70:drum.wav
320,192,49180,1,0,0:0:0:70:finish.wav
448,192,49180,128,0,49480:0:0:0:0:
192,192,49330,1,0,0:0:0:0:
64,192,49480,1,0,0:0:0:70:snare.wav
320,192,49480,128,0,49780:0:0:0:0:
448,192,49630,1,0,0:0:0:0:
64,192,49780,1,0,0:0:0:70:drum.wav
192,192,49780,128,0,50080:0:0:0:0:
320,192,49930,1,0,0:0:0:0:
64,192,50080,128,0,50380:0:0:0:70:snare.wav
448,192,50080,1,0,0:0:0:0:
320,192,50230,1,0,0:0:0:0:
192,192,50380,1,0,0:0:0:70:drum.wav
448,192,50380,1,0,0:0:0:0:
320,192,50530,1,0,0:0:0:0:
64,192,50680,1,0,0:0:0:70:snare.wav
192,192,50680,1,0,0:0:0:0:
448,192,50830,1,0,0:0:0:0:
64,192,50980,1,0,0:0:0:70:drum.wav
320,192,50980,1,0,0:0:0:0:
192,192,51130,1,0,0:0:0:0:
64,192,51280,1,0,0:0:0:70:snare.wav
448,192,51280,1,0,0:0:0:0:
192,192,51430,1,0,0:0:0:70:drum.wav
320,192,51430,1,0,0:0:0:0:
64,192,51580,128,0,51880:0:0:0:70:drum.wav
448,192,51580,1,0,0:0:0:0:
320,192,51730,1,0,0:0:0:0:
192,192,51880,128,0,52180:0:0:0:70:snare.wav
448,192,51880,1,0,0:0:0:0:
64,192,52030,1,0,0:0:0:0:
320,192,52180,128,0,52480:0:0:0:70:drum.wav
448,192,52180,1,0,0:0:0:0:
192,192,52330,1,0,0:0:0:0:
64,192,52480,1,0,0:0:0:70:snare.wav
448,192,52480,128,0,52780:0:0:0:0:
192,192,52630,1,0,0:0:0:0:
64,192,52780,1,0,0:0:0:70:drum.wav
320,192,52780,1,0,0:0:0:0:
64,192,52930,1,0,0:0:0:70:drum.wav
192,192,52930,1,0,0:0:0:0:
320,192,53080,1,0,0:0:0:70:snare.wav
448,192,53080,1,0,0:0:0:0:
64,192,53230,1,0,0:0:0:0:
192,192,53380,1,0,0:0:0:70:drum.wav
448,192,53380,1,0,0:0:0:0:
64,192,53530,1,0,0:0:0:70:drum.wav
320,192,53530,1,0,0:0:0:0:
192,192,53605,1,0,0:0:0:70:drum.wav
320,192,53680,1,0,0:0:0:70:snare.wav
448,192,53680,1,0,0:0:0:0:
64,192,53830,1,0,0:0:0:70:drum.wav
192,192,53830,1,0,0:0:0:0:
64,192,53980,1,0,0:0:0:70:drum.wav
320,192,53980,128,0,54280:0:0:0:70:finish.wav
448,192,53980,1,0,0:0:0:0:
192,192,54130,1,0,0:0:0:0:
64,192,54280,128,0,54580:0:0:0:70:snare.wav
448,192,54280,1,0,0:0:0:0:
192,192,54430,1,0,0:0:0:0:
320,192,54580,1,0,0:0:0:70:drum.wav
448,192,54580,128,0,54880:0:0:0:0:
64,192,54730,1,0,0:0:0:0:
192,192,54880,128,0,55180:0:0:0:70:snare.wav
320,192,54880,1,0,0:0:0:0:
64,192,55030,1,0,0:0:0:0:
320,192,55180,1,0,0:0:0:70:drum.wav
448,192,55180,1,0,0:0:0:0:
64,192,55330,1,0,0:0:0:0:
192,192,55480,1,0,0:0:0:70:snare.wav
320,192,55480,1,0,0:0:0:0:
448,192,55630,1,0,0:0:0:0:
64,192,55780,1,0,0:0:0:70:drum.wav
192,192,55780,1,0,0:0:0:0:
320,192,55930,1,0,0:0:0:0:
192,192,56080,1,0,0:0:0:70:snare.wav
448,192,56080,1,0,0:0:0:0:
64,192,56230,1,0,0:0:0:70:drum.wav
320,192,56230,1,0,0:0:0:0:
192,192,56380,128,0,56680:0:0:0:70:drum.wav
448,192,56380,1,0,0:0:0:0:
320,192,56530,1,0,0:0:0:0:
64,192,56680,1,0,0:0:0:70:snare.wav
448,192,56680,128,0,56980:0:0:0:0:
320,192,56830,1,0,0:0:0:0:
64,192,56980,128,0,57280:0:0:0:70:drum.wav
192,192,56980,1,0,0:0:0:0:
448,192,57130,1,0,0:0:0:0:
192,192,57280,1,0,0:0:0:70:snare.wav
320,192,57280,128,0,57580:0:0:0:0:
448,192,57430,1,0,0:0:0:0:
64,192,57580,1,0,0:0:0:70:drum.wav
192,192,57580,1,0,0:0:0:70:finish.wav
320,192,57730,1,0,0:0:0:70:drum.wav
448,192,57730,1,0,0:0:0:0:
64,192,57880,1,0,0:0:0:70:snare.wav
192,192,57880,1,0,0:0:0:0:
320,192,58030,1,0,0:0:0:70:drum.wav
448,192,58030,1,0,0:0:0:0:
64,192,58180,1,0,0:0:0:70:drum.wav
192,192,58180,1,0,0:0:0:0:
64,192,58330,1,0,0:0:0:70:drum.wav
192,192,58330,1,0,0:0:0:0:
320,192,58480,128,0,58630:0:0:0:0:
64,192,58780,1,0,0:0:0:70:drum.wav
192,192,58780,1,0,0:0:0:70:finish.wav
448,192,58780,1,0,0:0:0:0:
192,192,58930,1,0,0:0:0:0:
320,192,59080,1,0,0:0:0:70:snare.wav
448,192,59080,1,0,0:0:0:0:
320,192,59230,1,0,0:0:0:0:
64,192,59380,1,0,0:0:0:70:drum.wav
448,192,59380,1,0,0:0:0:0:
64,192,59530,1,0,0:0:0:0:
192,192,59680,1,0,0:0:0:70:snare.wav
448,192,59680,1,0,0:0:0:0:
192,192,59830,1,0,0:0:0:0:
64,192,59980,1,0,0:0:0:70:drum.wav
448,192,59980,128,0,60130:0:0:0:0:
320,192,60130,128,0,60280:0:0:0:0:
192,192,60280,128,0,60430:0:0:0:70:snare.wav
448,192,60280,1,0,0:0:0:0:
64,192,60430,128,0,60580:0:0:0:0:
192,192,60580,1,0,0:0:0:70:drum.wav
448,192,60580,128,0,60730:0:0:0:0:
320,192,60730,128,0,60880:0:0:0:0:
64,192,60880,128,0,61030:0:0:0:70:snare.wav
192,192,60880,1,0,0:0:0:0:
192,192,61030,128,0,61180:0:0:0:70:drum.wav
448,192,61030,1,0,0:0:0:0:
320,192,61180,1,0,0:0:0:70:drum.wav
448,192,61180,1,0,0:0:0:0:
320,192,61330,1,0,0:0:0:0:
64,192,61480,1,0,0:0:0:70:snare.wav
192,192,61480,1,0,0:0:0:0:
192,192,61630,1,0,0:0:0:0:
64,192,61780,1,0,0:0:0:70:drum.wav
448,192,61780,1,0,0:0:0:0:
448,192,61930,1,0,0:0:0:0:
64,192,62080,1,0,0:0:0:70:snare.wav
320,192,62080,1,0,0:0:0:0:
320,192,62230,1,0,0:0:0:0:
64,192,62380,128,0,62530:0:0:0:70:drum.wav
448,192,62380,1,0,0:0:0:0:
192,192,62530,128,0,62680:0:0:0:70:drum.wav
320,192,62530,1,0,0:0:0:0:
64,192,62680,1,0,0:0:0:70:snare.wav
320,192,62680,128,0,62830:0:0:0:0:
448,192,62830,128,0,62980:0:0:0:0:
64,192,62980,128,0,63130:0:0:0:70:drum.wav
320,192,62980,1,0,0:0:0:0:
192,192,63130,1,0,0:0:0:70:drum.wav
320,192,63205,1,0,0:0:0:70:drum.wav
64,192,63280,1,0,0:0:0:70:snare.wav
448,192,63280,128,0,63430:0:0:0:0:
192,192,63430,1,0,0:0:0:70:drum.wav
320,192,63430,128,0,63580:0:0:0:0:
64,192,63580,1,0,0:0:0:70:drum.wav
192,192,63580,1,0,0:0:0:70:finish.wav
448,192,63580,1,0,0:0:0:0:
64,192,63730,1,0,0:0:0:0:
192,192,63880,1,0,0:0:0:70:snare.wav
320,192,63880,1,0,0:0:0:0:
320,192,64030,1,0,0:0:0:0:
64,192,64180,1,0,0:0:0:70:drum.wav
448,192,64180,1,0,0:0:0:0:
448,192,64330,1,0,0:0:0:0:
192,192,64480,1,0,0:0:0:70:snare.wav
320,192,64480,1,0,0:0:0:0:
192,192,64630,1,0,0:0:0:0:
64,192,64780,128,0,64930:0:0:0:70:drum.wav
448,192,64780,1,0,0:0:0:0:
192,192,64930,128,0,65080:0:0:0:0:
64,192,65080,1,0,0:0:0:70:snare.wav
320,192,65080,128,0,65230:0:0:0:0:
448,192,65230,128,0,65380:0:0:0:0:
64,192,65380,128,0,65530:0:0:0:70:drum.wav
320,192,65380,1,0,0:0:0:0:
192,192,65530,128,0,65680:0:0:0:70:drum.wav
448,192,65530,1,0,0:0:0:0:
64,192,65680,1,0,0:0:0:70:snare.wav
320,192,65680,128,0,65830:0:0:0:0:
192,192,65830,1,0,0:0:0:70:drum.wav
448,192,65830,128,0,65980:0:0:0:0:
64,192,65980,1,0,0:0:0:70:drum.wav
320,192,65980,1,0,0:0:0:70:finish.wav
192,192,66055,1,0,0:0:0:40:bass.wav
320,192,66130,1,0,0:0:0:40:bass.wav
448,192,66205,1,0,0:0:0:40:bass.wav
192,192,66280,1,0,0:0:0:40:bass.wav
320,192,66355,1,0,0:0:0:40:bass.wav
64,192,66430,1,0,0:0:0:70:drum.wav
448,192,66430,1,0,0:0:0:70:finish.wav
192,192,66505,1,0,0:0:0:40:bass.wav
320,192,66580,1,0,0:0:0:40:bass.wav
64,192,66655,1,0,0:0:0:40:bass.wav
192,192,66730,1,0,0:0:0:40:bass.wav
448,192,66805,1,0,0:0:0:40:bass.wav
64,192,66880,1,0,0:0:0:70:drum.wav
320,192,66880,1,0,0:0:0:70:finish.wav
192,192,66955,1,0,0:0:0:40:bass.wav
448,192,67030,1,0,0:0:0:40:bass.wav
320,192,67105,1,0,0:0:0:40:bass.wav
192,192,67180,1,0,0:0:0:40:bass.wav
64,192,67255,1,0,0:0:0:40:bass.wav
320,192,67330,1,0,0:0:0:40:bass.wav
192,192,67405,1,0,0:0:0:40:bass.wav
448,192,67480,1,0,0:0:0:40:bass.wav
320,192,67555,1,0,0:0:0:40:bass.wav
64,192,67630,1,0,0:0:0:40:bass.wav
192,192,67705,1,0,0:0:0:40:bass.wav
448,192,67780,1,0,0:0:0:40:bass.wav
320,192,67855,1,0,0:0:0:40:bass.wav
64,192,67930,1,0,0:0:0:40:bass.wav
192,192,68005,1,0,0:0:0:40:bass.wav
320,192,68080,1,0,0:0:0:70:Clap.wav
448,192,68080,1,0,0:0:0:0:
64,192,68380,1,0,0:0:0:0:
448,192,68380,1,0,0:0:0:0:
64,192,68530,1,0,0:0:0:0:
320,192,68680,1,0,0:0:0:0:
192,192,68830,1,0,0:0:0:0:
320,192,68980,1,0,0:0:0:0:
320,192,69130,1,0,0:0:0:0:
64,192,69280,1,0,0:0:0:0:
448,192,69430,1,0,0:0:0:0:
192,192,69580,1,0,0:0:0:0:
192,192,69730,1,0,0:0:0:0:
320,192,69880,1,0,0:0:0:0:
448,192,70030,1,0,0:0:0:0:
64,192,70180,1,0,0:0:0:0:
64,192,70330,1,0,0:0:0:0:
320,192,70480,1,0,0:0:0:0:
192,192,70630,1,0,0:0:0:0:
448,192,70780,1,0,0:0:0:0:
448,192,70930,1,0,0:0:0:0:
320,192,71080,1,0,0:0:0:0:
64,192,71230,1,0,0:0:0:0:
192,192,71380,1,0,0:0:0:0:
192,192,71530,1,0,0:0:0:0:
64,192,71680,1,0,0:0:0:0:
448,192,71830,1,0,0:0:0:0:
320,192,71980,1,0,0:0:0:0:
320,192,72130,1,0,0:0:0:0:
192,192,72280,1,0,0:0:0:0:
64,192,72430,1,0,0:0:0:0:
448,192,72580,1,0,0:0:0:0:
448,192,72730,1,0,0:0:0:0:
192,192,72880,1,0,0:0:0:0:
320,192,73030,1,0,0:0:0:0:
64,192,73180,1,0,0:0:0:70:drum.wav
192,192,73180,1,0,0:0:0:0:
192,192,73330,1,0,0:0:0:0:
64,192,73480,1,0,0:0:0:70:Clap.wav
320,192,73480,1,0,0:0:0:0:
192,192,73630,1,0,0:0:0:0:
448,192,73780,1,0,0:0:0:0:
448,192,73930,1,0,0:0:0:0:
192,192,74080,1,0,0:0:0:70:Clap.wav
320,192,74080,1,0,0:0:0:0:
64,192,74230,1,0,0:0:0:0:
320,192,74380,1,0,0:0:0:0:
320,192,74530,1,0,0:0:0:0:
192,192,74680,1,0,0:0:0:70:Clap.wav
448,192,74680,1,0,0:0:0:0:
320,192,74830,1,0,0:0:0:0:
64,192,74980,1,0,0:0:0:0:
64,192,75130,1,0,0:0:0:0:
192,192,75280,1,0,0:0:0:70:Clap.wav
320,192,75280,1,0,0:0:0:0:
448,192,75430,1,0,0:0:0:0:
320,192,75580,1,0,0:0:0:0:
320,192,75730,1,0,0:0:0:0:
192,192,75880,1,0,0:0:0:70:Clap.wav
448,192,75880,1,0,0:0:0:0:
64,192,76030,1,0,0:0:0:0:
320,192,76180,1,0,0:0:0:0:
320,192,76330,1,0,0:0:0:0:
192,192,76480,1,0,0:0:0:70:Clap.wav
448,192,76480,1,0,0:0:0:0:
64,192,76630,1,0,0:0:0:0:
192,192,76780,1,0,0:0:0:0:
192,192,76930,1,0,0:0:0:0:
320,192,77080,1,0,0:0:0:70:Clap.wav
448,192,77080,1,0,0:0:0:0:
64,192,77230,1,0,0:0:0:0:
320,192,77380,1,0,0:0:0:0:
320,192,77530,128,0,77680:0:0:0:0:
64,192,77680,1,0,0:0:0:0:
64,192,77980,1,0,0:0:0:70:drum.wav
192,192,77980,1,0,0:0:0:70:finish.wav
448,192,77980,128,0,78130:0:0:0:0:
320,192,78130,128,0,78280:0:0:0:0:
192,192,78280,128,0,78430:0:0:0:0:
64,192,78430,128,0,78730:0:0:0:0:
192,192,78730,1,0,0:0:0:70:drum.wav
320,192,78730,128,0,78880:0:0:0:70:finish.wav
448,192,78730,1,0,0:0:0:0:
192,192,78880,128,0,79030:0:0:0:0:
320,192,79030,128,0,79180:0:0:0:0:
448,192,79180,128,0,79330:0:0:0:0:
192,192,79330,128,0,79480:0:0:0:0:
320,192,79480,128,0,79630:0:0:0:0:
64,192,79630,128,0,79780:0:0:0:0:
192,192,79780,128,0,79930:0:0:0:0:
320,192,79930,128,0,80080:0:0:0:0:
64,192,80080,1,0,0:0:0:0:
192,192,80155,1,0,0:0:0:0:
320,192,80230,1,0,0:0:0:0:
64,192,80380,128,0,80530:0:0:0:70:drum.wav
320,192,80380,1,0,0:0:0:70:finish.wav
448,192,80380,1,0,0:0:0:0:
192,192,80530,128,0,80680:0:0:0:0:
320,192,80680,128,0,80830:0:0:0:0:
448,192,80830,128,0,81130:0:0:0:0:
64,192,81130,1,0,0:0:0:70:drum.wav
192,192,81130,128,0,81280:0:0:0:70:finish.wav
320,192,81130,1,0,0:0:0:0:
320,192,81280,128,0,81430:0:0:0:0:
192,192,81430,128,0,81580:0:0:0:0:
64,192,81580,128,0,81730:0:0:0:0:
320,192,81730,128,0,81880:0:0:0:0:
192,192,81880,1,0,0:0:0:0:
320,192,81955,1,0,0:0:0:0:
64,192,82030,1,0,0:0:0:0:
192,192,82105,1,0,0:0:0:0:
448,192,82180,1,0,0:0:0:0:
320,192,82255,1,0,0:0:0:0:
192,192,82330,128,0,82480:0:0:0:0:
320,192,82480,128,0,82705:0:0:0:0:
448,192,82630,128,0,82705:0:0:0:0:
64,192,82780,1,0,0:0:0:70:drum.wav
192,192,82780,1,0,0:0:0:70:finish.wav
448,192,82780,128,0,82930:0:0:0:0:
320,192,82930,128,0,83080:0:0:0:0:
192,192,83080,128,0,83230:0:0:0:0:
64,192,83230,128,0,83530:0:0:0:0:
192,192,83530,1,0,0:0:0:70:drum.wav
320,192,83530,128,0,83680:0:0:0:70:finish.wav
448,192,83530,1,0,0:0:0:0:
192,192,83680,128,0,83830:0:0:0:0:
320,192,83830,128,0,83980:0:0:0:0:
448,192,83980,128,0,84130:0:0:0:0:
192,192,84130,128,0,84280:0:0:0:0:
320,192,84280,128,0,84430:0:0:0:0:
64,192,84430,128,0,84580:0:0:0:0:
192,192,84580,128,0,84730:0:0:0:0:
320,192,84730,128,0,84880:0:0:0:0:
64,192,84880,1,0,0:0:0:0:
192,192,84955,1,0,0:0:0:0:
320,192,85030,1,0,0:0:0:0:
64,192,85180,128,0,85330:0:0:0:70:drum.wav
320,192,85180,1,0,0:0:0:70:finish.wav
448,192,85180,1,0,0:0:0:0:
192,192,85330,128,0,85480:0:0:0:0:
320,192,85480,128,0,85630:0:0:0:0:
448,192,85630,128,0,85930:0:0:0:0:
64,192,85930,1,0,0:0:0:70:drum.wav
192,192,85930,128,0,86080:0:0:0:70:finish.wav
320,192,85930,1,0,0:0:0:0:
320,192,86080,128,0,86230:0:0:0:0:
192,192,86230,128,0,86380:0:0:0:0:
64,192,86380,128,0,86530:0:0:0:0:
320,192,86530,128,0,86680:0:0:0:0:
192,192,86680,1,0,0:0:0:0:
64,192,86755,1,0,0:0:0:0:
320,192,86830,1,0,0:0:0:0:
192,192,86905,1,0,0:0:0:0:
448,192,86980,128,0,87130:0:0:0:0:
192,192,87130,128,0,87280:0:0:0:0:
64,192,87280,1,0,0:0:0:70:Clap.wav
448,192,87280,1,0,0:0:0:0:
64,192,87580,1,0,0:0:0:70:drum.wav
320,192,87580,1,0,0:0:0:70:finish.wav
448,192,87580,1,0,0:0:0:0:
320,192,87730,128,0,87880:0:0:0:70:hat.wav
64,192,87880,1,0,0:0:0:70:drum.wav
448,192,87880,1,0,0:0:0:0:
192,192,88030,128,0,88180:0:0:0:70:hat.wav
320,192,88180,1,0,0:0:0:70:drum.wav
448,192,88180,1,0,0:0:0:0:
64,192,88330,128,0,88480:0:0:0:70:hat.wav
192,192,88480,1,0,0:0:0:70:drum.wav
320,192,88480,1,0,0:0:0:0:
448,192,88630,128,0,88780:0:0:0:70:hat.wav
64,192,88780,1,0,0:0:0:70:drum.wav
320,192,88780,1,0,0:0:0:0:
192,192,88930,128,0,89080:0:0:0:70:hat.wav
64,192,89080,1,0,0:0:0:70:drum.wav
448,192,89080,1,0,0:0:0:0:
320,192,89230,128,0,89380:0:0:0:70:hat.wav
64,192,89380,1,0,0:0:0:70:drum.wav
192,192,89380,1,0,0:0:0:0:
448,192,89530,128,0,89680:0:0:0:70:hat.wav
192,192,89680,1,0,0:0:0:70:drum.wav
320,192,89680,1,0,0:0:0:0:
64,192,89830,128,0,89980:0:0:0:70:hat.wav
192,192,89980,1,0,0:0:0:70:drum.wav
320,192,89980,1,0,0:0:0:70:finish.wav
448,192,89980,1,0,0:0:0:0:
320,192,90130,128,0,90280:0:0:0:70:hat.wav
64,192,90280,1,0,0:0:0:70:drum.wav
448,192,90280,1,0,0:0:0:0:
192,192,90430,128,0,90580:0:0:0:70:hat.wav
320,192,90580,1,0,0:0:0:70:drum.wav
448,192,90580,1,0,0:0:0:0:
64,192,90730,128,0,90880:0:0:0:70:hat.wav
192,192,90880,1,0,0:0:0:70:drum.wav
320,192,90880,1,0,0:0:0:0:
448,192,91030,128,0,91180:0:0:0:70:hat.wav
64,192,91180,1,0,0:0:0:70:drum.wav
320,192,91180,1,0,0:0:0:0:
192,192,91330,128,0,91480:0:0:0:70:hat.wav
64,192,91480,1,0,0:0:0:70:drum.wav
448,192,91480,1,0,0:0:0:0:
320,192,91630,128,0,91780:0:0:0:70:hat.wav
64,192,91780,1,0,0:0:0:70:drum.wav
192,192,91780,1,0,0:0:0:0:
448,192,91930,128,0,92080:0:0:0:70:hat.wav
64,192,92080,1,0,0:0:0:70:drum.wav
320,192,92080,1,0,0:0:0:0:
192,192,92230,128,0,92380:0:0:0:70:hat.wav
320,192,92380,1,0,0:0:0:70:drum.wav
448,192,92380,1,0,0:0:0:70:finish.wav
192,192,92455,1,0,0:0:0:40:bass.wav
64,192,92530,1,0,0:0:0:40:bass.wav
448,192,92605,1,0,0:0:0:40:bass.wav
320,192,92680,1,0,0:0:0:40:bass.wav
64,192,92755,1,0,0:0:0:40:bass.wav
192,192,92830,1,0,0:0:0:40:bass.wav
320,192,92905,1,0,0:0:0:40:bass.wav
64,192,92980,1,0,0:0:0:70:drum.wav
448,192,92980,1,0,0:0:0:70:finish.wav
192,192,93055,1,0,0:0:0:40:bass.wav
320,192,93130,1,0,0:0:0:40:bass.wav
448,192,93205,1,0,0:0:0:40:bass.wav
64,192,93280,1,0,0:0:0:40:bass.wav
192,192,93355,1,0,0:0:0:40:bass.wav
448,192,93430,1,0,0:0:0:40:bass.wav
320,192,93505,1,0,0:0:0:40:bass.wav
64,192,93580,1,0,0:0:0:70:drum.wav
192,192,93580,1,0,0:0:0:70:finish.wav
320,192,93655,1,0,0:0:0:40:bass.wav
448,192,93730,1,0,0:0:0:40:bass.wav
64,192,93805,1,0,0:0:0:40:bass.wav
192,192,93880,1,0,0:0:0:40:bass.wav
448,192,93955,1,0,0:0:0:40:bass.wav
320,192,94030,1,0,0:0:0:40:bass.wav
192,192,94105,1,0,0:0:0:40:bass.wav
64,192,94180,1,0,0:0:0:70:drum.wav
448,192,94180,1,0,0:0:0:70:finish.wav
320,192,94255,1,0,0:0:0:40:bass.wav
192,192,94330,1,0,0:0:0:40:bass.wav
64,192,94405,1,0,0:0:0:40:bass.wav
448,192,94480,1,0,0:0:0:40:bass.wav
320,192,94555,1,0,0:0:0:40:bass.wav
64,192,94630,1,0,0:0:0:40:bass.wav
192,192,94705,1,0,0:0:0:40:bass.wav
320,192,94780,1,0,0:0:0:70:drum.wav
448,192,94780,1,0,0:0:0:70:finish.wav
64,192,94930,1,0,0:0:0:70:drum.wav
448,192,94930,1,0,0:0:0:40:bass.wav
64,192,95080,1,0,0:0:0:70:drum.wav
192,192,95080,1,0,0:0:0:40:bass.wav
192,192,95230,1,0,0:0:0:70:drum.wav
320,192,95230,1,0,0:0:0:40:bass.wav
64,192,95380,1,0,0:0:0:70:drum.wav
320,192,95380,1,0,0:0:0:40:bass.wav
64,192,95530,1,0,0:0:0:70:drum.wav
448,192,95530,1,0,0:0:0:40:bass.wav
192,192,95680,1,0,0:0:0:70:drum.wav
448,192,95680,1,0,0:0:0:40:bass.wav
192,192,95830,1,0,0:0:0:70:drum.wav
320,192,95830,1,0,0:0:0:40:bass.wav
64,192,95980,128,0,96505:0:0:0:70:drum.wav
192,192,95980,1,0,0:0:0:70:finish.wav
448,192,95980,1,0,0:0:0:0:
192,192,96280,128,0,96505:0:0:0:0:
64,192,96580,1,0,0:0:0:0:
192,192,96655,1,0,0:0:0:0:
448,192,96730,1,0,0:0:0:0:
320,192,96805,1,0,0:0:0:0:
64,192,96880,1,0,0:0:0:70:Clap.wav
192,192,96880,1,0,0:0:0:0:
64,192,97180,128,0,97480:0:0:0:70:drum.wav
192,192,97180,1,0,0:0:0:70:finish.wav
448,192,97180,1,0,0:0:0:0:
320,192,97330,1,0,0:0:0:0:
192,192,97480,128,0,97780:0:0:0:70:snare.wav
448,192,97480,1,0,0:0:0:0:
64,192,97630,1,0,0:0:0:0:
320,192,97780,128,0,98080:0:0:0:70:drum.wav
448,192,97780,1,0,0:0:0:0:
192,192,97930,1,0,0:0:0:0:
64,192,98080,1,0,0:0:0:70:snare.wav
448,192,98080,128,0,98380:0:0:0:0:
320,192,98230,1,0,0:0:0:0:
64,192,98380,1,0,0:0:0:70:drum.wav
192,192,98380,1,0,0:0:0:0:
64,192,98530,1,0,0:0:0:0:
448,192,98530,1,0,0:0:0:0:
192,192,98680,1,0,0:0:0:70:snare.wav
320,192,98680,1,0,0:0:0:0:
64,192,98830,1,0,0:0:0:0:
320,192,98830,1,0,0:0:0:0:
192,192,98980,1,0,0:0:0:70:drum.wav
448,192,98980,1,0,0:0:0:0:
320,192,99130,1,0,0:0:0:0:
448,192,99130,1,0,0:0:0:0:
64,192,99280,1,0,0:0:0:70:snare.wav
192,192,99280,1,0,0:0:0:0:
192,192,99430,1,0,0:0:0:70:drum.wav
448,192,99430,1,0,0:0:0:0:
64,192,99580,1,0,0:0:0:70:drum.wav
448,192,99580,128,0,99880:0:0:0:0:
192,192,99730,1,0,0:0:0:0:
64,192,99880,1,0,0:0:0:70:snare.wav
320,192,99880,128,0,100180:0:0:0:0:
448,192,100030,1,0,0:0:0:0:
64,192,100180,1,0,0:0:0:70:drum.wav
192,192,100180,128,0,100480:0:0:0:0:
320,192,100330,1,0,0:0:0:0:
64,192,100480,128,0,100780:0:0:0:70:snare.wav
448,192,100480,1,0,0:0:0:0:
192,192,100630,1,0,0:0:0:0:
320,192,100780,1,0,0:0:0:70:drum.wav
448,192,100780,1,0,0:0:0:0:
64,192,100930,1,0,0:0:0:70:drum.wav
448,192,100930,1,0,0:0:0:0:
192,192,101080,1,0,0:0:0:70:snare.wav
320,192,101080,1,0,0:0:0:0:
192,192,101230,1,0,0:0:0:0:
448,192,101230,1,0,0:0:0:0:
64,192,101380,1,0,0:0:0:70:drum.wav
320,192,101380,1,0,0:0:0:0:
192,192,101530,1,0,0:0:0:70:drum.wav
448,192,101530,1,0,0:0:0:0:
320,192,101605,1,0,0:0:0:70:drum.wav
64,192,101680,1,0,0:0:0:70:snare.wav
448,192,101680,1,0,0:0:0:0:
192,192,101830,1,0,0:0:0:70:drum.wav
320,192,101830,1,0,0:0:0:0:
192,192,101980,128,0,102280:0:0:0:70:drum.wav
448,192,101980,1,0,0:0:0:70:finish.wav
64,192,101980,1,0,0:0:0:0:
320,192,102130,1,0,0:0:0:0:
64,192,102280,1,0,0:0:0:70:snare.wav
448,192,102280,128,0,102580:0:0:0:0:
320,192,102430,1,0,0:0:0:0:
64,192,102580,128,0,102880:0:0:0:70:drum.wav
192,192,102580,1,0,0:0:0:0:
448,192,102730,1,0,0:0:0:0:
192,192,102880,1,0,0:0:0:70:snare.wav
320,192,102880,128,0,103180:0:0:0:0:
448,192,103030,1,0,0:0:0:0:
64,192,103180,1,0,0:0:0:70:drum.wav
192,192,103180,1,0,0:0:0:0:
192,192,103330,1,0,0:0:0:0:
448,192,103330,1,0,0:0:0:0:
64,192,103480,1,0,0:0:0:70:snare.wav
320,192,103480,1,0,0:0:0:0:
320,192,103630,1,0,0:0:0:0:
448,192,103630,1,0,0:0:0:0:
64,192,103780,1,0,0:0:0:70:drum.wav
448,192,103780,1,0,0:0:0:0:
64,192,103930,1,0,0:0:0:0:
192,192,103930,1,0,0:0:0:0:
192,192,104080,1,0,0:0:0:70:snare.wav
448,192,104080,1,0,0:0:0:0:
64,192,104230,1,0,0:0:0:70:drum.wav
320,192,104230,1,0,0:0:0:0:
320,192,104380,128,0,104680:0:0:0:70:drum.wav
448,192,104380,1,0,0:0:0:0:
192,192,104530,1,0,0:0:0:0:
64,192,104680,128,0,104980:0:0:0:70:snare.wav
448,192,104680,1,0,0:0:0:0:
192,192,104830,1,0,0:0:0:0:
320,192,104980,1,0,0:0:0:70:drum.wav
448,192,104980,128,0,105280:0:0:0:0:
64,192,105130,1,0,0:0:0:0:
192,192,105280,128,0,105580:0:0:0:70:snare.wav
320,192,105280,1,0,0:0:0:0:
64,192,105430,1,0,0:0:0:0:
320,192,105580,1,0,0:0:0:70:drum.wav
448,192,105580,1,0,0:0:0:70:finish.wav
64,192,105730,1,0,0:0:0:70:drum.wav
320,192,105730,1,0,0:0:0:0:
192,192,105880,1,0,0:0:0:70:snare.wav
448,192,105880,1,0,0:0:0:0:
64,192,106030,1,0,0:0:0:70:drum.wav
192,192,106030,1,0,0:0:0:0:
320,192,106180,1,0,0:0:0:70:drum.wav
448,192,106180,1,0,0:0:0:0:
64,192,106330,1,0,0:0:0:70:drum.wav
448,192,106330,1,0,0:0:0:0:
192,192,106480,128,0,106630:0:0:0:0:
64,192,106780,1,0,0:0:0:70:drum.wav
320,192,106780,1,0,0:0:0:70:finish.wav
448,192,106780,1,0,0:0:0:0:
320,192,106930,1,0,0:0:0:0:
64,192,107080,1,0,0:0:0:70:snare.wav
192,192,107080,1,0,0:0:0:0:
448,192,107080,1,0,0:0:0:0:
192,192,107230,1,0,0:0:0:0:
64,192,107380,1,0,0:0:0:70:drum.wav
320,192,107380,1,0,0:0:0:0:
448,192,107380,1,0,0:0:0:0:
320,192,107530,1,0,0:0:0:0:
64,192,107680,1,0,0:0:0:70:snare.wav
192,192,107680,1,0,0:0:0:0:
448,192,107680,1,0,0:0:0:0:
64,192,107830,1,0,0:0:0:0:
192,192,107980,1,0,0:0:0:70:drum.wav
320,192,107980,128,0,108130:0:0:0:0:
448,192,108130,128,0,108280:0:0:0:0:
64,192,108280,1,0,0:0:0:70:snare.wav
192,192,108280,128,0,108430:0:0:0:0:
320,192,108430,128,0,108580:0:0:0:0:
64,192,108580,128,0,108730:0:0:0:70:drum.wav
448,192,108580,1,0,0:0:0:0:
192,192,108730,128,0,108880:0:0:0:0:
320,192,108880,1,0,0:0:0:70:snare.wav
448,192,108880,1,0,0:0:0:0:
320,192,109030,1,0,0:0:0:70:drum.wav
448,192,109030,1,0,0:0:0:0:
64,192,109180,1,0,0:0:0:70:drum.wav
192,192,109180,1,0,0:0:0:0:
448,192,109180,1,0,0:0:0:0:
192,192,109330,1,0,0:0:0:0:
64,192,109480,1,0,0:0:0:70:snare.wav
320,192,109480,1,0,0:0:0:0:
448,192,109480,1,0,0:0:0:0:
320,192,109630,1,0,0:0:0:0:
64,192,109780,1,0,0:0:0:70:drum.wav
192,192,109780,1,0,0:0:0:0:
448,192,109780,1,0,0:0:0:0:
192,192,109930,1,0,0:0:0:0:
64,192,110080,1,0,0:0:0:70:snare.wav
320,192,110080,1,0,0:0:0:0:
448,192,110080,1,0,0:0:0:0:
448,192,110230,1,0,0:0:0:0:
64,192,110380,1,0,0:0:0:70:drum.wav
192,192,110380,1,0,0:0:0:0:
64,192,110530,1,0,0:0:0:70:drum.wav
192,192,110530,1,0,0:0:0:0:
64,192,110680,1,0,0:0:0:70:snare.wav
320,192,110680,1,0,0:0:0:0:
448,192,110680,1,0,0:0:0:0:
320,192,110830,1,0,0:0:0:0:
64,192,110980,1,0,0:0:0:70:drum.wav
192,192,110980,1,0,0:0:0:0:
64,192,111130,1,0,0:0:0:70:drum.wav
448,192,111130,1,0,0:0:0:0:
320,192,111205,1,0,0:0:0:70:drum.wav
192,192,111280,1,0,0:0:0:70:snare.wav
448,192,111280,1,0,0:0:0:0:
320,192,111430,1,0,0:0:0:70:drum.wav
64,192,111580,1,0,0:0:0:70:drum.wav
320,192,111580,128,0,112105:0:0:0:70:finish.wav
448,192,111580,128,0,112105:0:0:0:0:
192,192,111880,128,0,112105:0:0:0:70:snare.wav
64,192,112180,128,0,112705:0:0:0:70:drum.wav
192,192,112180,128,0,112705:0:0:0:70:finish.wav
448,192,112180,1,0,0:0:0:0:
320,192,112480,128,0,112705:0:0:0:70:snare.wav
64,192,112780,1,0,0:0:0:70:drum.wav
320,192,112780,128,0,113305:0:0:0:70:finish.wav
448,192,112780,128,0,113305:0:0:0:0:
64,192,113080,128,0,113305:0:0:0:70:snare.wav
64,192,113380,1,0,0:0:0:70:drum.wav
192,192,113380,1,0,0:0:0:70:finish.wav
448,192,113380,1,0,0:0:0:0:
64,192,113530,1,0,0:0:0:70:drum.wav
320,192,113530,1,0,0:0:0:0:
192,192,113680,1,0,0:0:0:70:snare.wav
448,192,113680,1,0,0:0:0:0:
192,192,113830,1,0,0:0:0:70:drum.wav
320,192,113830,1,0,0:0:0:0:
64,192,113980,1,0,0:0:0:70:drum.wav
320,192,113980,1,0,0:0:0:70:finish.wav
448,192,113980,1,0,0:0:0:0:
192,192,114055,1,0,0:0:0:40:bass.wav
320,192,114130,1,0,0:0:0:40:bass.wav
448,192,114205,1,0,0:0:0:40:bass.wav
192,192,114280,1,0,0:0:0:40:bass.wav
320,192,114355,1,0,0:0:0:40:bass.wav
64,192,114430,1,0,0:0:0:70:drum.wav
448,192,114430,1,0,0:0:0:70:finish.wav
192,192,114505,1,0,0:0:0:40:bass.wav
320,192,114580,1,0,0:0:0:40:bass.wav
64,192,114655,1,0,0:0:0:40:bass.wav
192,192,114730,1,0,0:0:0:40:bass.wav
448,192,114805,1,0,0:0:0:40:bass.wav
64,192,114880,1,0,0:0:0:70:drum.wav
320,192,114880,1,0,0:0:0:70:finish.wav
192,192,114955,1,0,0:0:0:40:bass.wav
448,192,115030,1,0,0:0:0:40:bass.wav
320,192,115105,1,0,0:0:0:40:bass.wav
192,192,115180,1,0,0:0:0:40:bass.wav
64,192,115255,1,0,0:0:0:40:bass.wav
320,192,115330,1,0,0:0:0:40:bass.wav
192,192,115405,1,0,0:0:0:40:bass.wav
448,192,115480,1,0,0:0:0:40:bass.wav
320,192,115555,1,0,0:0:0:40:bass.wav
64,192,115630,1,0,0:0:0:40:bass.wav
192,192,115705,1,0,0:0:0:40:bass.wav
448,192,115780,1,0,0:0:0:40:bass.wav
320,192,115855,1,0,0:0:0:40:bass.wav
64,192,115930,1,0,0:0:0:40:bass.wav
192,192,116005,1,0,0:0:0:40:bass.wav
320,192,116080,1,0,0:0:0:70:Clap.wav
448,192,116080,1,0,0:0:0:0:
64,192,116380,1,0,0:0:0:70:drum.wav
192,192,116380,1,0,0:0:0:70:finish.wav
448,192,116380,1,0,0:0:0:0:
