osu file format v14

[General]
AudioFilename: audio.mp3
AudioLeadIn: 0
PreviewTime: 79687
Countdown: 0
SampleSet: Soft
StackLeniency: 0.4
Mode: 0
LetterboxInBreaks: 0
WidescreenStoryboard: 0

[Editor]
Bookmarks: 11411,20869,30327,39785,61066
DistanceSpacing: 0.9
BeatDivisor: 4
GridSize: 4
TimelineZoom: 3.399999

[Metadata]
Title:2 MINUTES FIGHTERS
TitleUnicode:2 MINUTES FIGHTERS
Artist:P*Light
ArtistUnicode:P*Light
Creator:Regraz
Version:toybot's MASTER
Source:SOUND VOLTEX III GRAVITY WARS
Tags:mug SDVX The 4th KAC Konami Arcade Championship two 嬬武器雷刀 tsumabuki raito F_D_Flourite HabiHolic Abhor Lobelia Gamu toybot
BeatmapID:1156568
BeatmapSetID:542163

[Difficulty]
HPDrainRate:6
CircleSize:3.8
OverallDifficulty:9
ApproachRate:9.5
SliderMultiplier:1.7
SliderTickRate:1

[Events]
//Background and Video events
0,0,"1BG.jpg",0,0
//Break Periods
2,61265,69704
//Storyboard Layer 0 (Background)
//Storyboard Layer 1 (Fail)
//Storyboard Layer 2 (Pass)
//Storyboard Layer 3 (Foreground)
//Storyboard Sound Samples

[TimingPoints]
771,295.566502463054,4,2,1,60,1,0
1214,-66.6666666666667,4,2,1,60,0,0
1953,-100,4,2,1,60,0,0
2396,-66.6666666666667,4,2,1,60,0,0
3135,-100,4,2,1,60,0,0
3726,-80,4,2,1,60,0,0
4022,-66.6666666666667,4,2,1,60,0,0
4317,-100,4,2,1,60,0,0
5943,-66.6666666666667,4,2,1,60,0,0
6682,-100,4,2,1,60,0,0
7125,-66.6666666666667,4,2,1,60,0,0
8160,-50,4,2,1,60,0,0
8455,-66.6666666666667,4,2,1,60,0,0
8751,-50,4,2,1,60,0,0
9637,-100,4,2,1,60,0,0
9785,-80,4,2,1,60,0,0
9933,-66.6666666666667,4,2,1,60,0,0
10081,-57.1428571428571,4,2,1,60,0,0
10229,-75.187969924812,4,2,1,60,0,0
11411,-100,4,2,1,50,0,0
14662,-151.515151515152,4,2,1,50,0,0
14958,-100,4,2,1,50,0,0
15549,-57.1428571428571,4,2,1,50,0,0
16140,-100,4,2,1,50,0,0
17027,-66.6666666666667,4,2,1,50,0,0
17322,-100,4,2,1,50,0,0
18209,-66.6666666666667,4,2,1,50,0,0
20130,-133.333333333333,4,2,1,50,0,0
20869,-133.333333333333,4,2,1,60,0,0
21165,-80,4,2,1,60,0,0
22051,-133.333333333333,4,2,1,60,0,0
22347,-80,4,2,1,60,0,0
22642,-100,4,2,1,60,0,0
22938,-66.6666666666667,4,2,1,60,0,0
23234,-100,4,2,1,60,0,0
24120,-66.6666666666667,4,2,1,60,0,0
24416,-133.333333333333,4,2,1,60,0,0
24711,-80,4,2,1,60,0,0
25598,-66.6666666666667,4,2,1,60,0,0
28406,-57.1428571428571,4,2,1,60,0,0
29145,-133.333333333333,4,2,1,60,0,0
31509,-66.6666666666667,4,2,1,60,0,0
35056,-100,4,2,1,60,0,0
37569,-86.9565217391304,4,2,1,60,0,0
37716,-76.9230769230769,4,2,1,60,0,0
37864,-68.9655172413793,4,2,1,60,0,0
38012,-62.5,4,2,1,60,0,0
38160,-57.1428571428571,4,2,1,60,0,0
38307,-52.6315789473684,4,2,1,60,0,0
38455,-50,4,2,1,60,0,0
39785,-80,4,2,1,60,0,0
41854,-50,4,2,1,60,0,0
42150,-80,4,2,1,60,0,0
44219,-50,4,2,1,60,0,0
44514,-80,4,2,1,60,0,0
46583,-50,4,2,1,60,0,0
48061,-66.6666666666667,4,2,1,60,0,0
49243,-80,4,2,1,60,0,0
51312,-50,4,2,1,60,0,0
51608,-80,4,2,1,60,0,0
53381,-50,4,2,1,60,0,0
53972,-80,4,2,1,60,0,0
54564,-66.6666666666667,4,2,1,60,0,0
55155,-80,4,2,1,60,0,0
56041,-50,4,2,1,60,0,0
56337,-66.6666666666667,4,2,1,60,0,0
57963,-57.0450656018254,4,2,1,60,0,0
58406,-50,4,2,1,60,0,0
70524,-100,4,2,1,50,0,0
72002,-100,4,2,1,65,0,0
74071,-66.6666666666667,4,2,1,65,0,0
74367,-133.333333333333,4,2,1,65,0,0
74662,-66.6666666666667,4,2,1,65,0,0
75253,-66.6666666666667,4,2,1,60,0,0
77174,-50,4,2,1,65,0,0
79835,-80,4,2,1,65,0,0
79982,-80,4,2,1,65,0,1
83972,-133.333333333333,4,2,1,65,0,1
84268,-50,4,2,1,65,0,1
84711,-80,4,2,1,65,0,1
88258,-66.6666666666667,4,2,1,65,0,1
89145,-66.6666666666667,4,2,1,65,0,0
89440,-80,4,2,1,65,0,1
90032,-100,4,2,1,65,0,1
90623,-80,4,2,1,65,0,1
93431,-71.4285714285714,4,2,1,65,0,1
93726,-50,4,2,1,65,0,1
94170,-80,4,2,1,65,0,1
96534,-66.6666666666667,4,2,1,65,0,1
98160,-50,4,2,1,65,0,1
98307,-151.515151515152,4,2,1,65,0,1
98603,-66.6666666666667,4,2,1,65,0,0
98899,-80,4,2,1,65,0,1
100968,-66.6666666666667,4,2,1,65,0,1
101263,-66.6666666666667,4,2,1,65,0,1
103037,-100,4,2,1,65,0,1
103628,-80,4,2,1,65,0,1
105253,-80,4,2,1,65,0,1
105844,-100,4,2,1,65,0,1
106583,-80,4,2,1,65,0,1
106879,-66.6666666666667,4,2,1,65,0,1
108061,-50,4,2,1,65,0,0
108357,-50,4,2,1,65,0,1
108800,-66.6666666666667,4,2,1,65,0,1
116485,-66.6666666666667,4,2,1,65,0,0
118997,-66.6666666666667,4,2,1,30,0,0

[Colours]
Combo1 : 199,187,46
Combo2 : 217,17,172
Combo3 : 83,202,253
Combo4 : 171,10,34

[HitObjects]
252,117,771,6,0,L|264:213,1,85,8|0,0:0|0:0,0:0:0:0:
276,292,1066,1,0,0:0:0:0:
440,124,1214,6,0,B|380:132|380:132|312:112|312:112|224:120,1,191.250007295609,4|0,0:0|0:0,0:0:0:0:
67,96,1509,2,0,B|127:88|127:88|195:108|195:108|255:103,1,191.250007295609,4|0,0:0|0:0,0:0:0:0:
268,27,1805,2,0,L|256:107,1,63.7500024318696,4|0,0:0|0:0,0:0:0:0:
166,265,1953,6,0,L|154:169,1,85,4|0,0:0|0:0,0:0:0:0:
306,381,2248,1,0,0:0:0:0:
81,302,2396,6,0,P|156:355|240:318,1,191.250007295609,4|0,0:0|0:0,0:0:0:0:
250,227,2692,2,0,P|175:174|92:212,1,191.250007295609,4|0,0:0|0:0,0:0:0:0:
166,265,2987,2,0,L|229:271,1,63.7500024318696,4|0,0:0|0:0,0:0:0:0:
460,184,3135,6,0,B|416:176|416:176|372:192,1,85,4|0,0:0|0:0,0:0:0:0:
288,104,3357,1,0,0:0:0:0:
280,112,3431,2,0,B|324:120|324:120|368:104,1,85,0|0,0:0|0:0,0:0:0:0:
457,53,3652,1,0,0:0:0:0:
447,43,3726,5,2,0:0:0:0:
451,90,3800,1,2,0:0:0:0:
456,137,3874,1,2,0:0:0:0:
460,184,3948,1,2,0:0:0:0:
465,231,4022,6,0,L|425:239,1,31.8750012159348,2|0,0:0|0:0,0:0:0:0:
358,157,4170,2,0,L|318:165,1,31.8750012159348,2|0,0:0|0:0,0:0:0:0:
246,85,4317,6,0,L|152:74,1,85,8|0,0:0|0:0,0:0:0:0:
170,260,4613,2,0,L|76:249,1,85,0|0,0:0|0:0,0:0:0:0:
12,238,4835,1,0,0:0:0:0:
0,236,4908,5,2,0:0:0:0:
56,233,4982,1,0,0:0:0:0:
112,230,5056,1,2,0:0:0:0:
169,227,5130,1,0,0:0:0:0:
240,180,5204,5,2,0:0:0:0:
273,254,5277,1,0,0:0:0:0:
345,294,5351,1,2,0:0:0:0:
427,285,5425,1,0,0:0:0:0:
484,228,5500,6,0,L|476:144,1,85,8|0,0:0|0:0,0:0:0:0:
468,48,5795,1,0,0:0:0:0:
252,168,5943,6,0,B|212:212|212:212|352:184,1,191.250007295609,4|0,0:0|0:0,0:0:0:0:
436,188,6238,2,0,B|476:144|476:144|336:172,1,191.250007295609,4|0,0:0|0:0,0:0:0:0:
343,265,6534,2,0,L|335:202,1,63.7500024318696,4|0,0:0|0:0,0:0:0:0:
212,56,6682,6,0,B|252:68|252:68|312:56,1,85,4|0,0:0|0:0,0:0:0:0:
164,159,6977,1,0,0:0:0:0:
272,356,7125,6,0,B|264:284|264:284|268:264|268:264|260:248|260:248|252:168,1,191.250007295609,4|0,0:0|0:0,0:0:0:0:
65,28,7421,2,0,B|73:100|73:100|69:120|69:120|77:136|77:136|85:216,1,191.250007295609,4|0,0:0|0:0,0:0:0:0:
171,223,7717,2,0,L|165:160,1,63.7500024318696,4|0,0:0|0:0,0:0:0:0:
212,56,7864,6,0,P|177:54|136:48,1,63.7500024318696,4|0,0:0|0:0,0:0:0:0:
212,328,8012,2,0,P|177:329|136:336,1,63.7500024318696,0|0,0:0|0:0,0:0:0:0:
408,44,8160,6,0,P|363:37|320:28,1,85,8|0,0:0|0:0,0:0:0:0:
408,340,8307,2,0,P|363:346|320:356,1,85,0|0,0:0|0:0,0:0:0:0:
116,180,8455,6,0,L|184:172,1,63.7500024318696,8|0,0:0|0:0,0:0:0:0:
396,204,8603,2,0,L|328:212,1,63.7500024318696,0|0,0:0|0:0,0:0:0:0:
76,144,8751,6,0,L|168:156,1,85,8|0,0:0|0:0,0:0:0:0:
436,240,8899,2,0,L|344:228,1,85,0|0,0:0|0:0,0:0:0:0:
36,288,9046,5,2,0:0:0:0:
136,276,9194,1,2,0:0:0:0:
236,264,9342,1,2,0:0:0:0:
336,252,9489,1,2,0:0:0:0:
436,240,9637,6,0,L|428:300,1,42.5,2|2,0:0|0:0,0:0:0:0:
336,252,9785,2,0,L|328:317,1,53.125,2|2,0:0|0:0,0:0:0:0:
236,264,9933,2,0,L|227:330,1,63.7500024318696,2|2,0:0|0:0,0:0:0:0:
136,276,10081,2,0,L|124:353,1,74.3750007092953,2|2,0:0|0:0,0:0:0:0:
36,288,10229,6,0,B|11:172|162:124|219:204|219:204|253:323|253:323|317:395|454:369|435:231,1,678.299972054902,6|0,0:0|0:0,0:0:0:0:
436,240,11411,6,0,L|428:144,1,85,4|0,0:1|0:0,0:0:0:0:
424,68,11633,1,0,0:0:0:0:
424,68,11706,1,2,0:0:0:0:
348,228,11854,2,0,L|343:285,1,42.5,0|0,0:0|0:0,0:0:0:0:
260,216,12002,6,0,L|252:120,1,85,0|0,0:0|0:0,0:0:0:0:
245,50,12224,1,0,0:0:0:0:
245,50,12298,2,0,L|240:107,1,42.5,8|0,0:0|0:0,0:0:0:0:
172,204,12445,2,0,L|167:147,1,42.5,0|0,0:0|0:0,0:0:0:0:
104,88,12593,6,0,L|16:100,1,85,2|0,0:0|0:0,0:0:0:0:
0,184,12815,1,0,0:0:0:0:
0,184,12889,1,2,0:0:0:0:
168,161,13037,2,0,L|210:155,1,42.5,0|0,0:0|0:0,0:0:0:0:
232,234,13184,6,0,L|144:246,1,85,2|0,0:0|0:0,0:0:0:0:
128,330,13406,1,0,0:0:0:0:
128,330,13480,2,0,L|170:324,1,42.5,8|0,0:0|0:0,0:0:0:0:
295,306,13628,2,0,L|337:300,1,42.5,8|0,0:0|0:0,0:0:0:0:
462,282,13775,6,0,L|448:376,1,85,0|0,0:0|0:0,0:0:0:0:
341,224,13997,1,0,0:0:0:0:
349,216,14071,2,0,L|335:310,1,85,2|0,0:0|0:0,0:0:0:0:
228,158,14293,1,0,0:0:0:0:
236,150,14367,2,0,L|222:244,1,85,2|0,0:0|0:0,0:0:0:0:
115,92,14588,1,0,0:0:0:0:
123,84,14662,6,0,L|109:178,1,84.1499997431946,8|0,0:0|0:0,0:0:0:0:
21,233,14958,5,2,0:0:0:0:
56,187,15031,1,0,0:0:0:0:
110,167,15105,1,0,0:0:0:0:
167,178,15179,1,0,0:0:0:0:
210,217,15253,1,2,0:0:0:0:
253,256,15328,1,0,0:0:0:0:
310,268,15402,1,0,0:0:0:0:
364,247,15476,1,0,0:0:0:0:
400,202,15549,6,0,B|368:88|368:88|307:150,1,148.750001418591,4|0,0:0|0:0,0:0:0:0:
320,292,15770,2,0,B|434:321|434:321|411:237,1,148.750001418591,4|0,0:0|0:0,0:0:0:0:
282,177,15992,2,0,L|222:236,1,74.3750007092953,4|0,0:0|0:0,0:0:0:0:
124,348,16140,6,0,P|109:308|116:267,1,85,4|0,0:0|0:0,0:0:0:0:
56,187,16436,2,0,P|83:154|122:139,1,85,2|0,0:0|0:0,0:0:0:0:
161,47,16731,2,0,P|203:54|235:80,1,85,2|0,0:0|0:0,0:0:0:0:
328,60,16953,1,0,0:0:0:0:
334,67,17027,6,0,P|349:106|344:144,1,63.7500024318696,8|0,0:0|0:0,0:0:0:0:
404,227,17174,2,0,P|376:259|342:274,1,63.7500024318696,8|0,0:0|0:0,0:0:0:0:
300,367,17322,6,0,L|200:352,1,85,4|0,0:0|0:0,0:0:0:0:
76,240,17618,2,0,L|176:225,1,85,2|0,0:0|0:0,0:0:0:0:
432,140,17913,2,0,L|332:125,1,85,2|0,0:0|0:0,0:0:0:0:
256,72,18135,1,0,0:0:0:0:
256,52,18209,6,8,L|256:12,6,31.8750012159348,0|0|0|0|0|0|0,0:0|0:0|0:0|0:0|0:0|0:0|0:0,0:0:0:0:
347,127,18504,6,0,P|403:135|471:71,1,127.500004863739,4|0,0:0|0:0,0:0:0:0:
165,257,18800,2,0,P|109:249|41:313,1,127.500004863739,4|0,0:0|0:0,0:0:0:0:
257,82,19096,6,0,P|261:42|253:14,1,63.7500024318696,4|0,0:0|0:0,0:0:0:0:
255,302,19243,2,0,P|251:342|259:370,1,63.7500024318696,4|0,0:0|0:0,0:0:0:0:
165,127,19539,6,0,P|114:90|52:97,1,127.500004863739,4|0,0:0|0:0,0:0:0:0:
347,257,19835,2,0,P|384:272|424:268,1,63.7500024318696,4|0,0:0|0:0,0:0:0:0:
256,188,19982,5,8,0:0:0:0:
116,252,20130,5,0,0:0:0:0:
106,253,20204,1,0,0:0:0:0:
96,255,20278,2,0,L|54:262,1,31.8750012159348,0|0,0:0|0:0,0:0:0:0:
172,276,20426,2,0,L|130:283,1,31.8750012159348,0|0,0:0|0:0,0:0:0:0:
248,297,20573,2,0,L|206:304,1,31.8750012159348,0|0,0:0|0:0,0:0:0:0:
324,318,20721,2,0,L|282:325,1,31.8750012159348,0|0,0:0|0:0,0:0:0:0:
208,192,20869,6,0,L|216:112,1,63.7500024318696,4|0,0:0|0:0,0:0:0:0:
224,48,21091,1,0,0:0:0:0:
226,37,21165,6,0,B|236:92|236:92|256:124|256:124|276:216,1,159.375,4|0,0:0|0:0,0:0:0:0:
348,236,21460,5,2,0:0:0:0:
398,223,21533,1,2,0:0:0:0:
431,182,21607,1,2,0:0:0:0:
432,130,21681,1,2,0:0:0:0:
401,87,21756,2,0,L|283:103,1,106.25,8|0,0:0|0:0,0:0:0:0:
106,237,22051,6,0,L|186:249,1,63.7500024318696,4|0,0:0|0:0,0:0:0:0:
261,295,22273,1,0,0:0:0:0:
269,287,22347,6,0,B|276:262|276:262|273:198,1,53.125,4|0,0:0|0:0,0:0:0:0:
7,197,22495,2,0,B|0:221|0:221|2:285,1,53.125,0|0,0:0|0:0,0:0:0:0:
224,164,22642,6,0,P|232:139|244:116,1,42.5,2|2,0:0|0:0,0:0:0:0:
80,144,22790,2,0,P|79:117|75:92,1,42.5,2|2,0:0|0:0,0:0:0:0:
173,11,22938,6,0,L|161:91,1,63.7500024318696,8|0,0:0|0:0,0:0:0:0:
130,279,23086,2,0,L|140:216,1,63.7500024318696,0|0,0:0|0:0,0:0:0:0:
0,56,23234,5,4,0:0:0:0:
224,164,23381,1,0,0:0:0:0:
232,163,23455,1,0,0:0:0:0:
240,162,23529,2,0,L|321:153,1,42.5,4|0,0:0|0:0,0:0:0:0:
130,279,23677,2,0,L|49:270,1,42.5,0|0,0:0|0:0,0:0:0:0:
120,84,23825,5,8,0:0:0:0:
183,78,23898,1,8,0:0:0:0:
246,72,23972,1,8,0:0:0:0:
310,66,24046,1,8,0:0:0:0:
373,61,24120,2,0,P|400:96|396:160,1,63.7500024318696,2|0,0:0|0:0,0:0:0:0:
400,208,24268,2,0,P|383:248|325:277,1,63.7500024318696,0|0,0:0|0:0,0:0:0:0:
286,304,24416,6,0,L|200:296,1,63.7500024318696,4|0,0:0|0:0,0:0:0:0:
144,252,24637,1,0,0:0:0:0:
155,248,24711,6,0,B|191:240|191:240|179:272,1,53.125,4|0,0:0|0:0,0:0:0:0:
72,328,24859,2,0,B|36:336|36:336|48:304,1,53.125,4|0,0:0|0:0,0:0:0:0:
52,44,25007,5,2,0:0:0:0:
58,78,25080,1,0,0:0:0:0:
65,113,25154,1,0,0:0:0:0:
72,148,25228,1,0,0:0:0:0:
60,184,25303,5,2,0:0:0:0:
125,134,25376,1,0,0:0:0:0:
207,142,25450,1,0,0:0:0:0:
262,203,25524,1,0,0:0:0:0:
262,286,25598,6,0,P|312:340|420:288,1,191.250007295609,4|0,0:0|0:0,0:0:0:0:
432,320,25894,2,0,L|420:232,1,63.7500024318696,4|0,0:0|0:0,0:0:0:0:
360,116,26041,2,0,L|351:179,1,63.7500024318696,4|0,0:0|0:0,0:0:0:0:
440,64,26189,2,0,L|431:0,1,63.7500024318696,4|0,0:0|0:0,0:0:0:0:
262,203,26337,6,0,B|330:199|330:199|378:219|378:219|466:211,1,191.250007295609,4|0,0:0|0:0,0:0:0:0:
486,100,26633,6,0,P|415:122|488:209,1,191.250007295609,4|0,0:0|0:0,0:0:0:0:
504,232,26928,6,0,L|440:238,1,63.7500024318696,4|0,0:0|0:0,0:0:0:0:
360,368,27076,2,0,L|423:361,1,63.7500024318696,4|0,0:0|0:0,0:0:0:0:
325,196,27224,2,0,L|262:203,1,63.7500024318696,4|0,0:0|0:0,0:0:0:0:
57,321,27371,2,0,B|124:313|124:313|168:333|168:333|264:321,1,191.250007295609,4|0,0:0|0:0,0:0:0:0:
264,336,27667,6,0,L|244:236,1,63.7500024318696,4|0,0:0|0:0,0:0:0:0:
132,192,27815,2,0,L|144:129,1,63.7500024318696,4|0,0:0|0:0,0:0:0:0:
232,52,27963,6,0,P|280:44|292:156,1,191.250007295609,4|0,0:0|0:0,0:0:0:0:
156,112,28258,2,0,P|136:64|152:8,1,63.7500024318696,4|0,0:0|0:0,0:0:0:0:
324,16,28406,6,0,P|368:88|256:152,1,223.125002127886,4|0,0:0|0:0,0:0:0:0:
136,96,28702,2,0,P|124:40|152:-16,1,74.3750007092953,4|0,0:0|0:0,0:0:0:0:
150,246,28849,2,0,P|107:284|45:288,1,74.3750007092953,4|0,0:0|0:0,0:0:0:0:
274,158,28997,2,0,P|328:175|362:227,1,74.3750007092953,4|0,0:0|0:0,0:0:0:0:
74,199,29145,6,0,L|58:131,1,63.7500024318696,8|0,0:0|0:0,0:0:0:0:
42,56,29367,1,0,0:0:0:0:
39,46,29440,1,2,0:0:0:0:
92,289,29588,1,2,0:0:0:0:
181,205,29736,5,2,0:0:0:0:
172,174,29809,1,2,0:0:0:0:
164,143,29883,1,2,0:0:0:0:
156,112,29957,1,2,0:0:0:0:
148,81,30032,2,2,L|142:53,6,15.9375006079674,0|0|0|0|0|0|0,0:0|0:0|0:0|0:0|0:0|0:0|0:0,0:0:0:0:
257,116,30327,5,4,0:0:0:0:
348,104,30623,1,0,0:0:0:0:
420,160,30918,1,0,0:0:0:0:
511,148,31214,1,0,0:0:0:0:
511,148,31509,6,0,L|504:224,1,63.7500024318696,12|8,0:0|0:0,0:0:0:0:
420,160,31657,2,0,L|413:236,1,63.7500024318696,8|8,0:0|0:0,0:0:0:0:
348,104,31805,1,8,0:0:0:0:
257,116,31953,6,0,L|49:96,1,191.250007295609,4|0,0:0|0:0,0:0:0:0:
0,176,32248,2,0,L|190:194,1,191.250007295609,4|0,0:0|0:0,0:0:0:0:
348,104,32544,2,0,L|341:180,1,63.7500024318696,4|0,0:0|0:0,0:0:0:0:
288,276,32692,5,4,0:0:0:0:
197,264,32987,1,0,0:0:0:0:
125,320,33283,1,0,0:0:0:0:
34,308,33578,1,0,0:0:0:0:
34,308,33874,6,0,L|40:372,1,63.7500024318696,8|0,0:0|0:0,0:0:0:0:
197,264,34022,2,0,L|191:200,1,63.7500024318696,2|0,0:0|0:0,0:0:0:0:
125,320,34170,1,4,0:0:0:0:
288,276,34317,6,0,L|264:76,1,191.250007295609,4|0,0:0|0:0,0:0:0:0:
177,48,34613,2,0,P|175:126|284:183,1,191.250007295609,4|0,0:0|0:0,0:0:0:0:
359,116,34908,2,0,P|364:83|354:50,1,63.7500024318696,4|0,0:0|0:0,0:0:0:0:
256,1,35056,6,0,P|261:43|265:86,1,85,4|0,0:0|0:0,0:0:0:0:
177,48,35352,2,0,P|167:89|156:130,1,85,8|2,0:0|0:0,0:0:0:0:
324,204,35647,6,0,P|333:245|344:286,1,85,8|0,0:0|0:0,0:0:0:0:
424,220,35943,2,0,P|446:255|471:290,1,85,8|0,0:0|0:0,0:0:0:0:
172,264,36238,6,0,P|149:299|124:334,1,85,8|0,0:0|0:0,0:0:0:0:
80,236,36534,2,0,P|46:261|11:285,1,85,8|2,0:0|0:0,0:0:0:0:
312,168,36830,6,0,P|345:193|380:217,1,85,8|0,0:0|0:0,0:0:0:0:
388,104,37125,2,0,P|428:116|469:127,1,85,8|2,0:0|0:0,0:0:0:0:
480,120,37347,1,2,0:0:0:0:
491,111,37421,6,0,P|478:95|461:82,1,42.5,2|0,0:0|0:0,0:0:0:0:
360,48,37569,2,0,P|335:51|314:63,1,48.8750009322167,2|0,0:0|0:0,0:0:0:0:
237,130,37716,2,0,P|228:155|227:183,1,55.2499974708558,2|0,0:0|0:0,0:0:0:0:
246,282,37864,2,0,P|263:303|292:320,1,61.6250018806458,2|0,0:0|0:0,0:0:0:0:
387,357,38012,6,0,L|396:280,1,68,2|0,0:0|0:0,0:0:0:0:
124,280,38160,2,0,L|112:196,1,74.3750007092953,2|0,0:0|0:0,0:0:0:0:
356,164,38307,2,0,L|364:80,1,80.7499978437424,2|0,0:0|0:0,0:0:0:0:
164,96,38455,2,0,L|156:-4,1,85,2|0,0:0|0:0,0:0:0:0:
256,16,38603,5,4,0:0:0:0:
256,16,39490,6,0,B|260:72|260:72|248:120|248:120|264:168|264:168|252:204|252:204|256:240|256:240|256:284,1,255,4|0,0:0|0:0,0:0:0:0:
256,352,39785,5,4,0:0:0:0:
280,364,39859,1,0,0:0:0:0:
306,368,39933,2,0,P|345:361|366:341,1,53.125,0|0,0:0|0:0,0:0:0:0:
424,264,40081,2,0,P|426:212|377:155,1,106.25,8|0,0:0|0:0,0:0:0:0:
325,120,40303,6,0,L|260:128,1,53.125,0|2,0:0|0:0,0:0:0:0:
224,198,40450,2,0,P|180:226|128:225,1,106.25,0|0,0:0|0:0,0:0:0:0:
55,177,40672,2,0,P|32:148|32:100,1,53.125,8|0,0:0|0:0,0:0:0:0:
32,48,40820,2,0,P|45:13|87:-10,2,53.125,0|0|2,0:0|0:0|0:0,0:0:0:0:
184,96,41115,5,0,0:0:0:0:
200,92,41189,2,0,L|272:80,1,53.125,0|8,0:0|0:0,0:0:0:0:
377,111,41337,2,0,L|325:120,1,53.125,0|0,0:0|0:0,0:0:0:0:
192,232,41485,1,0,0:0:0:0:
202,217,41559,5,2,0:0:0:0:
244,200,41633,1,0,0:0:0:0:
288,204,41706,1,0,0:0:0:0:
324,224,41780,1,0,0:0:0:0:
346,262,41854,6,0,B|360:306|352:344|352:344|408:240|336:144,1,255,4|0,0:0|0:0,0:0:0:0:
252,83,42150,5,4,0:0:0:0:
228,71,42224,1,0,0:0:0:0:
202,67,42298,2,0,P|162:73|141:93,1,53.125,0|0,0:0|0:0,0:0:0:0:
84,171,42446,2,0,P|82:223|131:280,1,106.25,8|0,0:0|0:0,0:0:0:0:
183,315,42668,6,0,L|248:307,1,53.125,0|2,0:0|0:0,0:0:0:0:
283,236,42815,2,0,P|326:207|379:209,1,106.25,0|0,0:0|0:0,0:0:0:0:
456,248,43037,2,0,L|468:312,1,53.125,8|0,0:0|0:0,0:0:0:0:
464,156,43184,2,0,L|476:220,1,53.125,0|0,0:0|0:0,0:0:0:0:
472,64,43332,5,2,0:0:0:0:
316,128,43480,1,0,0:0:0:0:
300,132,43554,2,0,P|256:130|224:110,1,53.125,0|8,0:0|0:0,0:0:0:0:
184,4,43702,2,0,P|204:43|202:80,1,53.125,0|0,0:0|0:0,0:0:0:0:
96,184,43849,1,0,0:0:0:0:
84,171,43923,5,8,0:0:0:0:
153,147,43996,1,8,0:0:0:0:
223,172,44070,1,8,0:0:0:0:
262,234,44144,1,8,0:0:0:0:
254,308,44219,6,0,P|270:223|404:288,1,255,4|0,0:0|0:0,0:0:0:0:
348,372,44514,5,2,0:0:0:0:
335,383,44588,2,0,L|326:278,1,106.25,0|0,0:0|0:0,0:0:0:0:
254,308,44810,2,0,B|210:304|210:304|194:296|194:296|118:288,1,106.25,8|0,0:0|0:0,0:0:0:0:
68,268,45032,6,0,L|64:336,1,53.125,0|2,0:0|0:0,0:0:0:0:
48,176,45179,2,0,L|44:244,1,53.125,0|0,0:0|0:0,0:0:0:0:
76,76,45327,1,0,0:0:0:0:
80,92,45401,2,0,L|76:160,1,53.125,8|0,0:0|0:0,0:0:0:0:
262,234,45549,2,0,L|258:180,1,53.125,0|0,0:0|0:0,0:0:0:0:
198,98,45697,5,2,0:0:0:0:
354,237,45844,1,0,0:0:0:0:
351,210,45918,1,0,0:0:0:0:
348,183,45992,5,2,0:0:0:0:
297,194,46065,1,0,0:0:0:0:
262,234,46139,1,0,0:0:0:0:
257,286,46213,1,0,0:0:0:0:
283,331,46288,6,0,L|360:324,1,53.125,2|0,0:0|0:0,0:0:0:0:
492,192,46436,2,0,L|415:185,1,53.125,0|0,0:0|0:0,0:0:0:0:
198,98,46583,6,0,B|292:91|292:91|344:48|344:48|496:37,1,255,4|0,0:0|0:0,0:0:0:0:
472,28,46879,6,8,L|464:100,6,42.5,0|0|0|0|0|0|0,0:0|0:0|0:0|0:0|0:0|0:0|0:0,0:0:0:0:
429,125,47174,6,0,L|437:41,1,85,4|0,0:0|0:0,0:0:0:0:
351,210,47322,2,0,P|395:222|427:266,1,85,4|0,0:0|0:0,0:0:0:0:
317,100,47470,2,0,P|284:132|230:137,1,85,4|0,0:0|0:0,0:0:0:0:
143,103,47618,6,0,B|123:74|95:63|95:63|175:43|235:75|251:155,1,255,4|0,0:0|0:0,0:0:0:0:
256,224,47913,2,0,P|244:264|200:304,1,85,8|0,0:0|0:0,0:0:0:0:
8,348,48061,6,0,B|52:344|52:344|88:332|88:332|148:328,1,127.500004863739,4|0,0:0|0:0,0:0:0:0:
215,295,48283,2,0,B|260:298|260:298|296:310|296:310|340:314,1,127.500004863739,4|0,0:0|0:0,0:0:0:0:
420,352,48504,2,0,L|492:348,1,63.7500024318696,4|0,0:0|0:0,0:0:0:0:
498,233,48652,5,0,0:0:0:0:
508,205,48726,1,0,0:0:0:0:
507,175,48800,1,0,0:0:0:0:
496,147,48874,1,0,0:0:0:0:
475,125,48949,5,8,0:0:0:0:
423,192,49022,1,8,0:0:0:0:
338,195,49095,1,8,0:0:0:0:
281,132,49169,1,8,0:0:0:0:
294,48,49243,6,0,L|404:40,1,106.25,2|0,0:0|0:0,0:0:0:0:
338,195,49539,1,8,0:0:0:0:
319,206,49613,2,0,P|283:215|254:208,1,53.125,0|0,0:0|0:0,0:0:0:0:
249,90,49761,6,0,P|274:116|283:145,1,53.125,0|2,0:0|0:0,0:0:0:0:
184,209,49908,2,0,P|194:173|214:151,1,53.125,0|0,0:0|0:0,0:0:0:0:
360,104,50056,1,0,0:0:0:0:
380,112,50130,2,0,L|456:100,1,53.125,8|0,0:0|0:0,0:0:0:0:
420,288,50278,2,0,L|368:276,2,53.125,0|0|2,0:0|0:0|0:0,0:0:0:0:
284,256,50573,5,0,0:0:0:0:
284,256,50647,1,0,0:0:0:0:
504,308,50795,2,0,L|496:232,1,53.125,0|0,0:0|0:0,0:0:0:0:
344,192,50943,2,0,L|352:116,1,53.125,0|2,0:0|0:0,0:0:0:0:
512,96,51091,2,0,L|504:20,1,53.125,0|0,0:0|0:0,0:0:0:0:
324,24,51238,1,0,0:0:0:0:
336,32,51312,6,0,P|376:48|432:36,1,85,4|0,0:0|0:0,0:0:0:0:
512,176,51460,2,0,P|470:181|436:206,1,85,4|0,0:0|0:0,0:0:0:0:
162,124,51608,6,0,L|268:132,1,106.25,4|0,0:0|0:0,0:0:0:0:
116,244,51904,1,8,0:0:0:0:
96,256,51977,2,0,P|84:230|89:189,1,53.125,0|0,0:0|0:0,0:0:0:0:
24,108,52125,2,0,P|23:134|11:158,1,53.125,0|2,0:0|0:0,0:0:0:0:
96,64,52273,2,0,P|96:37|108:13,1,53.125,0|0,0:0|0:0,0:0:0:0:
152,136,52421,1,0,0:0:0:0:
162,124,52495,5,8,0:0:0:0:
217,112,52568,1,0,0:0:0:0:
269,133,52642,1,0,0:0:0:0:
298,182,52716,2,0,L|312:292,1,106.25,0|0,0:0|0:0,0:0:0:0:
386,162,52938,5,0,0:0:0:0:
382,142,53012,2,0,L|374:78,1,53.125,0|8,0:0|0:0,0:0:0:0:
140,110,53160,2,0,B|180:114|180:114|200:122|200:122|244:126,1,106.25,0|0,0:0|0:0,0:0:0:0:
256,114,53381,6,0,P|268:158|312:186,1,85,4|0,0:0|0:0,0:0:0:0:
455,89,53529,2,0,P|410:77|364:101,1,85,4|0,0:0|0:0,0:0:0:0:
383,365,53677,2,0,B|372:268|428:304|414:203,1,170,4|0,0:0|0:0,0:0:0:0:
97,203,53972,6,0,P|100:264|132:304,1,106.25,4|0,0:0|0:0,0:0:0:0:
284,210,54268,2,0,P|281:149|249:109,1,106.25,8|0,0:0|0:0,0:0:0:0:
112,40,54564,5,8,0:0:0:0:
111,52,54637,1,8,0:0:0:0:
110,65,54711,1,8,0:0:0:0:
109,77,54785,1,8,0:0:0:0:
56,144,54859,6,0,L|136:132,1,63.7500024318696,4|0,0:0|0:0,0:0:0:0:
318,104,55007,2,0,L|254:113,1,63.7500024318696,0|0,0:0|0:0,0:0:0:0:
6,25,55155,6,0,L|122:41,1,106.25,4|0,0:0|0:0,0:0:0:0:
368,223,55450,2,0,L|252:207,1,106.25,8|0,0:0|0:0,0:0:0:0:
179,240,55746,5,8,0:0:0:0:
180,258,55819,1,8,0:0:0:0:
182,277,55893,1,8,0:0:0:0:
184,296,55967,1,8,0:0:0:0:
272,284,56041,6,0,B|236:220|152:244|152:244|128:320|40:312,1,255,4|0,0:0|0:0,0:0:0:0:
60,160,56337,6,0,L|68:224,1,63.7500024318696,4|0,0:0|0:0,0:0:0:0:
192,360,56485,2,0,L|184:296,1,63.7500024318696,0|0,0:0|0:0,0:0:0:0:
448,48,56632,6,0,L|440:111,1,63.7500024318696,4|0,0:0|0:0,0:0:0:0:
316,247,56780,2,0,L|323:183,1,63.7500024318696,0|0,0:0|0:0,0:0:0:0:
120,48,56928,5,4,0:0:0:0:
132,56,57002,1,0,0:0:0:0:
144,64,57076,2,8,L|176:84,2,31.8750012159348,0|0|0,0:0|0:0|0:0,0:0:0:0:
60,160,57224,5,4,0:0:0:0:
74,169,57298,1,0,0:0:0:0:
88,178,57372,2,8,L|125:201,2,31.8750012159348,0|0|0,0:0|0:0|0:0,0:0:0:0:
0,272,57519,6,0,B|44:276|44:276|76:296|76:296|134:299,1,127.500004863739,4|0,0:0|0:0,0:0:0:0:
268,168,57741,2,0,B|304:128|304:128|288:224,1,127.500004863739,4|0,0:0|0:0,0:0:0:0:
202,358,57963,6,0,B|170:318|170:318|178:206,1,149.004996782805,4|0,0:0|0:0,0:0:0:0:
276,49,58184,2,0,P|348:54|388:114,1,149.004996782805,4|0,0:0|0:0,0:0:0:0:
263,285,58406,6,0,P|305:285|345:271,1,85,4|0,0:0|0:0,0:0:0:0:
485,89,58554,2,0,P|442:89|402:103,1,85,4|0,0:0|0:0,0:0:0:0:
268,168,58702,5,4,0:0:0:0:
299,129,60770,5,0,0:0:0:0:
285,214,60917,1,0,0:0:0:0:
217,159,61065,1,2,0:0:0:0:
217,159,70229,5,0,0:0:0:0:
285,214,70377,1,0,0:0:0:0:
299,129,70524,1,4,0:0:0:0:
285,214,70820,5,2,0:0:0:0:
217,159,71115,1,2,0:0:0:0:
231,74,71411,1,2,0:0:0:0:
341,133,71706,6,0,L|298:128,1,42.5,2|0,0:0|0:0,0:0:0:0:
327,218,71854,2,0,L|284:213,1,42.5,2|0,0:0|0:0,0:0:0:0:
313,303,72002,1,2,0:0:0:0:
313,303,72150,6,0,B|248:296|248:296|208:308|208:308|144:300,2,170,0|4|4,0:0|0:0|0:0,0:0:0:0:
313,303,73037,5,0,0:0:0:0:
392,344,73185,1,2,0:0:0:0:
467,296,73332,1,0,0:0:0:0:
462,207,73480,1,2,0:0:0:0:
382,166,73628,5,0,0:0:0:0:
234,262,73776,1,2,0:0:0:0:
308,214,73923,1,0,0:0:0:0:
160,310,74071,6,8,L|104:304,6,31.8750012159348,0|0|0|0|0|0|0,0:0|0:0|0:0|0:0|0:0|0:0|0:0,0:0:0:0:
342,245,74367,6,0,B|296:249|296:249|278:259|278:259|234:262,1,111.562504255772,0|0,0:0|0:0,0:0:0:0:
234,262,74662,6,0,B|203:207|203:207|224:136,1,127.500004863739,4|0,0:0|0:0,0:0:0:0:
396,96,74884,2,0,B|363:150|363:150|291:167,1,127.500004863739,4|0,0:0|0:0,0:0:0:0:
235,40,75105,2,0,L|279:86,1,63.7500024318696,4|0,0:0|0:0,0:0:0:0:
342,245,75253,5,4,0:0:0:0:
452,232,75401,1,0,0:0:0:0:
342,245,75549,1,0,0:0:0:0:
160,132,75697,5,2,0:0:0:0:
156,152,75770,1,2,0:0:0:0:
152,172,75844,1,4,0:0:0:0:
32,156,75992,1,0,0:0:0:0:
152,172,76140,1,0,0:0:0:0:
308,0,76288,5,2,0:0:0:0:
312,20,76361,1,2,0:0:0:0:
316,40,76435,1,4,0:0:0:0:
460,20,76583,1,0,0:0:0:0:
172,60,76731,1,0,0:0:0:0:
328,128,76879,6,0,B|392:132|392:132|444:168|444:168|508:172,1,191.250007295609,4|0,0:0|0:0,0:0:0:0:
507,171,77174,6,0,B|521:113|521:113|408:120|388:256,1,255,4|0,0:0|0:0,0:0:0:0:
398,341,77470,6,0,L|388:256,1,85,4|0,0:0|0:0,0:0:0:0:
276,208,77618,5,0,0:0:0:0:
273,229,77691,1,0,0:0:0:0:
271,250,77765,1,0,0:0:0:0:
269,271,77839,1,0,0:0:0:0:
266,292,77913,2,0,L|256:207,1,85,4|0,0:0|0:0,0:0:0:0:
139,201,78061,5,0,0:0:0:0:
137,222,78135,1,0,0:0:0:0:
134,243,78209,2,0,L|124:158,1,85,4|0,0:0|0:0,0:0:0:0:
38,74,78357,6,0,L|77:90,2,42.5,0|0|0,0:0|0:0|0:0,0:0:0:0:
193,56,78504,2,0,L|160:83,2,42.5,8|0|0,0:0|0:0|0:0,0:0:0:0:
134,243,78652,2,0,L|124:158,1,85,8|0,0:0|0:0,0:0:0:0:
108,4,78800,5,4,0:0:0:0:
256,192,78874,12,4,79687,0:0:0:0:
63,210,79982,5,4,0:0:0:0:
112,134,80130,5,0,0:0:0:0:
150,217,80278,1,8,0:0:0:0:
196,97,80426,5,0,0:0:0:0:
230,254,80573,1,2,0:0:0:0:
286,92,80721,5,0,0:0:0:0:
284,86,80795,1,0,0:0:0:0:
283,81,80869,1,8,0:0:0:0:
302,312,81017,1,0,0:0:0:0:
504,44,81165,5,2,0:0:0:0:
470,23,81238,1,2,0:0:0:0:
431,21,81312,1,2,0:0:0:0:
396,40,81386,1,2,0:0:0:0:
375,73,81460,2,0,L|383:139,1,53.125,8|0,0:0|0:0,0:0:0:0:
286,92,81608,2,0,L|292:144,1,53.125
222,302,81756,5,2,0:0:0:0:
122,265,81903,1,0,0:0:0:0:
119,249,81977,1,0,0:0:0:0:
117,233,82051,2,0,L|125:166,1,53.125,8|0,0:0|0:0,0:0:0:0:
28,214,82199,2,0,L|34:161,1,53.125
40,64,82347,5,2,0:0:0:0:
231,181,82495,1,0,0:0:0:0:
246,179,82569,1,0,0:0:0:0:
261,177,82642,5,8,0:0:0:0:
217,147,82715,1,0,0:0:0:0:
165,149,82789,1,0,0:0:0:0:
124,181,82863,1,0,0:0:0:0:
111,231,82938,2,0,L|120:304,1,53.125,2|0,0:0|0:0,0:0:0:0:
394,283,83086,2,0,L|401:231,1,53.125,0|0,0:0|0:0,0:0:0:0:
196,272,83234,2,0,L|211:347,1,53.125,8|0,0:0|0:0,0:0:0:0:
305,324,83381,2,0,L|316:272,1,53.125,0|0,0:0|0:0,0:0:0:0:
204,52,83529,5,2,0:0:0:0:
231,181,83677,1,0,0:0:0:0:
360,154,83825,1,8,0:0:0:0:
333,25,83972,2,0,L|236:16,1,95.6250036478044,0|0,0:0|0:0,0:0:0:0:
204,52,84268,6,0,L|264:60,1,42.5,8|0,0:0|0:0,0:0:0:0:
264,160,84416,2,0,L|319:136,1,42.5,8|0,0:0|0:0,0:0:0:0:
369,223,84564,2,0,L|405:175,1,42.5,8|0,0:0|0:0,0:0:0:0:
491,225,84711,5,4,0:0:0:0:
452,124,84859,5,0,0:0:0:0:
404,200,85007,1,8,0:0:0:0:
376,60,85155,5,0,0:0:0:0:
308,220,85303,1,2,0:0:0:0:
272,40,85450,5,0,0:0:0:0:
271,34,85524,1,0,0:0:0:0:
270,28,85598,1,8,0:0:0:0:
236,280,85746,1,0,0:0:0:0:
52,160,85894,5,2,0:0:0:0:
95,175,85967,1,2,0:0:0:0:
140,168,86041,1,2,0:0:0:0:
177,141,86115,1,2,0:0:0:0:
198,100,86189,2,0,L|184:32,1,53.125,8|0,0:0|0:0,0:0:0:0:
324,48,86337,2,0,L|313:100,1,53.125,0|0,0:0|0:0,0:0:0:0:
452,219,86485,5,2,0:0:0:0:
329,243,86632,1,0,0:0:0:0:
321,263,86706,1,0,0:0:0:0:
313,283,86780,2,0,L|328:352,1,53.125,8|0,0:0|0:0,0:0:0:0:
187,335,86928,2,0,L|198:283,1,53.125,0|0,0:0|0:0,0:0:0:0:
256,192,87076,5,2,0:0:0:0:
407,315,87224,1,0,0:0:0:0:
411,326,87298,1,0,0:0:0:0:
416,338,87371,5,8,0:0:0:0:
372,323,87444,1,0,0:0:0:0:
342,288,87518,1,0,0:0:0:0:
334,242,87592,1,0,0:0:0:0:
352,200,87667,2,0,L|424:188,1,53.125,2|0,0:0|0:0,0:0:0:0:
460,47,87815,2,0,L|408:56,1,53.125,0|0,0:0|0:0,0:0:0:0:
208,160,87963,6,0,L|280:148,1,53.125,8|0,0:0|0:0,0:0:0:0:
316,7,88111,2,0,L|263:15,1,53.125,0|0,0:0|0:0,0:0:0:0:
19,26,88258,6,0,B|-16:80|32:124|32:124|115:110,1,191.250007295609,4|0,0:0|0:0,0:0:0:0:
204,72,88554,2,0,L|192:160,1,63.7500024318696,4|0,0:0|0:0,0:0:0:0:
48,256,88702,6,0,B|120:248|120:248|168:264|168:264|260:252,1,191.250007295609,4|0,0:0|0:0,0:0:0:0:
376,172,88997,2,0,P|344:170|314:160,1,63.7500024318696,2|0,0:0|0:0,0:0:0:0:
372,316,89145,2,0,P|389:289|413:268,1,63.7500024318696,8|0,0:0|0:0,0:0:0:0:
249,240,89293,2,0,P|263:268|269:299,1,63.7500024318696,8|0,0:0|0:0,0:0:0:0:
360,88,89440,6,0,L|480:75,1,106.25,4|0,0:0|0:0,0:0:0:0:
237,19,89736,2,0,P|217:79|239:140,1,106.25,8|0,0:0|0:0,0:0:0:0:
376,252,90032,6,0,L|424:248,1,42.5,2|2,0:0|0:0,0:0:0:0:
296,244,90179,2,0,L|344:240,1,42.5,2|2,0:0|0:0,0:0:0:0:
184,296,90327,6,0,L|232:292,1,42.5,2|2,0:0|0:0,0:0:0:0:
104,288,90475,2,0,L|154:282,1,42.5,2|2,0:0|0:0,0:0:0:0:
24,280,90623,6,0,L|12:168,1,106.25,10|0,0:0|0:0,0:0:0:0:
238,121,90918,2,0,P|258:181|242:241,1,106.25,8|0,0:0|0:0,0:0:0:0:
184,296,91140,1,0,0:0:0:0:
168,288,91214,5,8,0:0:0:0:
212,259,91287,1,8,0:0:0:0:
264,256,91361,1,8,0:0:0:0:
312,277,91435,1,8,0:0:0:0:
368,340,91509,5,8,0:0:0:0:
416,361,91583,1,8,0:0:0:0:
468,358,91657,2,0,B|524:336|524:268|524:268|500:216,1,159.375,8|0,0:0|0:0,0:0:0:0:
420,172,91953,6,0,L|412:236,1,53.125,0|0,0:0|0:0,0:0:0:0:
312,277,92101,1,8,0:0:0:0:
315,250,92174,1,0,0:0:0:0:
319,224,92248,1,0,0:0:0:0:
323,198,92322,1,0,0:0:0:0:
327,172,92396,5,2,0:0:0:0:
368,340,92544,1,0,0:0:0:0:
200,381,92692,1,8,0:0:0:0:
159,213,92839,1,0,0:0:0:0:
312,277,92987,6,0,B|260:296|260:296|192:284,1,106.25,2|0,0:0|0:0,0:0:0:0:
96,144,93283,1,8,0:0:0:0:
252,208,93431,6,0,B|196:204|196:204|132:232|132:232|56:226,1,178.499994552612,0|0,0:0|0:0,0:0:0:0:
8,260,93726,6,0,L|50:253,1,42.5,8|0,0:0|0:0,0:0:0:0:
232,112,93874,2,0,L|189:118,1,42.5,8|0,0:0|0:0,0:0:0:0:
0,72,94022,2,0,L|42:65,1,42.5,8|0,0:0|0:0,0:0:0:0:
252,208,94170,5,4,0:0:0:0:
301,225,94243,1,0,0:0:0:0:
352,214,94317,1,0,0:0:0:0:
389,177,94391,1,0,0:0:0:0:
412,100,94465,6,0,L|400:32,1,53.125,8|0,0:0|0:0,0:0:0:0:
500,224,94613,2,0,L|488:156,1,53.125,0|0,0:0|0:0,0:0:0:0:
384,356,94761,5,4,0:0:0:0:
345,320,94834,1,0,0:0:0:0:
294,308,94908,1,0,0:0:0:0:
243,323,94982,1,0,0:0:0:0:
180,372,95056,6,0,L|108:364,1,53.125,8|0,0:0|0:0,0:0:0:0:
0,288,95204,2,0,L|52:293,1,53.125,0|0,0:0|0:0,0:0:0:0:
8,178,95352,5,4,0:0:0:0:
10,167,95426,1,0,0:0:0:0:
12,156,95500,2,0,L|27:70,1,53.125,0|0,0:0|0:0,0:0:0:0:
124,222,95647,5,8,0:0:0:0:
122,211,95721,1,0,0:0:0:0:
121,200,95795,2,0,L|105:114,1,53.125,0|0,0:0|0:0,0:0:0:0:
233,210,95943,6,0,L|189:134,1,53.125,8|0,0:0|0:0,0:0:0:0:
341,181,96091,2,0,L|274:125,1,53.125,8|0,0:0|0:0,0:0:0:0:
432,116,96238,6,0,L|349:86,1,53.125,8|0,0:0|0:0,0:0:0:0:
495,23,96386,2,0,L|407:23,1,53.125,8|0,0:0|0:0,0:0:0:0:
185,74,96534,6,0,B|275:79|275:79|333:111|333:111|444:116,1,255.000009727478,4|0,0:0|0:0,0:0:0:0:
320,336,96977,6,0,P|301:300|312:241,1,63.7500024318696,4|0,0:0|0:0,0:0:0:0:
376,199,97125,2,0,P|415:201|461:239,1,63.7500024318696,0|0,0:0|0:0,0:0:0:0:
465,315,97273,2,0,P|443:348|386:369,1,63.7500024318696,0|0,0:0|0:0,0:0:0:0:
390,282,97421,6,0,L|396:218,1,63.7500024318696,4|0,0:0|0:0,0:0:0:0:
332,29,97569,2,0,B|292:93|292:93|316:225,1,191.250007295609,4|0,0:0|0:0,0:0:0:0:
376,199,97864,6,0,L|288:211,1,63.7500024318696,4|0,0:0|0:0,0:0:0:0:
136,185,98012,2,0,L|224:173,1,63.7500024318696,4|0,0:0|0:0,0:0:0:0:
396,218,98160,2,0,L|296:230,1,85,4|0,0:0|0:0,0:0:0:0:
116,166,98307,6,0,L|216:154,1,85,4|0,0:0|0:0,0:0:0:0:
374,162,98603,6,0,B|390:126|390:126|338:118|286:178|318:246,1,191.250007295609,4|0,0:0|0:0,0:0:0:0:
360,320,98899,5,4,0:0:0:0:
332,316,98972,1,2,0:0:0:0:
304,312,99046,1,2,0:0:0:0:
276,308,99120,1,2,0:0:0:0:
248,304,99194,2,0,B|156:288|184:356|80:336,1,159.375,8|0,0:0|0:0,0:0:0:0:
152,64,99490,5,2,0:0:0:0:
180,68,99563,1,2,0:0:0:0:
208,72,99637,1,2,0:0:0:0:
236,76,99711,1,2,0:0:0:0:
264,80,99785,2,0,B|356:96|328:28|432:48,1,159.375,8|0,0:0|0:0,0:0:0:0:
432,32,100081,5,2,0:0:0:0:
387,97,100154,1,2,0:0:0:0:
376,175,100228,1,2,0:0:0:0:
401,250,100302,1,2,0:0:0:0:
457,305,100376,2,0,L|324:288,1,106.25,8|0,0:0|0:0,0:0:0:0:
55,305,100672,5,2,0:0:0:0:
111,250,100746,1,2,0:0:0:0:
136,175,100820,1,2,0:0:0:0:
125,97,100894,1,2,0:0:0:0:
80,32,100968,2,0,P|52:64|52:116,1,63.7500024318696,8|0,0:0|0:0,0:0:0:0:
170,162,101115,2,0,P|198:130|198:78,1,63.7500024318696,8|0,0:0|0:0,0:0:0:0:
184,0,101263,6,0,B|168:28|168:28|280:8,1,127.500004863739,4|0,0:0|0:0,0:0:0:0:
376,84,101485,2,0,B|333:67|333:67|289:115|221:91,1,127.500004863739,4|0,0:0|0:0,0:0:0:0:
132,120,101706,2,0,P|180:136|204:192,1,63.7500024318696,4|0,0:0|0:0,0:0:0:0:
224,280,101854,6,0,P|188:220|208:152,1,127.500004863739,4|0,0:0|0:0,0:0:0:0:
382,125,102076,2,0,P|418:185|398:253,1,127.500004863739,4|0,0:0|0:0,0:0:0:0:
271,207,102298,2,0,L|334:197,1,63.7500024318696,4|0,0:0|0:0,0:0:0:0:
464,52,102445,6,0,B|412:44|412:44|388:32|388:32|324:24,1,127.500004863739,4|0,0:0|0:0,0:0:0:0:
272,80,102667,2,0,B|220:88|220:88|196:100|196:100|148:105,1,127.500004863739,4|0,0:0|0:0,0:0:0:0:
72,76,102889,2,0,L|0:68,1,63.7500024318696,4|0,0:0|0:0,0:0:0:0:
0,248,103037,6,0,L|108:236,1,85,4|0,0:0|0:0,0:0:0:0:
156,276,103258,2,0,L|240:285,1,85,4|0,0:0|0:0,0:0:0:0:
316,260,103480,1,4,0:0:0:0:
468,336,103628,5,2,0:0:0:0:
467,326,103775,1,0,0:0:0:0:
466,316,103923,1,8,0:0:0:0:
465,306,104071,1,2,0:0:0:0:
368,96,104219,5,8,0:0:0:0:
367,106,104366,1,0,0:0:0:0:
366,116,104514,1,0,0:0:0:0:
365,126,104662,2,0,L|280:136,1,53.125,2|2,0:0|0:0,0:0:0:0:
128,192,104810,6,0,B|188:197|188:197|220:216|220:216|325:225,1,159.375,8|0,0:0|0:0,0:0:0:0:
360,208,105105,2,0,P|372:248|360:284,1,53.125,0|0,0:0|0:0,0:0:0:0:
224,364,105253,6,0,P|204:304|220:236,1,106.25,4|0,0:0|0:0,0:0:0:0:
436,176,105549,2,0,P|456:236|440:304,1,106.25,4|0,0:0|0:0,0:0:0:0:
104,108,105844,6,0,B|192:92|172:152|284:132,1,170,4|0,0:0|0:0,0:0:0:0:
296,120,106288,6,0,L|288:180,1,42.5,2|0,0:0|0:0,0:0:0:0:
144,148,106436,2,0,L|152:208,1,42.5,0|0,0:0|0:0,0:0:0:0:
356,216,106583,6,0,L|344:280,1,53.125,2|0,0:0|0:0,0:0:0:0:
108,268,106731,2,0,L|120:332,1,53.125,0|0,0:0|0:0,0:0:0:0:
244,364,106879,6,0,L|240:316,2,31.8750012159348,8|0|8,0:0|0:0|0:0,0:0:0:0:
232,252,107027,2,0,L|228:204,2,31.8750012159348,8|0|8,0:0|0:0|0:0,0:0:0:0:
220,140,107174,1,2,0:0:0:0:
52,188,107322,5,2,0:0:0:0:
44,192,107618,1,2,0:0:0:0:
188,236,107766,1,2,0:0:0:0:
324,148,107913,1,2,0:0:0:0:
468,192,108061,6,0,B|492:224|492:224|424:240|352:192|380:92,1,255,4|0,0:0|0:0,0:0:0:0:
440,28,108357,6,0,P|464:64|464:116,1,85,4|0,0:0|0:0,0:0:0:0:
405,177,108504,2,0,P|361:179|316:153,1,85,4|0,0:0|0:0,0:0:0:0:
293,73,108652,2,0,P|312:34|357:8,1,85,4|0,0:0|0:0,0:0:0:0:
379,92,108800,6,0,B|271:107|308:34|193:50,1,191.250007295609,4|0,0:0|0:0,0:0:0:0:
224,224,109096,6,0,P|260:176|172:188,1,191.250007295609,4|0,0:0|0:0,0:0:0:0:
180,300,109391,6,0,P|228:312|264:304,1,63.7500024318696,4|0,0:0|0:0,0:0:0:0:
379,92,109687,2,0,P|344:127|333:162,1,63.7500024318696,8|0,0:0|0:0,0:0:0:0:
459,368,109982,2,0,P|445:320|420:293,1,63.7500024318696,8|0,0:0|0:0,0:0:0:0:
241,310,110130,6,0,P|270:298|295:278,1,63.7500024318696,4|0,0:0|0:0,0:0:0:0:
338,140,110278,2,0,P|332:171|338:202,1,63.7500024318696,4|0,0:0|0:0,0:0:0:0:
437,309,110426,2,0,P|412:288|382:277,1,63.7500024318696,4|0,0:0|0:0,0:0:0:0:
224,224,110573,2,0,P|194:235|169:255,1,63.7500024318696,4|0,0:0|0:0,0:0:0:0:
43,365,110721,6,0,L|32:288,1,63.7500024318696,4|0,0:0|0:0,0:0:0:0:
169,255,110869,2,0,L|180:178,1,63.7500024318696,4|0,0:0|0:0,0:0:0:0:
28,144,111017,2,0,L|17:67,1,63.7500024318696,4|0,0:0|0:0,0:0:0:0:
196,40,111165,6,0,B|200:20|208:8|208:8|172:-8|124:36|116:80|160:120,1,191.250007295609,4|0,0:0|0:0,0:0:0:0:
444,92,111460,6,0,B|416:56|372:48|372:48|364:40|364:40|308:24|260:76,1,191.250007295609,4|0,0:0|0:0,0:0:0:0:
132,188,111756,6,0,B|192:208|232:140|232:140|264:204,1,191.250007295609,4|0,0:0|0:0,0:0:0:0:
272,224,112051,6,0,L|344:212,1,63.7500024318696,8|0,0:0|0:0,0:0:0:0:
416,232,112199,2,0,L|488:220,1,63.7500024318696,8|0,0:0|0:0,0:0:0:0:
268,312,112347,2,0,L|340:300,1,63.7500024318696,8|0,0:0|0:0,0:0:0:0:
412,320,112495,2,0,L|484:308,1,63.7500024318696,4|0,0:0|0:0,0:0:0:0:
396,150,112642,5,4,0:0:0:0:
351,123,112715,1,0,0:0:0:0:
299,130,112789,1,4,0:0:0:0:
264,169,112863,1,0,0:0:0:0:
228,207,112939,1,4,0:0:0:0:
177,214,113013,1,0,0:0:0:0:
132,188,113086,6,0,L|116:96,1,63.7500024318696,4|0,0:0|0:0,0:0:0:0:
188,32,113234,2,0,B|212:-8|212:-8|252:64|204:140,1,191.250007295609,8|0,0:0|0:0,0:0:0:0:
108,212,113529,2,0,L|92:120,1,63.7500024318696,4|0,0:0|0:0,0:0:0:0:
351,123,113677,6,0,L|335:215,1,63.7500024318696,4|0,0:0|0:0,0:0:0:0:
407,279,113825,2,0,B|431:319|431:319|471:247|423:171,1,191.250007295609,8|0,0:0|0:0,0:0:0:0:
327,99,114120,2,0,L|311:191,1,63.7500024318696,4|0,0:0|0:0,0:0:0:0:
288,292,114268,5,2,0:0:0:0:
256,288,114342,1,0,0:0:0:0:
224,284,114416,1,8,0:0:0:0:
192,280,114490,1,0,0:0:0:0:
156,304,114564,5,2,0:0:0:0:
124,300,114638,1,0,0:0:0:0:
92,296,114712,1,8,0:0:0:0:
60,292,114786,1,0,0:0:0:0:
28,260,114859,5,4,0:0:0:0:
20,208,114933,1,0,0:0:0:0:
40,160,115007,1,4,0:0:0:0:
84,136,115081,1,0,0:0:0:0:
136,140,115155,1,4,0:0:0:0:
172,176,115229,1,0,0:0:0:0:
224,184,115303,1,4,0:0:0:0:
268,164,115376,1,0,0:0:0:0:
292,120,115450,6,0,P|295:87|275:35,1,63.7500024318696,2|0,0:0|0:0,0:0:0:0:
112,104,115598,2,0,B|98:86|72:72|72:72|216:96,1,191.250007295609,4|0,0:0|0:0,0:0:0:0:
397,298,115894,2,0,B|410:280|437:266|437:266|293:290,1,191.250007295609,4|0,0:0|0:0,0:0:0:0:
223,326,116189,6,0,P|216:295|220:264,1,63.7500024318696,4|0,0:0|0:0,0:0:0:0:
288,57,116337,2,0,P|295:88|292:120,1,63.7500024318696,0|0,0:0|0:0,0:0:0:0:
256,192,116485,5,4,0:0:0:0:
256,192,116559,12,0,118997,0:0:0:0:
