osu file format v14

[General]
AudioFilename: audio.mp3
AudioLeadIn: 0
PreviewTime: 79687
Countdown: 0
SampleSet: Soft
StackLeniency: 0.7
Mode: 0
LetterboxInBreaks: 0
WidescreenStoryboard: 0

[Editor]
DistanceSpacing: 1
BeatDivisor: 4
GridSize: 32
TimelineZoom: 2

[Metadata]
Title:2 MINUTES FIGHTERS
TitleUnicode:2 MINUTES FIGHTERS
Artist:P*Light
ArtistUnicode:P*Light
Creator:Regraz
Version:NOVICE
Source:SOUND VOLTEX III GRAVITY WARS
Tags:mug SDVX The 4th KAC Konami Arcade Championship two 嬬武器雷刀 tsumabuki raito F_D_Flourite HabiHolic Abhor Lobelia Gamu toybot
BeatmapID:1149472
BeatmapSetID:542163

[Difficulty]
HPDrainRate:3
CircleSize:3
OverallDifficulty:3
ApproachRate:4
SliderMultiplier:0.999999999999999
SliderTickRate:1

[Events]
//Background and Video events
0,0,"1BG.jpg",0,0
//Break Periods
2,61266,68909
//Storyboard Layer 0 (Background)
//Storyboard Layer 1 (Fail)
//Storyboard Layer 2 (Pass)
//Storyboard Layer 3 (Foreground)
//Storyboard Sound Samples

[TimingPoints]
771,295.566502463054,4,2,1,60,1,0
11411,-100,4,2,1,50,0,0
20869,-100,4,2,1,60,0,0
70524,-100,4,2,1,50,0,0
75253,-100,4,2,1,60,0,0
79982,-100,4,2,1,65,0,1
89145,-100,4,2,1,65,0,0
89440,-100,4,2,1,65,0,1
98307,-100,4,2,1,65,0,1
98603,-100,4,2,1,65,0,0
98899,-100,4,2,1,65,0,1
101263,-100,4,2,1,65,0,1
103628,-100,4,2,1,65,0,1
105253,-100,4,2,1,65,0,1
108357,-100,4,2,1,65,0,0
118997,-100,4,2,1,30,0,0

[Colours]
Combo1 : 199,187,46
Combo2 : 217,17,172
Combo3 : 83,202,253
Combo4 : 171,10,34

[HitObjects]
81,68,771,6,0,P|55:142|86:213,1,150,8|4,0:0|0:0,0:0:0:0:
164,259,1509,2,0,L|275:244,1,99.9999999999999,4|4,0:0|0:0,0:0:0:0:
296,283,1953,2,0,L|466:304,1,150,4|4,0:0|0:0,0:0:0:0:
453,201,2692,2,0,L|345:186,1,99.9999999999999,4|4,0:0|0:0,0:0:0:0:
304,179,3135,5,4,0:0:0:0:
306,78,3431,1,0,0:0:0:0:
213,40,3726,2,0,P|148:56|103:40,1,99.9999999999999,2|2,0:0|0:0,0:0:0:0:
41,112,4317,2,0,L|39:221,1,99.9999999999999,8|0,0:0|0:0,0:0:0:0:
138,223,4908,2,0,L|136:332,1,99.9999999999999,2|2,0:0|0:0,0:0:0:0:
231,353,5500,6,0,P|295:333|337:349,1,99.9999999999999,8|0,0:0|0:0,0:0:0:0:
371,360,5943,1,4,0:0:0:0:
457,310,6238,2,0,L|464:202,1,99.9999999999999,4|4,0:0|0:0,0:0:0:0:
466,159,6682,2,0,P|422:183|368:176,1,99.9999999999999,4|0,0:0|0:0,0:0:0:0:
327,158,7125,1,4,0:0:0:0:
263,80,7421,6,0,L|159:86,1,99.9999999999999,4|4,0:0|0:0,0:0:0:0:
113,90,7864,2,0,P|124:149|99:199,1,99.9999999999999,4|8,0:0|0:0,0:0:0:0:
37,253,8455,2,0,P|26:312|51:362,1,99.9999999999999,8|8,0:0|0:0,0:0:0:0:
126,298,9046,2,0,B|226:268|226:320|336:296,1,200,2|2,0:0|0:0,0:0:0:0:
396,230,9933,1,2,0:0:0:0:
423,326,10229,5,6,0:0:0:0:
145,38,11411,6,0,L|30:25,1,99.9999999999999,4|2,0:1|0:0,0:0:0:0:
14,122,12002,2,0,L|113:133,1,99.9999999999999,0|8,0:0|0:0,0:0:0:0:
193,192,12593,2,0,P|190:260|197:305,2,99.9999999999999,2|2|2,0:0|0:0|0:0,0:0:0:0:
273,133,13480,1,8,0:0:0:0:
352,193,13775,6,0,P|355:261|348:306,2,99.9999999999999,0|2|2,0:0|0:0|0:0,0:0:0:0:
273,133,14662,1,8,0:0:0:0:
220,47,14958,2,0,P|123:53|102:153,1,200,2|4,0:0|0:0,0:0:0:0:
174,323,16140,6,0,L|61:309,2,99.9999999999999,4|2|2,0:0|0:0|0:0,0:0:0:0:
255,264,17027,1,8,0:0:0:0:
336,321,17322,2,0,L|449:307,1,99.9999999999999,4|2,0:0|0:0,0:0:0:0:
471,215,17913,2,8,P|485:138|474:95,1,99.9999999999999,2|0,0:0|0:0,0:0:0:0:
397,62,18504,6,0,P|322:54|281:63,1,99.9999999999999,4|4,0:0|0:0,0:0:0:0:
230,132,19096,2,0,P|141:147|77:115,1,150,4|4,0:0|0:0,0:0:0:0:
27,203,19835,2,0,L|31:255,1,50,4|8,0:0|0:0,0:0:0:0:
322,324,20869,6,0,L|213:327,2,99.9999999999999,4|4|2,0:0|0:0|0:0,0:0:0:0:
404,267,21756,1,8,0:0:0:0:
493,311,22051,2,0,P|499:249|479:207,1,99.9999999999999,4|4,0:0|0:0,0:0:0:0:
396,168,22642,2,0,L|403:57,1,99.9999999999999,2|8,0:0|0:0,0:0:0:0:
303,48,23234,6,0,B|235:38|235:38|191:81|101:84,1,200,4|8,0:0|0:0,0:0:0:0:
25,132,24120,1,2,0:0:0:0:
25,132,24416,2,0,P|19:209|24:239,1,99.9999999999999,4|4,0:0|0:0,0:0:0:0:
84,309,25007,2,0,L|204:298,1,99.9999999999999,2|2,0:0|0:0,0:0:0:0:
275,338,25598,6,0,P|350:366|473:328,1,200,4|4,0:0|0:0,0:0:0:0:
414,193,26633,2,0,L|425:90,1,99.9999999999999,4|4,0:0|0:0,0:0:0:0:
448,49,27076,2,0,P|401:60|333:40,1,99.9999999999999,4|4,0:0|0:0,0:0:0:0:
254,24,27667,1,4,0:0:0:0:
181,93,27963,6,0,L|71:80,1,99.9999999999999,4|4,0:0|0:0,0:0:0:0:
35,99,28406,2,0,P|25:166|41:213,1,99.9999999999999,4|4,0:0|0:0,0:0:0:0:
54,241,28849,1,4,0:0:0:0:
84,336,29145,2,0,L|204:325,1,99.9999999999999,8|2,0:0|0:0,0:0:0:0:
283,331,29736,2,0,L|382:340,1,99.9999999999999,0|2,0:0|0:0,0:0:0:0:
459,275,30327,5,4,0:0:0:0:
120,61,31509,2,0,L|108:173,1,99.9999999999999,12|8,0:0|0:0,0:0:0:0:
132,205,31953,2,0,L|19:191,2,99.9999999999999,4|4|4,0:0|0:0|0:0,0:0:0:0:
181,211,32692,5,4,0:0:0:0:
470,103,33874,2,0,L|351:94,1,99.9999999999999,8|4,0:0|0:0,0:0:0:0:
328,68,34317,2,0,P|316:135|330:181,2,99.9999999999999,4|4|4,0:0|0:0|0:0,0:0:0:0:
320,18,35056,6,0,P|258:15|199:20,1,99.9999999999999,4|8,0:0|0:0,0:0:0:0:
172,105,35647,2,0,P|122:107|72:104,1,99.9999999999999,8|8,0:0|0:0,0:0:0:0:
47,201,36238,2,0,P|55:314|139:362,1,200,8|8,0:0|0:0,0:0:0:0:
199,297,37125,1,8,0:0:0:0:
281,354,37421,6,0,P|354:346|386:358,1,99.9999999999999,2|2,0:0|0:0,0:0:0:0:
466,307,38012,2,0,L|469:201,1,99.9999999999999,2|2,0:0|0:0,0:0:0:0:
472,106,38603,1,4,0:0:0:0:
74,60,39785,6,0,P|59:104|82:165,1,99.9999999999999,4|8,0:0|0:0,0:0:0:0:
167,187,40376,2,0,L|162:296,1,99.9999999999999,2|8,0:0|0:0,0:0:0:0:
261,301,40968,2,0,L|265:201,2,99.9999999999999,2|8|2,0:0|0:0|0:0,0:0:0:0:
346,351,41854,1,4,0:0:0:0:
403,268,42150,6,0,P|464:273|506:295,2,99.9999999999999,4|8|2,0:0|0:0|0:0,0:0:0:0:
322,207,43037,1,8,0:0:0:0:
248,274,43332,2,0,L|140:261,1,99.9999999999999,2|8,0:0|0:0,0:0:0:0:
125,164,43923,2,0,L|25:152,1,99.9999999999999,8|4,0:0|0:0,0:0:0:0:
40,52,44514,6,0,L|250:75,1,200,2|2,0:0|0:0,0:0:0:0:
324,22,45401,1,8,0:0:0:0:
408,75,45697,2,0,P|420:126|403:184,1,99.9999999999999,2|2,0:0|0:0,0:0:0:0:
324,224,46288,2,0,P|266:207|221:210,1,99.9999999999999,2|4,0:0|0:0,0:0:0:0:
158,281,46879,6,0,P|84:266|76:155,1,200,0|4,0:0|0:0,0:0:0:0:
151,93,47766,1,0,0:0:0:0:
241,135,48061,2,0,L|402:130,1,150,4|4,0:0|0:0,0:0:0:0:
432,102,48652,2,0,P|428:172|444:210,1,99.9999999999999,0|8,0:0|0:0,0:0:0:0:
465,295,49243,6,0,L|355:282,1,99.9999999999999,2|8,0:0|0:0,0:0:0:0:
277,330,49835,2,0,L|167:317,1,99.9999999999999,2|8,0:0|0:0,0:0:0:0:
90,268,50426,2,0,P|76:326|95:375,2,99.9999999999999,2|8|2,0:0|0:0|0:0,0:0:0:0:
173,212,51312,1,4,0:0:0:0:
150,114,51608,6,0,L|28:119,1,99.9999999999999,4|8,0:0|0:0,0:0:0:0:
57,18,52199,2,0,L|156:13,1,99.9999999999999,2|8,0:0|0:0,0:0:0:0:
241,67,52790,2,0,P|300:83|351:67,1,99.9999999999999,2|8,0:0|0:0,0:0:0:0:
429,35,53381,2,0,L|497:41,2,50,4|4|4,0:0|0:0|0:0,0:0:0:0:
424,135,53972,6,0,P|416:200|430:241,1,99.9999999999999,4|8,0:0|0:0,0:0:0:0:
490,309,54564,2,0,P|431:334|383:328,1,99.9999999999999,8|4,0:0|0:0,0:0:0:0:
328,257,55155,2,0,P|271:244|223:252,2,99.9999999999999,4|8|8,0:0|0:0|0:0,0:0:0:0:
419,216,56041,1,4,0:0:0:0:
343,150,56337,6,0,L|350:38,1,99.9999999999999,4|4,0:0|0:0,0:0:0:0:
249,50,56928,2,0,L|242:149,1,99.9999999999999,4|4,0:0|0:0,0:0:0:0:
184,231,57519,2,0,P|98:244|74:72,1,300,4|4,0:0|0:0,0:0:0:0:
159,31,58702,5,4,0:0:0:0:
256,192,58775,12,2,61066,0:0:0:0:
40,269,70229,5,0,0:0:0:0:
108,196,70524,2,0,P|119:133|105:84,2,99.9999999999999,4|2|2,0:0|0:0|0:0,0:0:0:0:
173,271,71411,1,2,0:0:0:0:
245,202,71706,2,0,L|359:211,1,99.9999999999999,2|2,0:0|0:0,0:0:0:0:
413,136,72298,2,0,L|527:145,1,99.9999999999999,0|0,0:0|0:0,0:0:0:0:
506,243,72889,6,0,P|454:320|343:302,1,200,0|2,0:0|0:0,0:0:0:0:
266,269,73775,1,2,0:0:0:0:
180,320,74071,2,8,P|129:309|69:318,1,99.9999999999999,0|0,0:0|0:0,0:0:0:0:
50,218,74662,2,0,P|33:127|71:71,1,150,4|4,0:0|0:0,0:0:0:0:
109,72,75253,6,0,L|221:84,1,99.9999999999999,4|0,0:0|0:0,0:0:0:0:
303,52,75844,2,0,L|415:64,1,99.9999999999999,4|0,0:0|0:0,0:0:0:0:
463,142,76436,2,0,P|472:215|463:249,1,99.9999999999999,4|0,0:0|0:0,0:0:0:0:
440,282,76879,2,0,L|319:266,1,99.9999999999999,4|4,0:0|0:0,0:0:0:0:
259,327,77470,6,0,P|161:336|102:202,1,250,4|4,0:0|0:0,0:0:0:0:
157,134,78504,2,0,P|87:118|42:129,1,99.9999999999999,8|4,0:0|0:0,0:0:0:0:
349,42,79687,1,4,0:0:0:0:
435,91,79982,6,0,L|446:200,1,99.9999999999999,8|8,0:0|0:0,0:0:0:0:
460,289,80573,2,0,P|400:297|351:278,1,99.9999999999999,2|8,0:0|0:0,0:0:0:0:
296,210,81165,2,0,P|237:196|183:205,2,99.9999999999999,2|8|2,0:0|0:0|0:0,0:0:0:0:
363,285,82051,1,8,0:0:0:0:
284,346,82347,6,0,L|166:337,1,99.9999999999999,2|8,0:0|0:0,0:0:0:0:
85,354,82938,2,0,P|78:300|97:249,1,99.9999999999999,2|8,0:0|0:0,0:0:0:0:
182,214,83529,2,0,L|168:104,2,99.9999999999999,2|8|2,0:0|0:0|0:0,0:0:0:0:
274,251,84416,1,8,0:0:0:0:
356,307,84711,6,0,P|424:318|464:302,1,99.9999999999999,4|8,0:0|0:0,0:0:0:0:
474,210,85303,2,0,L|488:94,1,99.9999999999999,2|8,0:0|0:0,0:0:0:0:
421,34,85894,2,0,B|364:20|310:24,1,99.9999999999999,2|8,0:0|0:0,0:0:0:0:
233,69,86485,2,0,P|195:81|123:73,1,99.9999999999999,2|8,0:0|0:0,0:0:0:0:
69,1,87076,6,0,P|33:61|106:174,1,200,2|2,0:0|0:0,0:0:0:0:
187,160,87963,1,8,0:0:0:0:
145,250,88258,2,0,L|41:262,1,99.9999999999999,4|4,0:0|0:0,0:0:0:0:
24,307,88702,2,0,P|48:350|152:360,1,150,4|8,0:0|0:0,0:0:0:0:
237,342,89440,6,0,P|312:329|352:340,1,99.9999999999999,4|8,0:0|0:0,0:0:0:0:
432,355,90032,2,0,L|442:256,1,99.9999999999999,2|2,0:0|0:0,0:0:0:0:
385,173,90623,2,0,L|395:74,2,99.9999999999999,10|8|8,0:0|0:0|0:0,0:0:0:0:
301,228,91509,1,8,0:0:0:0:
213,180,91805,6,0,P|153:155|103:159,1,99.9999999999999,2|8,0:0|0:0,0:0:0:0:
35,210,92396,2,0,L|22:322,1,99.9999999999999,2|8,0:0|0:0,0:0:0:0:
118,341,92987,2,0,B|174:332|174:332|235:373|321:354,1,200,2|2,0:0|0:0,0:0:0:0:
393,298,93874,1,8,0:0:0:0:
477,351,94170,6,0,P|492:293|476:240,1,99.9999999999999,4|8,0:0|0:0,0:0:0:0:
416,180,94761,1,4,0:0:0:0:
438,82,95056,1,8,0:0:0:0:
350,21,95352,2,0,L|230:13,1,99.9999999999999,4|8,0:0|0:0,0:0:0:0:
154,44,95943,1,12,0:0:0:0:
78,109,96238,1,8,0:0:0:0:
76,210,96534,6,0,P|22:268|44:341,2,150,4|4|4,0:0|0:0|0:0,0:0:0:0:
123,227,97569,2,0,P|182:254|266:229,1,150,4|4,0:0|0:0,0:0:0:0:
343,172,98307,2,0,L|452:184,1,99.9999999999999,4|4,0:0|0:0,0:0:0:0:
448,82,98899,6,0,L|348:71,1,99.9999999999999,4|8,0:0|0:0,0:0:0:0:
259,116,99490,2,0,L|151:125,1,99.9999999999999,2|8,0:0|0:0,0:0:0:0:
142,223,100081,2,0,L|241:214,1,99.9999999999999,2|8,0:0|0:0,0:0:0:0:
335,248,100672,2,0,P|325:317|341:351,1,99.9999999999999,2|8,0:0|0:0,0:0:0:0:
433,365,101263,6,0,L|426:195,1,150,4|4,0:0|0:0,0:0:0:0:
454,173,101854,2,0,P|399:213|315:183,1,150,4|4,0:0|0:0,0:0:0:0:
317,143,102445,2,0,P|240:115|157:138,1,150,4|4,0:0|0:0,0:0:0:0:
127,143,103037,2,0,L|139:296,1,150,4|4,0:0|0:0,0:0:0:0:
101,326,103628,6,0,B|150:312|150:312|204:353|303:337,1,200,2|8,0:0|0:0,0:0:0:0:
368,273,104514,1,0,0:0:0:0:
445,335,104810,2,0,P|463:271|457:235,1,99.9999999999999,8|0,0:0|0:0,0:0:0:0:
432,195,105253,2,0,P|419:128|427:90,1,99.9999999999999,4|4,0:0|0:0,0:0:0:0:
499,30,105844,6,0,P|431:57|345:25,1,150,4|2,0:0|0:0,0:0:0:0:
259,28,106583,2,0,L|137:37,1,99.9999999999999,2|8,0:0|0:0,0:0:0:0:
72,86,107174,2,0,B|56:136|56:136|83:224|83:224|60:300,1,200,2|2,0:0|0:0,0:0:0:0:
131,354,108061,1,4,0:0:0:0:
210,292,108357,6,0,P|294:259|426:351,1,250,4|4,0:0|0:0,0:0:0:0:
463,246,109391,2,0,P|485:146|472:80,1,150,4|2,0:0|0:0,0:0:0:0:
400,37,110130,2,0,L|288:51,1,99.9999999999999,4|4,0:0|0:0,0:0:0:0:
202,31,110721,6,0,P|166:168|238:255,1,250,4|4,0:0|0:0,0:0:0:0:
325,241,111756,2,0,P|287:324|218:340,1,150,4|8,0:0|0:0,0:0:0:0:
141,307,112495,2,0,L|28:315,1,99.9999999999999,4|4,0:0|0:0,0:0:0:0:
36,214,113086,6,0,P|26:155|43:105,1,99.9999999999999,4|0,0:0|0:0,0:0:0:0:
111,50,113677,2,0,L|217:58,1,99.9999999999999,4|0,0:0|0:0,0:0:0:0:
310,57,114268,2,0,L|409:49,1,99.9999999999999,2|2,0:0|0:0,0:0:0:0:
479,121,114859,2,0,P|486:242|416:282,1,200,4|2,0:0|0:0,0:0:0:0:
385,256,115598,6,0,P|311:246|276:257,2,99.9999999999999,4|4|4,0:0|0:0|0:0,0:0:0:0:
332,341,116485,1,4,0:0:0:0:
256,192,116633,12,0,118997,0:0:0:0:
