osu file format v14

[General]
AudioFilename: audio.mp3
AudioLeadIn: 0
PreviewTime: 79687
Countdown: 0
SampleSet: Soft
StackLeniency: 0.7
Mode: 0
LetterboxInBreaks: 0
WidescreenStoryboard: 0

[Editor]
Bookmarks: 11411,70229
DistanceSpacing: 1.3
BeatDivisor: 4
GridSize: 32
TimelineZoom: 2

[Metadata]
Title:2 MINUTES FIGHTERS
TitleUnicode:2 MINUTES FIGHTERS
Artist:P*Light
ArtistUnicode:P*Light
Creator:Regraz
Version:Lobelia's ADVANCED
Source:SOUND VOLTEX III GRAVITY WARS
Tags:mug SDVX The 4th KAC Konami Arcade Championship two 嬬武器雷刀 tsumabuki raito F_D_Flourite HabiHolic Abhor Lobelia Gamu toybot
BeatmapID:1311531
BeatmapSetID:542163

[Difficulty]
HPDrainRate:5
CircleSize:3.5
OverallDifficulty:5
ApproachRate:7
SliderMultiplier:1.2
SliderTickRate:1

[Events]
//Background and Video events
0,0,"1BG.jpg",0,0
//Break Periods
2,61266,69254
//Storyboard Layer 0 (Background)
//Storyboard Layer 1 (Fail)
//Storyboard Layer 2 (Pass)
//Storyboard Layer 3 (Foreground)
//Storyboard Sound Samples

[TimingPoints]
771,295.566502463054,4,2,1,60,1,0
11411,-100,4,2,1,50,0,0
20869,-100,4,2,1,60,0,0
70524,-100,4,2,1,50,0,0
75253,-100,4,2,1,60,0,0
79982,-100,4,2,1,65,0,1
89145,-100,4,2,1,65,0,0
89440,-100,4,2,1,65,0,1
98307,-100,4,2,1,65,0,1
98603,-100,4,2,1,65,0,0
98899,-100,4,2,1,65,0,1
101263,-100,4,2,1,65,0,1
103628,-100,4,2,1,65,0,1
105253,-100,4,2,1,65,0,1
108357,-100,4,2,1,65,0,0
118997,-100,4,2,1,30,0,0

[Colours]
Combo1 : 199,187,46
Combo2 : 217,17,172
Combo3 : 83,202,253
Combo4 : 171,10,34

[HitObjects]
217,232,771,6,0,L|339:244,1,120,8|0,0:0|0:0,0:0:0:0:
391,298,1214,2,0,P|415:248|392:189,2,120,4|4|4,0:0|0:0|0:0,0:0:0:0:
317,324,1953,6,0,L|196:311,1,120,4|0,0:0|0:0,0:0:0:0:
141,256,2396,2,0,P|120:318|144:369,2,120,4|4|4,0:0|0:0|0:0,0:0:0:0:
217,232,3135,6,0,L|213:157,2,60,4|0|0,0:0|0:0|0:0,0:0:0:0:
141,256,3578,2,0,P|82:277|28:253,1,120,0|2,0:0|0:0,0:0:0:0:
86,199,4022,2,0,L|80:130,1,60,2|2,0:0|0:0,0:0:0:0:
19,90,4317,6,0,P|71:63|133:80,1,120,8|0,0:0|0:0,0:0:0:0:
163,146,4761,2,0,B|199:141|233:162|233:162|272:183|325:160|325:160|359:186|397:175,1,240,0|2,0:0|0:0,0:0:0:0:
377,99,5500,6,0,L|372:34,2,60,8|0|0,0:0|0:0|0:0,0:0:0:0:
450,125,5943,2,0,P|470:179|432:242,2,120,4|4|4,0:0|0:0|0:0,0:0:0:0:
391,176,6682,6,0,L|263:197,1,120,4|0,0:0|0:0,0:0:0:0:
225,257,7125,2,0,L|91:242,2,120,4|4|4,0:0|0:0|0:0,0:0:0:0:
297,285,7864,6,0,P|281:310|255:329,1,60,4|0,0:0|0:0,0:0:0:0:
177,329,8160,2,0,L|106:322,1,60,8|0,0:0|0:0,0:0:0:0:
46,290,8455,2,0,P|32:265|33:223,1,60,8|0,0:0|0:0,0:0:0:0:
77,171,8751,2,0,P|86:137|83:106,1,60,8|0,0:0|0:0,0:0:0:0:
49,42,9046,5,2,0:0:0:0:
256,192,9120,12,6,10229,0:0:0:0:
434,63,11411,6,0,P|443:121|402:174,1,120,4|2,0:1|0:0,0:0:0:0:
331,169,11854,1,0,0:0:0:0:
279,110,12002,2,0,P|248:105|210:113,1,60,0|0,0:0|0:0,0:0:0:0:
174,173,12298,2,0,P|140:179|110:175,1,60,8|0,0:0|0:0,0:0:0:0:
63,117,12593,6,0,P|77:190|61:248,1,120,2|2,0:0|0:0,0:0:0:0:
24,299,13037,1,0,0:0:0:0:
88,341,13184,2,0,L|161:334,1,60,2|0,0:0|0:0,0:0:0:0:
225,322,13480,1,8,0:0:0:0:
225,322,13628,1,8,0:0:0:0:
290,280,13775,6,0,B|311:311|300:346|300:346|336:358|372:354,1,120,0|2,0:0|0:0,0:0:0:0:
423,327,14219,1,0,0:0:0:0:
466,262,14367,2,0,L|483:196,1,60,2|0,0:0|0:0,0:0:0:0:
403,191,14662,2,0,L|395:121,1,60,8|0,0:0|0:0,0:0:0:0:
444,68,14958,6,0,B|410:40|359:59|359:59|323:95|258:78,1,180,2|0,0:0|0:0,0:0:0:0:
206,44,15549,2,0,P|164:31|117:47,2,90,4|4|4,0:0|0:0|0:0,0:0:0:0:
163,109,16140,6,0,P|146:162|173:222,1,120,4|2,0:0|0:0,0:0:0:0:
238,256,16583,1,0,0:0:0:0:
310,225,16731,2,0,P|317:260|307:291,1,60,2|0,0:0|0:0,0:0:0:0:
252,334,17027,2,0,P|220:333|191:320,1,60,8|8,0:0|0:0,0:0:0:0:
238,256,17322,6,0,P|282:310|323:341,1,120,4|2,0:0|0:0,0:0:0:0:
399,350,17766,1,0,0:0:0:0:
461,303,17913,2,0,L|474:238,1,60,2|0,0:0|0:0,0:0:0:0:
404,205,18209,2,8,L|391:134,1,60,0|0,0:0|0:0,0:0:0:0:
437,81,18504,6,0,P|380:69|328:103,1,120,4|4,0:0|0:0,0:0:0:0:
188,166,19096,1,4,0:0:0:0:
188,166,19243,2,0,L|181:94,1,60,4|0,0:0|0:0,0:0:0:0:
103,104,19539,6,0,L|113:235,1,120,4|4,0:0|0:0,0:0:0:0:
166,280,19982,1,8,0:0:0:0:
238,250,20130,6,0,B|278:232|325:237|325:237|310:286|330:325|364:347|396:345,1,240,0|0,0:0|0:0,0:0:0:0:
401,265,20869,6,0,L|469:260,1,60,4|0,0:0|0:0,0:0:0:0:
486,186,21165,2,0,P|496:143|481:65,1,120,4|2,0:0|0:0,0:0:0:0:
406,51,21608,1,2,0:0:0:0:
344,98,21756,2,0,L|271:93,1,60,8|0,0:0|0:0,0:0:0:0:
216,133,22051,6,0,B|203:109|207:75|207:75|174:84|144:65,1,120,4|4,0:0|0:0,0:0:0:0:
70,59,22495,1,0,0:0:0:0:
59,135,22642,2,0,L|46:273,1,120,2|8,0:0|0:0,0:0:0:0:
108,304,23086,1,0,0:0:0:0:
185,291,23234,6,0,P|226:288|260:292,1,60,4|0,0:0|0:0,0:0:0:0:
316,319,23529,2,0,P|351:323|386:318,1,60,4|0,0:0|0:0,0:0:0:0:
447,288,23825,2,0,B|461:263|453:230|453:230|440:191|458:144,1,120,8|2,0:0|0:0,0:0:0:0:
482,99,24268,1,0,0:0:0:0:
404,103,24416,6,0,P|344:120|280:105,1,120,4|4,0:0|0:0,0:0:0:0:
227,60,24859,1,4,0:0:0:0:
150,45,25007,2,0,L|81:52,1,60,2|0,0:0|0:0,0:0:0:0:
85,129,25303,2,0,L|159:121,1,60,2|0,0:0|0:0,0:0:0:0:
211,163,25598,6,0,P|225:214|167:261,1,120,4|4,0:0|0:0,0:0:0:0:
114,220,26041,1,4,0:0:0:0:
114,220,26189,2,0,L|31:230,1,60,4|4,0:0|0:0,0:0:0:0:
38,360,26633,6,0,L|176:347,1,120,4|4,0:0|0:0,0:0:0:0:
235,344,27076,1,4,0:0:0:0:
235,344,27224,1,4,0:0:0:0:
312,347,27371,2,0,B|328:313|313:276|313:276|375:283,1,120,4|4,0:0|0:0,0:0:0:0:
437,293,27815,1,4,0:0:0:0:
411,219,27963,6,0,P|401:157|427:95,1,120,4|4,0:0|0:0,0:0:0:0:
486,49,28406,2,0,P|423:61|360:45,1,120,4|4,0:0|0:0,0:0:0:0:
296,77,28849,2,0,L|220:86,1,60,4|4,0:0|0:0,0:0:0:0:
169,124,29145,6,0,L|96:116,1,60,8|0,0:0|0:0,0:0:0:0:
98,194,29440,2,0,L|159:202,1,60,2|2,0:0|0:0,0:0:0:0:
232,177,29736,6,0,B|242:218|222:247|222:247|272:271|350:263,1,180,2|0,0:0|0:0,0:0:0:0:
402,249,30327,5,4,0:0:0:0:
371,95,30623,1,0,0:0:0:0:
482,204,30918,1,0,0:0:0:0:
327,182,31214,1,0,0:0:0:0:
465,111,31509,6,0,L|470:76,4,30,12|8|8|8|8,0:0|0:0|0:0|0:0|0:0,0:0:0:0:
406,170,31953,2,0,P|349:163|272:182,1,120,4|4,0:0|0:0,0:0:0:0:
149,247,32544,1,4,0:0:0:0:
149,247,32692,5,4,0:0:0:0:
288,175,32987,1,0,0:0:0:0:
219,315,33283,1,0,0:0:0:0:
192,161,33578,1,0,0:0:0:0:
307,265,33874,6,0,L|351:263,4,30,8|0|2|0|4,0:0|0:0|0:0|0:0|0:0,0:0:0:0:
227,235,34317,2,0,P|166:227|96:242,1,120,4|4,0:0|0:0,0:0:0:0:
29,102,34908,1,4,0:0:0:0:
29,102,35056,6,0,L|20:171,2,60,4|0|8,0:0|0:0|0:0,0:0:0:0:
184,84,35647,2,0,L|174:153,2,60,8|0|8,0:0|0:0|0:0,0:0:0:0:
338,64,36238,2,0,L|324:139,2,60,8|0|8,0:0|0:0|0:0,0:0:0:0:
494,51,36830,2,0,L|481:120,2,60,8|0|8,0:0|0:0|0:0,0:0:0:0:
412,184,37421,6,0,P|441:202|459:233,1,60,2|2,0:0|0:0,0:0:0:0:
385,258,37716,2,0,P|382:298|363:328,1,60,2|2,0:0|0:0,0:0:0:0:
308,271,38012,2,0,P|281:292|243:297,1,60,2|2,0:0|0:0,0:0:0:0:
249,219,38307,2,0,P|219:217|186:196,1,60,2|2,0:0|0:0,0:0:0:0:
241,140,38603,6,0,B|258:35|258:35|207:70|150:61|150:61|73:47|10:88,1,360,4|4,0:0|0:0,0:0:0:0:
88,222,39785,6,0,P|79:283|106:335,1,120,4|8,0:0|0:0,0:0:0:0:
178,307,40229,1,0,0:0:0:0:
234,253,40376,2,0,L|310:259,1,60,2|0,0:0|0:0,0:0:0:0:
344,317,40672,2,0,L|410:324,1,60,8|0,0:0|0:0,0:0:0:0:
465,274,40968,6,0,P|483:218|457:152,1,120,2|8,0:0|0:0,0:0:0:0:
394,126,41411,1,0,0:0:0:0:
316,133,41559,2,0,L|239:133,1,60,2|0,0:0|0:0,0:0:0:0:
195,83,41854,1,4,0:0:0:0:
195,83,42002,1,4,0:0:0:0:
120,59,42150,6,0,B|110:101|133:129|133:129|126:193,1,120,4|8,0:0|0:0,0:0:0:0:
86,241,42593,1,0,0:0:0:0:
135,307,42741,2,0,L|197:303,1,60,2|0,0:0|0:0,0:0:0:0:
263,264,43037,2,0,L|325:260,1,60,8|0,0:0|0:0,0:0:0:0:
379,313,43332,6,0,P|366:241|382:180,1,120,2|8,0:0|0:0,0:0:0:0:
447,166,43775,1,0,0:0:0:0:
436,88,43923,2,0,B|388:96|388:96|363:86|363:86|317:94,1,120,8|4,0:0|0:0,0:0:0:0:
204,199,44514,6,0,P|201:140|150:100,1,120,2|8,0:0|0:0,0:0:0:0:
130,175,44958,1,0,0:0:0:0:
70,225,45105,2,0,P|69:263|79:292,1,60,2|0,0:0|0:0,0:0:0:0:
150,305,45401,2,0,P|169:334|198:347,1,60,8|0,0:0|0:0,0:0:0:0:
263,315,45697,6,0,L|394:304,1,120,2|2,0:0|0:0,0:0:0:0:
460,296,46140,1,0,0:0:0:0:
460,296,46288,2,0,L|471:231,1,60,2|0,0:0|0:0,0:0:0:0:
433,167,46583,1,4,0:0:0:0:
316,71,46879,6,0,B|276:76|276:76|236:47|189:65,1,120,0|4,0:0|0:0,0:0:0:0:
219,137,47322,1,4,0:0:0:0:
286,176,47470,2,0,L|276:249,1,60,4|4,0:0|0:0,0:0:0:0:
146,319,47913,1,8,0:0:0:0:
146,319,48061,6,0,P|100:331|54:327,2,90,4|4|4,0:0|0:0|0:0,0:0:0:0:
224,315,48652,2,0,P|265:313|299:328,1,60,0|0,0:0|0:0,0:0:0:0:
358,340,48948,2,0,L|366:267,1,60,8|8,0:0|0:0,0:0:0:0:
402,212,49243,6,0,P|408:153|396:85,1,120,2|8,0:0|0:0,0:0:0:0:
327,59,49687,1,0,0:0:0:0:
273,116,49835,2,0,L|202:119,1,60,2|0,0:0|0:0,0:0:0:0:
168,182,50130,2,0,L|106:184,1,60,8|0,0:0|0:0,0:0:0:0:
73,254,50426,6,0,P|114:314|162:334,1,120,2|8,0:0|0:0,0:0:0:0:
233,333,50869,1,0,0:0:0:0:
287,276,51017,2,0,P|316:258|356:249,1,60,2|0,0:0|0:0,0:0:0:0:
418,280,51312,1,4,0:0:0:0:
418,280,51460,1,4,0:0:0:0:
441,204,51608,6,0,P|431:155|444:78,1,120,4|8,0:0|0:0,0:0:0:0:
379,37,52051,1,0,0:0:0:0:
336,102,52199,2,0,P|328:135|326:168,1,60,2|0,0:0|0:0,0:0:0:0:
320,239,52495,2,0,P|284:245|247:245,1,60,8|0,0:0|0:0,0:0:0:0:
197,198,52790,6,0,B|175:232|185:269|185:269|149:275|113:272,1,120,2|8,0:0|0:0,0:0:0:0:
60,269,53234,1,0,0:0:0:0:
48,192,53381,2,0,L|34:123,2,60,4|4|4,0:0|0:0|0:0,0:0:0:0:
76,345,53972,6,0,P|143:356|210:341,1,120,4|8,0:0|0:0,0:0:0:0:
265,315,54416,1,0,0:0:0:0:
265,315,54564,2,0,L|253:185,1,120,8|4,0:0|0:0,0:0:0:0:
399,251,55155,6,0,L|384:129,1,120,4|8,0:0|0:0,0:0:0:0:
359,57,55598,1,0,0:0:0:0:
359,57,55746,2,0,L|445:52,2,60,8|8|4,0:0|0:0|0:0,0:0:0:0:
187,144,56337,5,4,0:0:0:0:
187,144,56485,2,0,P|177:108|180:73,1,60,0|4,0:0|0:0,0:0:0:0:
110,45,56780,2,8,P|99:114|111:167,1,120,0|0,0:0|0:0,0:0:0:0:
162,219,57224,2,8,P|175:257|172:298,1,60,4|0,0:0|0:0,0:0:0:0:
117,328,57519,6,0,P|148:350|206:349,1,90,4|4,0:0|0:0,0:0:0:0:
294,281,57963,2,0,P|348:265|389:277,2,90,4|4|4,0:0|0:0|0:0,0:0:0:0:
346,349,58554,1,4,0:0:0:0:
256,192,58702,12,2,61066,0:0:0:0:
412,310,70229,6,0,L|419:241,1,60,0|0,0:0|0:0,0:0:0:0:
426,172,70524,5,4,0:0:0:0:
288,99,70820,1,2,0:0:0:0:
294,255,71115,1,2,0:0:0:0:
426,172,71411,1,2,0:0:0:0:
288,99,71706,6,0,L|224:104,2,60,2|2|2,0:0|0:0|0:0,0:0:0:0:
291,177,72150,2,0,L|160:189,2,120,0|4|4,0:0|0:0|0:0,0:0:0:0:
338,114,72889,6,0,P|394:113|438:169,1,120,2|2,0:0|0:0,0:0:0:0:
315,258,73480,1,2,0:0:0:0:
468,229,73775,1,2,0:0:0:0:
379,357,74071,6,8,B|337:349|337:349|300:358|300:358|257:353,1,120,2|0,0:0|0:0,0:0:0:0:
117,291,74662,2,0,P|72:313|19:299,2,90,4|4|4,0:0|0:0|0:0,0:0:0:0:
185,248,75253,6,0,L|191:175,1,60,4|0,0:0|0:0,0:0:0:0:
113,168,75549,2,0,L|119:104,1,60,0|2,0:0|0:0,0:0:0:0:
117,30,75844,6,0,B|160:26|187:66|187:66|230:85|286:68,1,180,4|2,0:0|0:0,0:0:0:0:
355,40,76436,6,0,B|370:72|357:99|357:99|387:87|424:101,1,120,4|0,0:0|0:0,0:0:0:0:
388,171,76879,1,4,0:0:0:0:
404,325,77174,1,4,0:0:0:0:
261,259,77470,6,0,B|222:270|186:258|186:258|159:249|122:255,1,120,4|0,0:0|0:0,0:0:0:0:
74,290,77913,2,0,P|65:242|81:207,1,60,4|0,0:0|0:0,0:0:0:0:
53,155,78209,2,0,L|134:147,1,60,4|0,0:0|0:0,0:0:0:0:
190,139,78504,2,0,L|229:139,2,30,8|0|8,0:0|0:0|0:0,0:0:0:0:
145,74,78800,5,4,0:0:0:0:
410,298,79687,2,0,L|422:230,1,60,4|0,0:0|0:0,0:0:0:0:
488,199,79982,6,0,P|441:163|377:173,1,120,8|8,0:0|0:0,0:0:0:0:
328,225,80426,1,0,0:0:0:0:
267,274,80573,2,0,L|199:268,1,60,2|0,0:0|0:0,0:0:0:0:
136,302,80869,1,8,0:0:0:0:
46,221,81165,6,0,L|39:180,2,30,2|2|2,0:0|0:0|0:0,0:0:0:0:
124,221,81460,2,0,L|111:157,1,60,8|0,0:0|0:0,0:0:0:0:
99,84,81756,2,0,P|175:52|223:73,1,120,2|8,0:0|0:0,0:0:0:0:
389,62,82347,6,0,P|427:58|458:62,1,60,2|0,0:0|0:0,0:0:0:0:
476,133,82642,2,0,L|466:208,1,60,8|0,0:0|0:0,0:0:0:0:
430,261,82938,2,0,P|398:267|367:261,1,60,2|0,0:0|0:0,0:0:0:0:
298,232,83234,1,8,0:0:0:0:
206,308,83529,6,0,L|143:298,1,60,2|0,0:0|0:0,0:0:0:0:
70,316,83825,1,8,0:0:0:0:
70,316,83972,2,0,B|63:275|86:247|86:247|76:218|80:188,1,120,0|8,0:0|0:0,0:0:0:0:
106,127,84416,1,8,0:0:0:0:
106,127,84564,1,8,0:0:0:0:
171,84,84711,6,0,P|206:99|290:86,1,120,4|8,0:0|0:0,0:0:0:0:
355,53,85155,1,0,0:0:0:0:
430,72,85303,2,0,L|429:143,1,60,2|0,0:0|0:0,0:0:0:0:
481,190,85598,1,8,0:0:0:0:
400,304,85894,6,0,L|398:348,2,30,2|2|2,0:0|0:0|0:0,0:0:0:0:
334,261,86189,2,0,P|306:253|267:259,1,60,8|0,0:0|0:0,0:0:0:0:
199,277,86485,2,0,P|131:287|90:233,1,120,2|8,0:0|0:0,0:0:0:0:
76,96,87076,6,0,P|109:86|143:86,1,60,2|0,0:0|0:0,0:0:0:0:
205,117,87371,2,0,P|236:128|270:124,1,60,0|0,0:0|0:0,0:0:0:0:
288,52,87667,1,2,0:0:0:0:
442,71,87963,2,0,L|419:142,1,60,8|0,0:0|0:0,0:0:0:0:
390,199,88258,6,0,L|362:273,1,60,4|0,0:0|0:0,0:0:0:0:
407,323,88554,1,4,0:0:0:0:
407,323,88702,2,0,P|367:307|286:328,1,120,4|2,0:0|0:0,0:0:0:0:
213,352,89145,2,0,L|141:355,1,60,8|8,0:0|0:0,0:0:0:0:
78,331,89440,6,0,P|68:293|70:260,1,60,4|0,0:0|0:0,0:0:0:0:
140,242,89736,2,0,P|146:202|141:175,1,60,8|0,0:0|0:0,0:0:0:0:
91,123,90032,2,0,P|170:142|218:127,1,120,2|2,0:0|0:0,0:0:0:0:
338,49,90623,6,0,P|303:27|261:24,2,60,10|0|8,0:0|0:0|0:0,0:0:0:0:
408,16,91066,1,0,0:0:0:0:
408,16,91214,2,0,P|409:83|357:126,1,120,8|8,0:0|0:0,0:0:0:0:
446,257,91805,6,0,P|459:300|437:379,1,120,2|8,0:0|0:0,0:0:0:0:
373,334,92248,1,0,0:0:0:0:
305,294,92396,2,0,L|237:299,1,60,2|0,0:0|0:0,0:0:0:0:
185,350,92692,1,8,0:0:0:0:
43,274,92987,6,0,P|31:242|36:201,1,60,2|0,0:0|0:0,0:0:0:0:
101,179,93283,2,0,P|108:143|105:110,1,60,8|0,0:0|0:0,0:0:0:0:
82,45,93578,2,0,L|9:59,2,60,2|8|8,0:0|0:0|0:0,0:0:0:0:
159,58,94022,1,8,0:0:0:0:
216,110,94170,6,0,P|255:130|332:112,1,120,4|8,0:0|0:0,0:0:0:0:
373,52,94613,1,0,0:0:0:0:
450,64,94761,2,0,L|437:198,1,120,4|8,0:0|0:0,0:0:0:0:
480,334,95352,6,0,P|445:285|390:282,1,120,4|8,0:0|0:0,0:0:0:0:
324,326,95795,1,0,0:0:0:0:
324,326,95943,2,0,L|247:319,1,60,8|8,0:0|0:0,0:0:0:0:
195,283,96238,2,0,L|129:293,1,60,8|8,0:0|0:0,0:0:0:0:
79,347,96534,6,0,B|37:299|77:240|77:240|61:165,2,180,4|4|4,0:0|0:0|0:0,0:0:0:0:
135,291,97569,2,0,L|201:282,1,60,4|0,0:0|0:0,0:0:0:0:
271,269,97864,1,4,0:0:0:0:
271,269,98012,2,0,L|344:262,1,60,4|4,0:0|0:0,0:0:0:0:
408,253,98307,1,4,0:0:0:0:
490,120,98603,2,0,L|405:100,1,60,4|0,0:0|0:0,0:0:0:0:
345,107,98899,6,0,B|293:127|293:127|232:106,1,120,4|8,0:0|0:0,0:0:0:0:
157,82,99342,1,0,0:0:0:0:
91,39,99490,2,0,P|79:93|115:150,1,120,2|8,0:0|0:0,0:0:0:0:
166,201,99933,1,0,0:0:0:0:
112,257,100081,2,0,L|27:248,2,60,2|2|8,0:0|0:0|0:0,0:0:0:0:
265,286,100672,2,0,P|340:290|380:248,1,120,2|8,0:0|0:0,0:0:0:0:
395,187,101115,1,8,0:0:0:0:
453,134,101263,6,0,B|465:92|465:92|453:44,2,90,4|4|4,0:0|0:0|0:0,0:0:0:0:
386,93,101854,2,0,P|346:106|258:91,1,120,4|0,0:0|0:0,0:0:0:0:
197,65,102298,1,4,0:0:0:0:
123,39,102445,6,0,P|79:28|29:47,2,90,4|4|4,0:0|0:0|0:0,0:0:0:0:
139,115,103037,2,0,P|104:138|56:139,2,90,4|4|4,0:0|0:0|0:0,0:0:0:0:
197,65,103628,6,0,B|236:55|236:55|271:66|271:66|310:53|347:66|347:66|380:57|380:57|431:67,1,240,2|8,0:0|0:0,0:0:0:0:
465,136,104367,2,0,L|453:205,1,60,0|0,0:0|0:0,0:0:0:0:
442,272,104662,1,2,0:0:0:0:
436,349,104810,6,0,B|406:350|385:328|385:328|356:349|320:337,1,120,8|0,0:0|0:0,0:0:0:0:
290,268,105253,2,0,P|242:262|203:269,1,60,4|0,0:0|0:0,0:0:0:0:
213,339,105549,2,0,P|170:364|137:365,1,60,4|0,0:0|0:0,0:0:0:0:
92,329,105844,6,0,B|88:293|110:258|110:258|83:250|83:250|102:214|88:166,1,180,4|2,0:0|0:0,0:0:0:0:
65,100,106436,1,0,0:0:0:0:
141,113,106583,2,0,P|173:123|207:120,1,60,2|0,0:0|0:0,0:0:0:0:
271,91,106879,2,0,P|331:80|390:94,1,120,8|2,0:0|0:0,0:0:0:0:
453,135,107322,6,0,L|438:272,1,120,2|2,0:0|0:0,0:0:0:0:
386,311,107766,1,2,0:0:0:0:
386,311,107913,1,2,0:0:0:0:
310,290,108061,2,0,L|239:286,1,60,4|0,0:0|0:0,0:0:0:0:
177,317,108357,5,4,0:0:0:0:
177,317,108504,2,0,L|99:321,1,60,4|4,0:0|0:0,0:0:0:0:
43,293,108800,2,0,P|36:235|46:170,1,120,4|4,0:0|0:0,0:0:0:0:
187,111,109391,6,0,P|195:173|184:243,2,120,4|8|8,0:0|0:0|0:0,0:0:0:0:
111,91,110130,2,0,P|121:63|147:40,1,60,4|4,0:0|0:0,0:0:0:0:
221,41,110426,2,0,P|246:58|264:96,1,60,4|4,0:0|0:0,0:0:0:0:
282,158,110721,6,0,L|284:232,1,60,4|4,0:0|0:0,0:0:0:0:
215,258,111017,1,4,0:0:0:0:
215,258,111165,2,0,P|247:287|321:290,1,120,4|4,0:0|0:0,0:0:0:0:
453,206,111756,6,0,L|444:69,1,120,4|8,0:0|0:0,0:0:0:0:
376,50,112199,2,0,P|347:76|316:84,1,60,8|8,0:0|0:0,0:0:0:0:
295,154,112495,2,0,P|258:151|228:135,1,60,4|4,0:0|0:0,0:0:0:0:
165,171,112790,2,0,P|141:137|136:105,1,60,4|4,0:0|0:0,0:0:0:0:
78,66,113086,6,0,P|57:106|77:239,1,180,4|4,0:0|0:0,0:0:0:0:
139,277,113677,1,4,0:0:0:0:
217,278,113825,2,0,L|288:274,1,60,8|0,0:0|0:0,0:0:0:0:
324,336,114120,6,0,P|388:338|452:313,2,120,4|8|8,0:0|0:0|0:0,0:0:0:0:
276,274,114859,2,0,L|288:194,1,60,4|4,0:0|0:0,0:0:0:0:
360,194,115155,2,0,L|352:121,1,60,4|4,0:0|0:0,0:0:0:0:
485,50,115598,6,0,P|492:112|466:177,2,120,4|4|4,0:0|0:0|0:0,0:0:0:0:
407,44,116337,2,0,L|336:42,1,60,0|4,0:0|0:0,0:0:0:0:
256,192,116633,12,0,118997,0:0:0:0:
