osu file format v14

[General]
AudioFilename: audio.mp3
AudioLeadIn: 0
PreviewTime: 79687
Countdown: 0
SampleSet: Soft
StackLeniency: 0.7
Mode: 0
LetterboxInBreaks: 0
WidescreenStoryboard: 0

[Editor]
Bookmarks: 11411,16140
DistanceSpacing: 0.9
BeatDivisor: 4
GridSize: 4
TimelineZoom: 4.099998

[Metadata]
Title:2 MINUTES FIGHTERS
TitleUnicode:2 MINUTES FIGHTERS
Artist:P*Light
ArtistUnicode:P*Light
Creator:Regraz
Version:GRAVITY
Source:SOUND VOLTEX III GRAVITY WARS
Tags:mug SDVX The 4th KAC Konami Arcade Championship two 嬬武器雷刀 tsumabuki raito F_D_Flourite HabiHolic Abhor Lobelia Gamu toybot
BeatmapID:1149471
BeatmapSetID:542163

[Difficulty]
HPDrainRate:5
CircleSize:4.3
OverallDifficulty:9
ApproachRate:9.7
SliderMultiplier:2
SliderTickRate:1

[Events]
//Background and Video events
0,0,"1BG.jpg",0,0
//Break Periods
2,61266,69084
//Storyboard Layer 0 (Background)
//Storyboard Layer 1 (Fail)
//Storyboard Layer 2 (Pass)
//Storyboard Layer 3 (Foreground)
//Storyboard Sound Samples

[TimingPoints]
771,295.566502463054,4,2,1,60,1,0
11411,-100,4,2,1,50,0,0
20869,-100,4,2,1,60,0,0
70524,-100,4,2,1,50,0,0
75253,-100,4,2,1,60,0,0
79982,-100,4,2,1,65,0,1
89145,-100,4,2,1,65,0,0
89440,-100,4,2,1,65,0,1
98307,-200,4,2,1,65,0,1
98603,-100,4,2,1,65,0,0
98899,-100,4,2,1,65,0,1
101263,-66.6666666666667,4,2,1,65,0,1
103628,-100,4,2,1,65,0,1
105253,-66.6666666666667,4,2,1,65,0,1
108357,-100,4,2,1,65,0,0
118997,-100,4,2,1,30,0,0

[Colours]
Combo1 : 199,187,46
Combo2 : 217,17,172
Combo3 : 83,202,253
Combo4 : 171,10,34

[HitObjects]
44,192,771,6,0,B|133:161|133:224|225:173,1,150,8|0,0:0|0:0,0:0:0:0:
224,162,1066,1,0,0:0:0:0:
224,162,1214,2,0,P|211:105|234:50,1,100,4|0,0:0|0:0,0:0:0:0:
315,197,1509,2,0,P|328:254|305:309,1,100,4|0,0:0|0:0,0:0:0:0:
304,108,1805,2,0,L|381:124,1,50,4|0,0:0|0:0,0:0:0:0:
509,23,1953,6,0,L|339:39,1,150,4|0,0:0|0:0,0:0:0:0:
310,15,2248,1,0,0:0:0:0:
310,15,2396,2,0,L|422:38,1,100,4|0,0:0|0:0,0:0:0:0:
229,148,2692,2,0,L|122:165,1,100,4|0,0:0|0:0,0:0:0:0:
90,136,2913,1,0,0:0:0:0:
90,136,2987,1,4,0:0:0:0:
285,224,3135,5,4,0:0:0:0:
311,91,3283,1,0,0:0:0:0:
368,264,3431,1,0,0:0:0:0:
358,150,3578,1,0,0:0:0:0:
247,27,3726,5,2,0:0:0:0:
227,55,3799,1,2,0:0:0:0:
220,89,3873,1,2,0:0:0:0:
226,123,3947,1,2,0:0:0:0:
246,152,4022,2,0,L|181:146,1,50,2|0,0:0|0:0,0:0:0:0:
93,259,4170,2,0,L|158:249,1,50,2|0,0:0|0:0,0:0:0:0:
359,334,4317,6,0,B|263:306|263:306|196:333,1,150,8|0,0:0|0:0,0:0:0:0:
171,347,4613,1,0,0:0:0:0:
306,273,4761,1,0,0:0:0:0:
169,241,4908,2,0,L|119:251,1,50,2|0,0:0|0:0,0:0:0:0:
135,218,5056,2,0,L|63:233,1,50,2|0,0:0|0:0,0:0:0:0:
281,194,5204,2,0,L|331:204,1,50,2|0,0:0|0:0,0:0:0:0:
315,171,5352,2,0,L|387:186,1,50,2|0,0:0|0:0,0:0:0:0:
174,124,5500,6,0,B|127:132|127:132|67:124|67:124|14:135,1,150,8|0,0:0|0:0,0:0:0:0:
35,169,5795,1,0,0:0:0:0:
235,182,5943,2,0,P|254:124|241:80,1,100,4|0,0:0|0:0,0:0:0:0:
35,169,6238,2,0,P|26:217|45:263,1,100,4|0,0:0|0:0,0:0:0:0:
251,198,6534,2,0,L|154:183,1,50,4|0,0:0|0:0,0:0:0:0:
338,262,6682,6,0,L|498:236,1,150,4|0,0:0|0:0,0:0:0:0:
497,193,6977,1,0,0:0:0:0:
342,294,7125,2,0,L|219:276,1,100,4|0,0:0|0:0,0:0:0:0:
346,110,7421,2,0,L|469:92,1,100,4|0,0:0|0:0,0:0:0:0:
481,91,7642,1,0,0:0:0:0:
481,91,7716,1,4,0:0:0:0:
229,143,7864,5,4,0:0:0:0:
198,47,8012,1,0,0:0:0:0:
293,16,8160,1,8,0:0:0:0:
324,112,8307,1,0,0:0:0:0:
148,199,8455,5,8,0:0:0:0:
24,158,8603,1,0,0:0:0:0:
64,34,8751,1,8,0:0:0:0:
188,74,8898,1,0,0:0:0:0:
290,267,9046,6,0,L|358:257,1,50,2|0,0:0|0:0,0:0:0:0:
425,302,9194,2,0,L|415:234,1,50,2|0,0:0|0:0,0:0:0:0:
465,172,9342,2,0,L|397:182,1,50,2|0,0:0|0:0,0:0:0:0:
330,127,9490,2,0,L|340:195,1,50,2|0,0:0|0:0,0:0:0:0:
170,318,9637,5,2,0:0:0:0:
133,284,9710,1,2,0:0:0:0:
115,238,9784,1,2,0:0:0:0:
121,189,9858,1,2,0:0:0:0:
175,141,9933,5,2,0:0:0:0:
188,213,10006,1,2,0:0:0:0:
166,284,10080,1,2,0:0:0:0:
112,336,10154,1,2,0:0:0:0:
41,356,10228,5,6,0:0:0:0:
208,47,11411,6,0,L|96:32,1,100,4|0,0:1|0:0,0:0:0:0:
49,134,11633,1,0,0:0:0:0:
49,134,11706,2,0,L|153:118,1,100,2|0,0:0|0:0,0:0:0:0:
201,227,11928,1,0,0:0:0:0:
201,227,12002,2,0,L|97:211,1,100
67,309,12224,1,0,0:0:0:0:
67,309,12298,2,0,L|145:291,1,50,8|0,0:0|0:0,0:0:0:0:
302,344,12445,1,0,0:0:0:0:
302,344,12519,1,0,0:0:0:0:
302,344,12593,6,0,L|435:323,1,100,2|0,0:0|0:0,0:0:0:0:
494,250,12815,1,0,0:0:0:0:
494,250,12889,2,0,L|368:227,1,100,2|0,0:0|0:0,0:0:0:0:
285,164,13110,1,0,0:0:0:0:
285,164,13184,2,0,L|411:141,1,100,2|0,0:0|0:0,0:0:0:0:
489,92,13406,1,0,0:0:0:0:
489,92,13480,2,0,L|412:75,1,50,8|0,0:0|0:0,0:0:0:0:
294,78,13628,2,0,L|217:61,1,50,8|0,0:0|0:0,0:0:0:0:
44,114,13775,6,0,P|112:99|184:120,1,100
263,171,13997,1,0,0:0:0:0:
266,205,14071,2,0,P|203:185|158:190,1,100,2|0,0:0|0:0,0:0:0:0:
39,241,14293,1,0,0:0:0:0:
36,275,14367,2,0,P|99:255|144:260,1,100,2|0,0:0|0:0,0:0:0:0:
255,313,14588,1,0,0:0:0:0:
255,313,14662,2,0,L|199:304,1,50,8|0,0:0|0:0,0:0:0:0:
169,187,14810,2,0,L|225:178,1,50
332,253,14958,5,2,0:0:0:0:
373,225,15031,1,0,0:0:0:0:
398,182,15105,1,0,0:0:0:0:
402,133,15179,1,0,0:0:0:0:
391,89,15253,5,2,0:0:0:0:
355,136,15326,1,0,0:0:0:0:
343,194,15400,1,0,0:0:0:0:
355,253,15474,1,0,0:0:0:0:
390,301,15549,2,0,L|250:277,1,100,4|0,0:0|0:0,0:0:0:0:
166,324,15770,2,0,L|297:308,1,100,4|0,0:0|0:0,0:0:0:0:
268,255,15992,2,0,L|258:305,1,50,4|0,0:0|0:0,0:0:0:0:
229,82,16140,6,0,P|301:83|336:66,1,100,4|0,0:0|0:0,0:0:0:0:
465,144,16362,1,0,0:0:0:0:
465,166,16436,2,0,P|412:154|360:173,1,100,2|0,0:0|0:0,0:0:0:0:
235,228,16657,1,0,0:0:0:0:
250,257,16731,2,0,P|322:258|357:241,1,100,2|0,0:0|0:0,0:0:0:0:
469,309,16953,1,0,0:0:0:0:
460,294,17027,6,0,L|451:350,1,50,8|0,0:0|0:0,0:0:0:0:
417,193,17174,2,0,L|409:143,1,50,8|0,0:0|0:0,0:0:0:0:
242,128,17322,6,0,L|231:274,1,100,4|0,0:0|0:0,0:0:0:0:
145,127,17544,1,0,0:0:0:0:
119,110,17618,2,0,L|111:10,1,100,2|0,0:0|0:0,0:0:0:0:
50,170,17839,1,0,0:0:0:0:
33,196,17913,2,0,P|95:209|150:182,1,100,2|0,0:0|0:0,0:0:0:0:
341,99,18209,6,8,L|305:94,6,25
363,93,18504,6,0,P|253:121|199:80,1,150,4|0,0:0|0:0,0:0:0:0:
139,69,18800,2,0,L|291:45,1,150,4|0,0:0|0:0,0:0:0:0:
97,103,19096,2,0,L|103:46,1,50,4|0,0:0|0:0,0:0:0:0:
248,136,19243,2,0,L|242:203,1,50,4|0,0:0|0:0,0:0:0:0:
39,346,19539,6,0,L|219:321,1,150,4|0,0:0|0:0,0:0:0:0:
257,284,19835,2,0,L|184:276,1,50,4|0,0:0|0:0,0:0:0:0:
357,341,19982,1,8,0:0:0:0:
123,211,20130,1,0,0:0:0:0:
123,211,20204,1,0,0:0:0:0:
123,211,20278,5,0,0:0:0:0:
172,214,20351,1,0,0:0:0:0:
217,193,20425,1,0,0:0:0:0:
245,153,20499,1,0,0:0:0:0:
226,96,20573,5,0,0:0:0:0:
200,149,20646,1,0,0:0:0:0:
199,209,20720,1,0,0:0:0:0:
222,264,20794,1,0,0:0:0:0:
267,288,20869,6,0,L|392:269,1,100,4|0,0:0|0:0,0:0:0:0:
413,255,21091,1,0,0:0:0:0:
413,255,21165,2,0,L|333:244,1,50,4|0,0:0|0:0,0:0:0:0:
450,188,21312,2,0,L|530:177,1,50
389,126,21460,1,2,0:0:0:0:
359,121,21534,1,2,0:0:0:0:
279,147,21608,1,2,0:0:0:0:
249,142,21682,1,2,0:0:0:0:
162,150,21756,2,0,P|251:132|285:55,1,150,8|0,0:0|0:0,0:0:0:0:
241,50,22051,6,0,L|377:40,1,100,4|0,0:0|0:0,0:0:0:0:
381,26,22273,1,0,0:0:0:0:
381,26,22347,2,0,L|377:77,1,50,4|0,0:0|0:0,0:0:0:0:
456,158,22495,2,0,L|452:108,1,50
372,218,22642,1,2,0:0:0:0:
342,223,22716,1,2,0:0:0:0:
262,197,22790,1,2,0:0:0:0:
232,202,22864,1,2,0:0:0:0:
145,194,22938,2,0,P|234:212|268:289,1,150,8|0,0:0|0:0,0:0:0:0:
271,306,23234,6,0,L|171:300,1,100,4|0,0:0|0:0,0:0:0:0:
144,324,23455,1,0,0:0:0:0:
144,324,23529,2,0,P|166:295|166:257,1,50,4|0,0:0|0:0,0:0:0:0:
68,215,23677,2,0,L|80:276,1,50
17,125,23825,1,8,0:0:0:0:
46,127,23899,1,8,0:0:0:0:
127,152,23972,1,8,0:0:0:0:
156,154,24046,1,8,0:0:0:0:
237,171,24120,2,0,P|168:179|101:128,1,150,2|0,0:0|0:0,0:0:0:0:
77,97,24416,6,0,L|89:230,1,100,4|0,0:0|0:0,0:0:0:0:
116,268,24637,1,0,0:0:0:0:
116,268,24711,2,0,L|132:194,1,50,4|0,0:0|0:0,0:0:0:0:
207,304,24859,2,0,L|217:352,1,50,4|0,0:0|0:0,0:0:0:0:
280,242,25007,5,2,0:0:0:0:
329,247,25080,1,0,0:0:0:0:
379,253,25154,1,0,0:0:0:0:
429,259,25228,1,0,0:0:0:0:
378,213,25303,5,2,0:0:0:0:
321,219,25376,1,0,0:0:0:0:
263,226,25450,1,0,0:0:0:0:
206,233,25524,1,0,0:0:0:0:
132,290,25598,6,0,P|172:230|150:161,1,150,4|0,0:0|0:0,0:0:0:0:
124,136,25894,2,0,L|215:124,1,50,4|0,0:0|0:0,0:0:0:0:
93,220,26041,2,0,L|2:232,1,50,4|0,0:0|0:0,0:0:0:0:
139,107,26189,2,0,L|230:95,1,50,4|0,0:0|0:0,0:0:0:0:
70,244,26337,2,0,P|55:313|129:364,1,150,4|0,0:0|0:0,0:0:0:0:
144,339,26633,6,0,B|203:330|203:330|240:336|240:336|303:328,1,150,4|0,0:0|0:0,0:0:0:0:
325,308,26928,2,0,L|313:392,1,50,4|0,0:0|0:0,0:0:0:0:
460,318,27076,2,0,L|453:268,1,50,4|0,0:0|0:0,0:0:0:0:
306,268,27224,2,0,L|294:352,1,50,4|0,0:0|0:0,0:0:0:0:
485,346,27371,2,0,L|462:178,1,150,4|0,0:0|0:0,0:0:0:0:
434,154,27667,6,0,L|492:160,1,50,4|0,0:0|0:0,0:0:0:0:
417,63,27815,2,0,L|359:69,1,50,4|0,0:0|0:0,0:0:0:0:
188,162,27963,2,0,B|233:143|233:143|345:173,1,150,4|0,0:0|0:0,0:0:0:0:
359,203,28258,2,0,L|350:134,1,50,4|0,0:0|0:0,0:0:0:0:
154,91,28406,2,0,L|178:254,1,150,4|0,0:0|0:0,0:0:0:0:
199,284,28702,6,0,L|188:333,1,50,4|0,0:0|0:0,0:0:0:0:
264,206,28849,2,0,L|253:158,1,50,4|0,0:0|0:0,0:0:0:0:
177,207,28997,2,0,L|129:196,1,50,4|0,0:0|0:0,0:0:0:0:
290,285,29145,2,0,L|398:259,1,100,8|0,0:0|0:0,0:0:0:0:
383,234,29367,1,0,0:0:0:0:
383,234,29440,1,2,0:0:0:0:
444,355,29588,1,2,0:0:0:0:
476,168,29736,5,2,0:0:0:0:
453,159,29809,1,2,0:0:0:0:
379,159,29884,1,2,0:0:0:0:
356,150,29957,1,2,0:0:0:0:
282,157,30032,2,2,L|271:193,7,25
216,130,30327,5,4,0:0:0:0:
182,126,31509,5,12,0:0:0:0:
214,97,31583,1,8,0:0:0:0:
253,118,31657,1,8,0:0:0:0:
243,162,31731,1,8,0:0:0:0:
200,166,31805,1,8,0:0:0:0:
148,35,31953,2,0,L|340:49,1,150,4|0,0:0|0:0,0:0:0:0:
355,143,32248,2,0,P|286:160|205:113,1,150,4|0,0:0|0:0,0:0:0:0:
306,24,32544,2,0,L|295:84,1,50,4|0,0:0|0:0,0:0:0:0:
267,236,32692,5,4,0:0:0:0:
256,261,33874,6,0,L|344:250,1,50,8|0,0:0|0:0,0:0:0:0:
227,293,34022,2,0,L|315:282,1,50,2|0,0:0|0:0,0:0:0:0:
397,305,34170,1,4,0:0:0:0:
181,361,34317,2,0,P|147:292|187:223,1,150,4|0,0:0|0:0,0:0:0:0:
257,193,34613,2,0,L|91:172,1,150,4|0,0:0|0:0,0:0:0:0:
216,113,34908,2,0,L|290:100,1,50,4|0,0:0|0:0,0:0:0:0:
364,235,35056,5,4,0:0:0:0:
398,45,35204,1,0,0:0:0:0:
471,135,35352,1,8,0:0:0:0:
265,104,35500,1,2,0:0:0:0:
265,104,35573,1,2,0:0:0:0:
265,104,35647,5,8,0:0:0:0:
95,187,35795,1,0,0:0:0:0:
182,62,35943,1,8,0:0:0:0:
193,273,36091,1,0,0:0:0:0:
193,273,36165,1,0,0:0:0:0:
193,273,36238,5,8,0:0:0:0:
414,183,36386,1,0,0:0:0:0:
291,132,36534,1,8,0:0:0:0:
385,368,36682,1,2,0:0:0:0:
385,368,36756,1,2,0:0:0:0:
385,368,36830,5,8,0:0:0:0:
346,63,36977,1,0,0:0:0:0:
201,186,37125,1,8,0:0:0:0:
501,93,37273,1,2,0:0:0:0:
501,93,37347,1,2,0:0:0:0:
501,93,37421,6,0,L|429:83,1,50,2|0,0:0|0:0,0:0:0:0:
317,205,37569,2,0,L|381:197,1,50,2|0,0:0|0:0,0:0:0:0:
345,43,37716,2,0,L|359:106,1,50,2|0,0:0|0:0,0:0:0:0:
448,245,37864,2,0,L|458:196,1,50,2|0,0:0|0:0,0:0:0:0:
308,313,38012,6,0,L|216:297,1,50,2|0,0:0|0:0,0:0:0:0:
55,163,38160,2,0,L|135:151,1,50,2|0,0:0|0:0,0:0:0:0:
290,48,38307,2,0,L|278:112,1,50,2|0,0:0|0:0,0:0:0:0:
122,373,38455,2,0,L|134:309,1,50,2|0,0:0|0:0,0:0:0:0:
296,27,38603,5,4,0:0:0:0:
309,35,39194,5,0,0:0:0:0:
311,54,39267,1,0,0:0:0:0:
313,74,39341,1,0,0:0:0:0:
417,257,39490,2,0,P|357:267|297:193,1,150,4|0,0:0|0:0,0:0:0:0:
302,177,39785,6,0,P|316:254|302:282,1,100,4|0,0:0|0:0,0:0:0:0:
206,286,40007,1,0,0:0:0:0:
178,303,40081,2,0,L|54:283,1,100,8|0,0:0|0:0,0:0:0:0:
244,133,40376,2,0,L|375:114,1,100,2|0,0:0|0:0,0:0:0:0:
294,243,40672,1,8,0:0:0:0:
404,66,40820,1,0,0:0:0:0:
404,66,40894,1,0,0:0:0:0:
404,66,40968,6,0,P|423:127|404:172,1,100,2|0,0:0|0:0,0:0:0:0:
280,257,41263,2,0,P|261:196|280:151,1,100,8|0,0:0|0:0,0:0:0:0:
396,260,41485,1,0,0:0:0:0:
417,284,41559,2,0,L|403:408,1,100,2|0,0:0|0:0,0:0:0:0:
214,278,41854,2,0,L|280:262,1,50,4|0,0:0|0:0,0:0:0:0:
339,356,42002,2,0,L|273:340,1,50,4|0,0:0|0:0,0:0:0:0:
146,346,42150,6,0,P|93:353|51:329,1,100,4|0,0:0|0:0,0:0:0:0:
49,292,42371,1,0,0:0:0:0:
49,292,42445,2,0,L|64:183,1,100,8|0,0:0|0:0,0:0:0:0:
147,97,42741,1,2,0:0:0:0:
173,229,42889,1,0,0:0:0:0:
106,34,43037,2,0,P|170:26|217:60,1,100,8|0,0:0|0:0,0:0:0:0:
223,77,43258,1,0,0:0:0:0:
223,77,43332,6,0,L|341:54,1,100,2|0,0:0|0:0,0:0:0:0:
410,171,43628,2,0,L|292:148,1,100,8|0,0:0|0:0,0:0:0:0:
479,114,43923,1,8,0:0:0:0:
503,156,43996,1,8,0:0:0:0:
500,206,44070,1,8,0:0:0:0:
471,245,44144,1,8,0:0:0:0:
425,262,44219,2,0,L|245:228,1,150,4|0,0:0|0:0,0:0:0:0:
221,314,44514,6,0,P|157:330|103:315,1,100,2|0,0:0|0:0,0:0:0:0:
45,244,44736,1,0,0:0:0:0:
29,224,44810,2,0,P|8:286|26:337,1,100,8|0,0:0|0:0,0:0:0:0:
132,206,45105,2,0,L|121:82,1,100,2|0,0:0|0:0,0:0:0:0:
231,8,45401,2,0,L|217:132,1,100,8|0,0:0|0:0,0:0:0:0:
277,213,45623,1,0,0:0:0:0:
306,195,45697,6,0,P|369:200|408:173,1,100,2|0,0:0|0:0,0:0:0:0:
512,56,45992,1,2,0:0:0:0:
463,46,46065,1,0,0:0:0:0:
414,36,46139,1,0,0:0:0:0:
365,26,46213,1,0,0:0:0:0:
316,16,46288,2,0,P|354:64|448:80,1,150,2|0,0:0|0:0,0:0:0:0:
436,52,46583,2,0,L|440:116,1,50,4|0,0:0|0:0,0:0:0:0:
357,225,46731,2,0,L|360:175,1,50
472,178,46879,6,8,L|430:183,7,25
497,199,47174,6,0,P|504:231|491:267,1,50,4|0,0:0|0:0,0:0:0:0:
390,342,47322,2,0,P|387:317|394:293,1,50,4|0,0:0|0:0,0:0:0:0:
285,213,47470,2,0,L|229:206,1,50,4|0,0:0|0:0,0:0:0:0:
99,325,47618,2,0,L|280:310,1,150,4|0,0:0|0:0,0:0:0:0:
297,308,47913,1,8,0:0:0:0:
165,153,48061,6,0,P|150:222|181:277,1,100,4|0,0:0|0:0,0:0:0:0:
233,80,48283,2,0,L|115:53,1,100,4|0,0:0|0:0,0:0:0:0:
251,164,48504,2,0,L|331:144,1,50,4|0,0:0|0:0,0:0:0:0:
420,84,48652,1,0,0:0:0:0:
274,15,48800,1,0,0:0:0:0:
455,167,48948,1,8,0:0:0:0:
491,133,49021,1,8,0:0:0:0:
505,86,49095,1,8,0:0:0:0:
494,38,49169,1,8,0:0:0:0:
459,3,49243,6,0,L|351:22,1,100,2|0,0:0|0:0,0:0:0:0:
258,92,49465,1,0,0:0:0:0:
258,92,49539,2,0,L|375:105,1,100,8|0,0:0|0:0,0:0:0:0:
481,189,49835,1,2,0:0:0:0:
434,41,49982,1,0,0:0:0:0:
380,184,50130,2,0,P|368:249|394:304,1,100,8|0,0:0|0:0,0:0:0:0:
447,348,50352,1,0,0:0:0:0:
462,372,50426,6,0,L|342:352,1,100,2|0,0:0|0:0,0:0:0:0:
192,342,50721,2,0,L|312:324,1,100,8|0,0:0|0:0,0:0:0:0:
306,180,51017,1,2,0:0:0:0:
286,361,51165,1,0,0:0:0:0:
411,278,51312,2,0,L|346:267,1,50,4|0,0:0|0:0,0:0:0:0:
225,202,51460,2,0,L|290:190,1,50,4|0,0:0|0:0,0:0:0:0:
183,272,51608,6,0,P|148:222|159:163,1,100,4|0,0:0|0:0,0:0:0:0:
203,113,51830,1,0,0:0:0:0:
203,113,51904,2,0,L|89:91,1,100,8|0,0:0|0:0,0:0:0:0:
283,59,52199,1,2,0:0:0:0:
233,206,52347,1,0,0:0:0:0:
396,173,52495,2,0,P|316:144|274:159,1,100,8|0,0:0|0:0,0:0:0:0:
172,149,52716,1,0,0:0:0:0:
143,170,52790,6,0,P|202:130|208:77,1,100,2|0,0:0|0:0,0:0:0:0:
45,161,53086,2,0,L|34:262,1,100,8|0,0:0|0:0,0:0:0:0:
32,299,53307,1,0,0:0:0:0:
32,299,53381,2,0,L|106:285,1,50,4|0,0:0|0:0,0:0:0:0:
198,332,53529,2,0,L|272:318,1,50,4|0,0:0|0:0,0:0:0:0:
445,293,53677,2,0,P|383:261|392:159,1,150,4|0,0:0|0:0,0:0:0:0:
410,170,53972,6,0,L|290:190,1,100,4|0,0:0|0:0,0:0:0:0:
369,93,54194,1,0,0:0:0:0:
369,93,54268,2,0,L|506:109,1,100,8|0,0:0|0:0,0:0:0:0:
276,44,54564,1,8,0:0:0:0:
252,87,54637,1,8,0:0:0:0:
212,115,54711,1,8,0:0:0:0:
162,122,54785,1,8,0:0:0:0:
116,105,54859,2,0,P|193:82|241:104,1,100,4|0,0:0|0:0,0:0:0:0:
415,229,55155,6,0,L|289:206,1,100,4|0,0:0|0:0,0:0:0:0:
232,162,55376,1,0,0:0:0:0:
232,162,55450,2,0,P|151:184|112:168,1,100,8|0,0:0|0:0,0:0:0:0:
34,267,55746,1,8,0:0:0:0:
82,255,55819,1,8,0:0:0:0:
129,269,55893,1,8,0:0:0:0:
163,304,55967,1,8,0:0:0:0:
172,353,56041,2,0,P|132:302|130:258,1,100,4|0,0:0|0:0,0:0:0:0:
164,151,56337,6,0,L|254:131,1,50,4|0,0:0|0:0,0:0:0:0:
392,106,56485,1,0,0:0:0:0:
136,139,56633,6,0,L|226:119,1,50,4|0,0:0|0:0,0:0:0:0:
412,120,56781,1,0,0:0:0:0:
118,125,56928,6,0,L|208:105,1,50,4|0,0:0|0:0,0:0:0:0:
432,133,57076,2,8,L|472:136,2,25
94,111,57224,6,0,L|184:91,1,50,4|0,0:0|0:0,0:0:0:0:
452,156,57371,2,8,L|497:163,2,25
194,194,57519,6,0,L|69:174,1,100,4|0,0:0|0:0,0:0:0:0:
301,243,57741,2,0,L|426:227,1,100,4|0,0:0|0:0,0:0:0:0:
258,79,57963,2,0,P|271:127|265:177,1,100,4|0,0:0|0:0,0:0:0:0:
236,361,58184,2,0,P|223:313|230:264,1,100,4|0,0:0|0:0,0:0:0:0:
248,64,58406,6,0,L|235:133,1,50,4|0,0:0|0:0,0:0:0:0:
250,368,58554,2,0,L|266:304,1,50,4|0,0:0|0:0,0:0:0:0:
243,52,58702,5,4,0:0:0:0:
256,192,58775,12,2,61066,0:0:0:0:
60,47,70524,5,4,0:0:0:0:
60,47,70820,5,2,0:0:0:0:
60,47,71115,5,2,0:0:0:0:
60,47,71411,5,2,0:0:0:0:
60,47,71706,5,2,0:0:0:0:
227,49,71854,1,2,0:0:0:0:
151,200,72002,1,2,0:0:0:0:
60,47,72150,6,0,B|157:38|157:38|99:61,1,150
54,115,72445,6,0,P|32:172|99:235,1,150,4|0,0:0|0:0,0:0:0:0:
151,200,72741,5,4,0:0:0:0:
151,200,73184,5,2,0:0:0:0:
151,200,73480,5,2,0:0:0:0:
151,200,73775,5,2,0:0:0:0:
151,200,74071,6,8,L|186:192,8,25
50,316,74662,6,0,P|109:300|134:245,1,100,4|0,0:0|0:0,0:0:0:0:
76,139,74884,2,0,L|61:243,1,100,4|0,0:0|0:0,0:0:0:0:
165,294,75105,2,0,L|158:237,1,50,4|0,0:0|0:0,0:0:0:0:
128,74,75253,5,4,0:0:0:0:
269,42,75401,1,0,0:0:0:0:
173,9,75549,1,0,0:0:0:0:
194,160,75697,1,2,0:0:0:0:
194,160,75770,1,2,0:0:0:0:
194,160,75844,5,4,0:0:0:0:
25,118,75992,1,0,0:0:0:0:
144,57,76140,1,0,0:0:0:0:
118,246,76288,1,2,0:0:0:0:
118,246,76362,1,2,0:0:0:0:
118,246,76436,5,4,0:0:0:0:
339,214,76583,1,0,0:0:0:0:
217,141,76731,1,0,0:0:0:0:
204,347,76879,6,0,B|270:364|318:332|318:332|366:350,1,150,4|0,0:0|0:0,0:0:0:0:
444,356,77174,2,0,L|427:197,1,150,4|0,0:0|0:0,0:0:0:0:
428,93,77470,2,0,P|382:119|373:154,1,50,4|0,0:0|0:0,0:0:0:0:
327,223,77618,5,0,0:0:0:0:
290,189,77691,1,0,0:0:0:0:
243,175,77765,1,0,0:0:0:0:
194,184,77839,1,0,0:0:0:0:
154,214,77913,6,0,L|166:142,1,50,4|0,0:0|0:0,0:0:0:0:
66,37,78061,1,0,0:0:0:0:
66,37,78135,1,0,0:0:0:0:
66,37,78209,2,0,L|71:96,1,50,4|0,0:0|0:0,0:0:0:0:
131,242,78357,1,0,0:0:0:0:
131,242,78431,1,0,0:0:0:0:
131,242,78504,2,0,L|143:174,1,50,8|0,0:0|0:0,0:0:0:0:
93,16,78652,2,0,L|98:66,1,50,8|0,0:0|0:0,0:0:0:0:
126,326,78800,5,4,0:0:0:0:
126,326,79391,5,0,0:0:0:0:
157,311,79464,1,0,0:0:0:0:
192,306,79538,1,0,0:0:0:0:
226,312,79612,1,0,0:0:0:0:
257,327,79687,2,0,P|177:320|150:250,1,150,4|0,0:0|0:0,0:0:0:0:
228,144,79982,6,0,L|232:245,1,100,8|0,0:0|0:0,0:0:0:0:
484,344,80278,2,0,L|480:243,1,100,8|0,0:0|0:0,0:0:0:0:
176,100,80573,2,0,P|248:104|284:76,1,100,2|0,0:0|0:0,0:0:0:0:
384,32,80795,1,0,0:0:0:0:
400,16,80869,2,0,L|396:80,1,50,8|0,0:0|0:0,0:0:0:0:
348,200,81017,2,0,L|344:150,1,50
172,24,81165,5,2,0:0:0:0:
144,65,81238,1,2,0:0:0:0:
144,114,81312,1,2,0:0:0:0:
171,155,81386,1,2,0:0:0:0:
258,198,81460,2,0,P|270:261|255:299,1,100,8|0,0:0|0:0,0:0:0:0:
86,302,81756,2,0,L|201:286,1,100,2|0,0:0|0:0,0:0:0:0:
259,294,81977,1,0,0:0:0:0:
271,319,82051,2,0,P|309:323|341:315,1,50,8|0,0:0|0:0,0:0:0:0:
217,210,82199,2,0,P|179:206|147:214,1,50
41,80,82347,6,0,L|181:51,1,100,2|0,0:0|0:0,0:0:0:0:
294,89,82569,1,0,0:0:0:0:
321,113,82642,2,0,P|248:99|212:58,1,100,8|0,0:0|0:0,0:0:0:0:
414,49,82938,1,2,0:0:0:0:
348,277,83086,1,0,0:0:0:0:
306,71,83234,1,8,0:0:0:0:
503,138,83381,1,0,0:0:0:0:
361,301,83529,6,0,P|302:274|245:281,1,100,2|0,0:0|0:0,0:0:0:0:
65,343,83825,2,0,P|115:293|105:231,1,100,8|0,0:0|0:0,0:0:0:0:
95,198,84046,1,0,0:0:0:0:
95,198,84120,2,0,L|133:189,1,25,2|0,0:0|0:0,0:0:0:0:
417,186,84268,2,0,L|379:195,1,25,8|0,0:0|0:0,0:0:0:0:
62,169,84416,2,0,L|100:178,1,25,8|0,0:0|0:0,0:0:0:0:
450,215,84564,2,0,L|412:206,1,25,8|0,0:0|0:0,0:0:0:0:
146,29,84711,6,0,P|132:102|155:140,1,100,4|0,0:0|0:0,0:0:0:0:
336,286,85007,2,0,P|350:213|327:175,1,100,8|0,0:0|0:0,0:0:0:0:
79,221,85303,2,0,L|208:208,1,100,2|0,0:0|0:0,0:0:0:0:
283,131,85524,1,0,0:0:0:0:
304,104,85598,2,0,L|292:196,1,50,8|0,0:0|0:0,0:0:0:0:
192,232,85746,2,0,L|185:182,1,50
40,292,85894,5,2,0:0:0:0:
84,300,85967,1,2,0:0:0:0:
132,304,86041,1,2,0:0:0:0:
180,315,86114,1,2,0:0:0:0:
254,360,86189,2,0,P|266:297|251:259,1,100,8|0,0:0|0:0,0:0:0:0:
101,103,86411,1,0,0:0:0:0:
86,82,86485,2,0,L|201:98,1,100,2|0,0:0|0:0,0:0:0:0:
259,63,86706,1,0,0:0:0:0:
275,78,86780,2,0,P|313:74|345:82,1,50,8|0,0:0|0:0,0:0:0:0:
217,174,86928,2,0,P|179:178|147:170,1,50
58,346,87076,6,0,P|136:322|167:273,1,100,2|0,0:0|0:0,0:0:0:0:
98,163,87298,1,0,0:0:0:0:
67,142,87371,1,0,0:0:0:0:
68,171,87444,1,0,0:0:0:0:
70,201,87518,1,0,0:0:0:0:
72,231,87592,1,0,0:0:0:0:
73,257,87667,1,2,0:0:0:0:
315,352,87815,1,0,0:0:0:0:
283,140,87963,1,8,0:0:0:0:
84,370,88110,1,0,0:0:0:0:
225,90,88258,6,0,P|326:78|357:130,1,150,4|0,0:0|0:0,0:0:0:0:
391,175,88554,2,0,L|384:224,1,50,4|0,0:0|0:0,0:0:0:0:
322,316,88702,2,0,B|265:310|265:310|219:346|152:325,1,150,4|0,0:0|0:0,0:0:0:0:
112,298,88997,1,2,0:0:0:0:
169,128,89145,1,8,0:0:0:0:
282,243,89293,1,8,0:0:0:0:
120,83,89440,6,0,L|259:94,1,100,4|0,0:0|0:0,0:0:0:0:
411,187,89736,2,0,L|272:198,1,100,8|0,0:0|0:0,0:0:0:0:
90,193,90032,1,2,0:0:0:0:
75,222,90105,1,2,0:0:0:0:
136,245,90179,1,2,0:0:0:0:
129,277,90252,1,2,0:0:0:0:
196,274,90327,1,2,0:0:0:0:
198,306,90400,1,2,0:0:0:0:
262,293,90474,1,2,0:0:0:0:
273,324,90549,1,2,0:0:0:0:
334,296,90623,6,0,P|387:248|392:189,1,100,10|0,0:0|0:0,0:0:0:0:
266,75,90918,2,0,B|260:142|260:142|276:182,1,100,8|0,0:0|0:0,0:0:0:0:
413,136,91214,1,8,0:0:0:0:
428,107,91287,1,8,0:0:0:0:
367,84,91361,1,8,0:0:0:0:
374,52,91436,1,8,0:0:0:0:
307,55,91509,1,8,0:0:0:0:
305,23,91582,1,8,0:0:0:0:
241,36,91656,1,8,0:0:0:0:
85,208,91805,6,0,P|144:224|195:204,1,100,2|0,0:0|0:0,0:0:0:0:
378,241,92101,1,8,0:0:0:0:
328,234,92174,1,0,0:0:0:0:
278,227,92248,1,0,0:0:0:0:
229,220,92322,1,0,0:0:0:0:
180,213,92396,2,0,P|160:258|163:307,1,100,2|0,0:0|0:0,0:0:0:0:
377,150,92692,2,0,L|374:42,1,100,8|0,0:0|0:0,0:0:0:0:
167,179,92987,5,2,0:0:0:0:
425,245,93135,1,0,0:0:0:0:
339,82,93283,1,8,0:0:0:0:
304,352,93431,1,0,0:0:0:0:
304,352,93504,1,0,0:0:0:0:
304,352,93578,6,0,L|310:307,1,25,2|0,0:0|0:0,0:0:0:0:
265,150,93726,2,0,L|271:105,1,25,8|0,0:0|0:0,0:0:0:0:
283,257,93874,2,0,L|289:212,1,25,8|0,0:0|0:0,0:0:0:0:
244,55,94022,2,0,L|250:10,1,25,8|0,0:0|0:0,0:0:0:0:
216,47,94170,5,4,0:0:0:0:
178,39,94243,1,0,0:0:0:0:
142,31,94317,1,0,0:0:0:0:
104,25,94391,1,0,0:0:0:0:
76,17,94465,5,8,0:0:0:0:
44,69,94538,1,0,0:0:0:0:
41,132,94612,1,0,0:0:0:0:
67,188,94686,1,0,0:0:0:0:
116,225,94761,5,4,0:0:0:0:
126,262,94834,1,0,0:0:0:0:
121,298,94908,1,0,0:0:0:0:
102,330,94982,1,0,0:0:0:0:
76,352,95056,5,8,0:0:0:0:
137,342,95129,1,0,0:0:0:0:
198,333,95203,1,0,0:0:0:0:
261,323,95277,1,0,0:0:0:0:
322,314,95351,5,4,0:0:0:0:
327,328,95426,1,0,0:0:0:0:
332,341,95500,2,0,L|355:253,1,50
176,72,95647,1,8,0:0:0:0:
176,72,95722,1,0,0:0:0:0:
175,71,95796,2,0,L|187:119,1,50
29,254,95943,5,8,0:0:0:0:
83,200,96016,1,0,0:0:0:0:
159,190,96090,1,8,0:0:0:0:
226,227,96164,1,0,0:0:0:0:
281,283,96238,1,8,0:0:0:0:
347,319,96312,1,0,0:0:0:0:
423,309,96386,1,8,0:0:0:0:
477,255,96459,1,0,0:0:0:0:
479,175,96534,6,0,B|397:153|397:153|327:210|231:181,1,250,4|0,0:0|0:0,0:0:0:0:
164,150,96977,1,4,0:0:0:0:
213,149,97050,1,0,0:0:0:0:
255,174,97124,1,0,0:0:0:0:
283,215,97198,1,0,0:0:0:0:
285,260,97273,1,0,0:0:0:0:
114,270,97421,2,0,L|106:221,1,50,4|0,0:0|0:0,0:0:0:0:
195,345,97569,6,0,L|215:157,1,150,4|0,0:0|0:0,0:0:0:0:
239,173,97864,2,0,L|154:184,1,50,4|0,0:0|0:0,0:0:0:0:
370,160,98012,2,0,L|359:75,1,50,4|0,0:0|0:0,0:0:0:0:
383,285,98160,2,0,L|468:274,1,50,4|0,0:0|0:0,0:0:0:0:
252,298,98308,6,0,L|261:383,1,75,4|0,0:0|0:0,0:0:0:0:
315,149,98603,6,0,P|242:162|178:103,1,150,4|0,0:0|0:0,0:0:0:0:
139,68,98899,5,4,0:0:0:0:
78,110,98972,1,2,0:0:0:0:
55,180,99046,1,2,0:0:0:0:
77,250,99120,1,2,0:0:0:0:
136,294,99194,2,0,L|270:266,1,100,8|0,0:0|0:0,0:0:0:0:
471,209,99490,5,2,0:0:0:0:
402,194,99563,1,2,0:0:0:0:
333,180,99637,1,2,0:0:0:0:
265,166,99711,1,2,0:0:0:0:
196,152,99785,2,0,P|267:128|300:71,1,100,8|0,0:0|0:0,0:0:0:0:
34,231,100081,5,2,0:0:0:0:
94,187,100154,1,2,0:0:0:0:
167,180,100228,1,2,0:0:0:0:
235,211,100302,1,2,0:0:0:0:
277,271,100376,2,0,P|244:214|247:164,1,100,8|0,0:0|0:0,0:0:0:0:
430,324,100672,5,2,0:0:0:0:
361,315,100745,1,2,0:0:0:0:
292,306,100819,1,2,0:0:0:0:
222,297,100893,1,2,0:0:0:0:
153,288,100968,2,0,L|214:311,1,50,8|0,0:0|0:0,0:0:0:0:
505,327,101115,2,0,L|444:304,1,50,8|0,0:0|0:0,0:0:0:0:
331,239,101263,6,0,P|259:184|290:99,1,150.000005722046,4|0,0:0|0:0,0:0:0:0:
486,180,101485,2,0,L|333:166,1,150.000005722046,4|0,0:0|0:0,0:0:0:0:
202,122,101706,2,0,L|328:110,1,75.0000028610231,4|0,0:0|0:0,0:0:0:0:
178,240,101854,6,0,P|96:240|58:165,1,150.000005722046,4|0,0:0|0:0,0:0:0:0:
144,17,102076,2,0,L|135:178,1,150.000005722046,4|0,0:0|0:0,0:0:0:0:
204,300,102298,2,0,L|192:223,1,75.0000028610231,4|0,0:0|0:0,0:0:0:0:
234,67,102445,6,0,B|352:59|352:59|300:80,1,150.000005722046,4|0,0:0|0:0,0:0:0:0:
217,250,102667,2,0,P|170:175|195:113,1,150.000005722046,4|0,0:0|0:0,0:0:0:0:
377,52,102889,2,0,L|284:25,1,75.0000028610231,4|0,0:0|0:0,0:0:0:0:
64,165,103037,6,0,L|231:134,1,150.000005722046,4|0,0:0|0:0,0:0:0:0:
454,222,103258,2,0,L|287:191,1,150.000005722046,4|0,0:0|0:0,0:0:0:0:
3,225,103480,2,0,P|33:245|70:250,1,75.0000028610231,4|0,0:0|0:0,0:0:0:0:
271,276,103628,5,2,0:0:0:0:
211,159,103775,1,0,0:0:0:0:
159,312,103923,1,8,0:0:0:0:
138,188,104071,1,2,0:0:0:0:
138,188,104145,1,2,0:0:0:0:
138,188,104219,2,0,P|126:141|140:91,1,100,8|0,0:0|0:0,0:0:0:0:
375,181,104514,1,0,0:0:0:0:
196,324,104662,1,2,0:0:0:0:
196,324,104736,1,2,0:0:0:0:
196,324,104810,6,0,L|81:306,1,100,8|0,0:0|0:0,0:0:0:0:
239,98,105105,1,0,0:0:0:0:
355,277,105253,6,0,P|401:195|356:108,1,150.000005722046,4|0,0:0|0:0,0:0:0:0:
122,144,105549,2,0,P|114:217|157:277,1,150.000005722046,4|0,0:0|0:0,0:0:0:0:
377,65,105844,2,0,L|274:76,1,75.0000028610231,4|0,0:0|0:0,0:0:0:0:
150,128,105992,5,2,0:0:0:0:
194,133,106065,1,0,0:0:0:0:
239,138,106139,1,0,0:0:0:0:
284,143,106213,1,0,0:0:0:0:
323,149,106288,5,2,0:0:0:0:
265,155,106361,1,0,0:0:0:0:
207,161,106435,1,0,0:0:0:0:
148,168,106509,1,0,0:0:0:0:
89,176,106583,5,2,0:0:0:0:
164,183,106656,1,0,0:0:0:0:
239,191,106730,1,0,0:0:0:0:
316,200,106804,1,0,0:0:0:0:
391,209,106879,6,0,L|352:217,1,37.5000014305115,8|0,0:0|0:0,0:0:0:0:
310,227,106953,2,0,L|271:235,1,37.5000014305115,8|0,0:0|0:0,0:0:0:0:
225,246,107027,2,0,L|186:254,1,37.5000014305115,8|0,0:0|0:0,0:0:0:0:
144,264,107101,2,0,L|105:272,1,37.5000014305115,8|0,0:0|0:0,0:0:0:0:
58,286,107174,5,2,0:0:0:0:
65,303,107322,1,2,0:0:0:0:
70,323,107618,5,2,0:0:0:0:
77,340,107766,1,2,0:0:0:0:
84,352,107913,1,2,0:0:0:0:
92,369,108061,6,0,P|157:302|115:180,1,225.000008583069,4|0,0:0|0:0,0:0:0:0:
96,169,108357,6,0,L|186:148,1,50,4|0,0:0|0:0,0:0:0:0:
428,195,108504,2,0,L|338:216,1,50,4|0,0:0|0:0,0:0:0:0:
67,155,108652,2,0,L|157:134,1,50,4|0,0:0|0:0,0:0:0:0:
456,216,108800,2,0,L|303:257,1,150,4|0,0:0|0:0,0:0:0:0:
230,228,109096,2,0,P|187:143|208:92,1,150,4|0,0:0|0:0,0:0:0:0:
293,62,109391,6,0,P|300:89|289:127,1,50,4|0,0:0|0:0,0:0:0:0:
237,162,109539,1,0,0:0:0:0:
187,156,109612,1,0,0:0:0:0:
137,151,109686,1,8,0:0:0:0:
87,145,109760,1,0,0:0:0:0:
44,145,109835,5,2,0:0:0:0:
28,209,109908,1,0,0:0:0:0:
46,272,109982,1,8,0:0:0:0:
93,319,110056,1,0,0:0:0:0:
157,335,110130,6,0,L|230:314,1,50,4|0,0:0|0:0,0:0:0:0:
434,288,110278,2,0,L|385:301,1,50,4|0,0:0|0:0,0:0:0:0:
134,366,110426,2,0,L|207:345,1,50,4|0,0:0|0:0,0:0:0:0:
452,253,110574,2,0,L|403:266,1,50,4|0,0:0|0:0,0:0:0:0:
168,97,110721,6,0,P|162:126|175:162,1,50,4|0,0:0|0:0,0:0:0:0:
328,246,110869,2,0,P|331:222|326:198,1,50,4|0,0:0|0:0,0:0:0:0:
126,271,111017,2,0,L|187:259,1,50,4|0,0:0|0:0,0:0:0:0:
354,110,111165,2,0,L|165:73,1,150,4|0,0:0|0:0,0:0:0:0:
146,131,111460,6,0,P|129:189|175:261,1,150,4|0,0:0|0:0,0:0:0:0:
246,229,111756,6,0,L|295:238,1,50,4|0,0:0|0:0,0:0:0:0:
356,297,111904,1,0,0:0:0:0:
327,256,111977,1,0,0:0:0:0:
326,207,112051,1,8,0:0:0:0:
352,165,112125,1,0,0:0:0:0:
393,147,112199,5,8,0:0:0:0:
391,82,112272,1,0,0:0:0:0:
353,30,112346,1,8,0:0:0:0:
293,8,112420,1,0,0:0:0:0:
231,23,112495,6,0,L|150:53,1,50,4|0,0:0|0:0,0:0:0:0:
140,189,112642,2,0,L|186:171,1,50,4|0,0:0|0:0,0:0:0:0:
202,21,112790,2,0,L|121:51,1,50,4|0,0:0|0:0,0:0:0:0:
122,219,112938,2,0,L|168:201,1,50,4|0,0:0|0:0,0:0:0:0:
444,149,113086,5,4,0:0:0:0:
438,167,113234,2,0,L|360:142,1,50,8|0,0:0|0:0,0:0:0:0:
275,310,113381,2,0,L|335:254,1,50
234,99,113529,2,0,L|251:178,1,50,4|0,0:0|0:0,0:0:0:0:
464,141,113677,5,4,0:0:0:0:
458,161,113825,2,0,L|368:132,1,50,8|0,0:0|0:0,0:0:0:0:
269,325,113972,2,0,L|338:261,1,50
224,84,114120,2,0,L|244:175,1,50,4|0,0:0|0:0,0:0:0:0:
335,273,114268,5,2,0:0:0:0:
335,273,114342,1,0,0:0:0:0:
335,273,114416,2,0,L|262:259,1,50,8|0,0:0|0:0,0:0:0:0:
177,111,114564,1,2,0:0:0:0:
177,111,114638,1,0,0:0:0:0:
177,111,114712,2,0,L|250:125,1,50,8|0,0:0|0:0,0:0:0:0:
331,192,114859,6,0,L|353:106,1,50,4|0,0:0|0:0,0:0:0:0:
180,198,115007,2,0,L|164:261,1,50,4|0,0:0|0:0,0:0:0:0:
388,108,115155,2,0,L|372:45,1,50,4|0,0:0|0:0,0:0:0:0:
137,286,115303,2,0,L|153:349,1,50,4|0,0:0|0:0,0:0:0:0:
415,314,115450,5,2,0:0:0:0:
415,314,115524,1,0,0:0:0:0:
415,314,115598,2,0,L|343:302,1,50,4|0,0:0|0:0,0:0:0:0:
97,70,115746,1,2,0:0:0:0:
97,70,115820,1,0,0:0:0:0:
97,70,115894,2,0,L|169:82,1,50,4|0,0:0|0:0,0:0:0:0:
413,194,116041,6,0,L|332:245,1,50,2|0,0:0|0:0,0:0:0:0:
170,344,116189,2,0,L|164:247,1,50,4|0,0:0|0:0,0:0:0:0:
184,39,116337,2,0,L|268:81,1,50
464,347,116485,5,4,0:0:0:0:
256,192,116559,12,0,118997,0:0:0:0:
