osu file format v14

[General]
AudioFilename: audio.mp3
AudioLeadIn: 0
PreviewTime: 79662
Countdown: 0
SampleSet: Normal
StackLeniency: 0.7
Mode: 1
LetterboxInBreaks: 0
WidescreenStoryboard: 0

[Editor]
DistanceSpacing: 1
BeatDivisor: 4
GridSize: 4
TimelineZoom: 2.4

[Metadata]
Title:2 MINUTE FIGHTERS
TitleUnicode:2 MINUTE FIGHTERS
Artist:P*Light
ArtistUnicode:P*Light
Creator:Player-
Version:Inner Oni
Source:SOUND VOLTEX III GRAVITY WARS
Tags:sdvx 4th kac konami arcade championship
BeatmapID:1646393
BeatmapSetID:784127

[Difficulty]
HPDrainRate:6
CircleSize:2
OverallDifficulty:6
ApproachRate:10
SliderMultiplier:1.3999999666214
SliderTickRate:1

[Events]
//Background and Video events
0,0,"BG.jpg",0,0
//Break Periods
//Storyboard Layer 0 (Background)
//Storyboard Layer 1 (Fail)
//Storyboard Layer 2 (Pass)
//Storyboard Layer 3 (Foreground)
//Storyboard Sound Samples

[TimingPoints]
820,295.566502463054,4,1,0,100,1,0
38800,-100,4,1,0,80,0,0
39539,-100,4,1,0,100,0,0
60819,-125,4,1,0,80,0,0
70573,-111.111111111111,4,1,0,90,0,0
75302,-100,4,1,0,90,0,0
78997,-100,4,1,0,80,0,0
80031,-90.9090909090909,4,1,0,100,0,1
116534,-90.9090909090909,4,1,0,100,0,0

[HitObjects]
256,192,820,5,4,0:0:0:0:
188,136,1115,1,4,0:0:0:0:
252,112,1263,1,12,0:0:0:0:
304,240,1558,1,12,0:0:0:0:
204,224,1854,1,4,0:0:0:0:
304,140,2002,1,12,0:0:0:0:
168,148,2297,1,12,0:0:0:0:
264,188,2445,1,4,0:0:0:0:
368,248,2741,1,4,0:0:0:0:
224,236,3036,1,12,0:0:0:0:
228,112,3184,1,4,0:0:0:0:
368,148,3332,1,0,0:0:0:0:
308,144,3406,1,0,0:0:0:0:
116,184,3480,1,8,0:0:0:0:
280,72,3553,1,0,0:0:0:0:
188,164,3627,1,8,0:0:0:0:
324,248,3701,1,8,0:0:0:0:
376,88,3775,1,0,0:0:0:0:
296,228,3849,1,0,0:0:0:0:
332,152,3923,1,8,0:0:0:0:
180,112,3997,1,0,0:0:0:0:
264,152,4071,1,8,0:0:0:0:
388,224,4145,1,8,0:0:0:0:
200,284,4219,1,0,0:0:0:0:
152,192,4292,1,0,0:0:0:0:
56,160,4366,1,8,0:0:0:0:
284,236,4662,1,8,0:0:0:0:
320,152,4810,1,0,0:0:0:0:
420,104,4957,1,0,0:0:0:0:
264,52,5031,1,0,0:0:0:0:
200,120,5105,1,8,0:0:0:0:
292,112,5179,1,8,0:0:0:0:
124,208,5253,1,8,0:0:0:0:
284,236,5327,1,8,0:0:0:0:
252,224,5401,1,8,0:0:0:0:
376,216,5475,1,8,0:0:0:0:
220,216,5549,1,0,0:0:0:0:
280,144,5844,1,4,0:0:0:0:
400,176,5992,1,12,0:0:0:0:
260,232,6287,1,12,0:0:0:0:
184,136,6583,1,4,0:0:0:0:
288,128,6731,1,12,0:0:0:0:
284,200,7026,1,12,0:0:0:0:
396,196,7174,1,4,0:0:0:0:
140,180,7470,1,4,0:0:0:0:
272,160,7765,1,12,0:0:0:0:
360,216,7913,1,4,0:0:0:0:
428,172,8061,1,8,0:0:0:0:
164,164,8209,1,4,0:0:0:0:
280,104,8356,1,8,0:0:0:0:
272,216,8504,1,4,0:0:0:0:
376,132,8652,1,8,0:0:0:0:
384,96,8800,1,4,0:0:0:0:
288,76,8948,1,8,0:0:0:0:
248,128,9095,1,4,0:0:0:0:
320,272,9243,1,0,0:0:0:0:
212,240,9317,1,0,0:0:0:0:
128,192,9391,1,8,0:0:0:0:
312,172,9465,1,0,0:0:0:0:
360,188,9539,1,8,0:0:0:0:
368,152,9613,1,8,0:0:0:0:
152,108,9686,1,0,0:0:0:0:
272,164,9760,1,0,0:0:0:0:
184,176,9834,1,8,0:0:0:0:
268,104,9908,1,0,0:0:0:0:
336,76,9982,1,8,0:0:0:0:
276,216,10056,1,8,0:0:0:0:
228,216,10130,1,0,0:0:0:0:
368,236,10204,1,0,0:0:0:0:
372,168,10278,1,8,0:0:0:0:
252,232,11460,1,4,0:0:0:0:
332,176,11608,1,8,0:0:0:0:
256,180,11682,1,8,0:0:0:0:
272,124,11755,1,0,0:0:0:0:
416,168,11903,1,8,0:0:0:0:
368,240,11977,1,8,0:0:0:0:
252,232,12051,1,0,0:0:0:0:
324,172,12199,1,8,0:0:0:0:
116,184,12273,1,0,0:0:0:0:
128,220,12347,1,0,0:0:0:0:
228,160,12494,1,8,0:0:0:0:
216,216,12568,1,8,0:0:0:0:
336,152,12642,1,0,0:0:0:0:
392,184,12790,1,8,0:0:0:0:
328,248,12864,1,8,0:0:0:0:
260,256,12938,1,0,0:0:0:0:
128,164,13086,1,8,0:0:0:0:
164,212,13159,1,8,0:0:0:0:
244,164,13233,1,8,0:0:0:0:
276,112,13381,1,8,0:0:0:0:
304,184,13455,1,0,0:0:0:0:
292,236,13529,1,0,0:0:0:0:
220,224,13677,1,8,0:0:0:0:
356,148,13751,1,8,0:0:0:0:
184,144,13824,1,0,0:0:0:0:
304,120,13972,1,8,0:0:0:0:
276,180,14046,1,8,0:0:0:0:
224,200,14120,1,0,0:0:0:0:
224,112,14268,1,8,0:0:0:0:
196,152,14342,1,8,0:0:0:0:
176,188,14416,1,8,0:0:0:0:
308,156,14563,1,8,0:0:0:0:
304,208,14637,1,0,0:0:0:0:
236,228,14711,1,0,0:0:0:0:
336,116,14859,1,8,0:0:0:0:
288,188,14933,1,8,0:0:0:0:
228,228,15007,1,0,0:0:0:0:
192,144,15081,1,0,0:0:0:0:
200,72,15154,1,0,0:0:0:0:
284,164,15228,1,0,0:0:0:0:
120,180,15302,1,8,0:0:0:0:
208,120,15376,1,8,0:0:0:0:
264,120,15450,1,8,0:0:0:0:
312,136,15524,1,8,0:0:0:0:
364,208,15598,1,0,0:0:0:0:
208,228,15819,1,4,0:0:0:0:
148,132,16041,1,4,0:0:0:0:
264,104,16189,1,4,0:0:0:0:
336,176,16337,1,8,0:0:0:0:
304,284,16411,1,8,0:0:0:0:
248,284,16485,1,0,0:0:0:0:
284,212,16632,1,8,0:0:0:0:
296,264,16706,1,8,0:0:0:0:
212,248,16780,1,8,0:0:0:0:
188,156,16928,1,8,0:0:0:0:
252,120,17002,1,0,0:0:0:0:
252,160,17076,1,0,0:0:0:0:
356,160,17223,1,8,0:0:0:0:
328,200,17297,1,8,0:0:0:0:
244,232,17371,1,0,0:0:0:0:
140,196,17519,1,8,0:0:0:0:
232,120,17593,1,8,0:0:0:0:
212,200,17667,1,0,0:0:0:0:
352,128,17815,1,8,0:0:0:0:
324,212,17888,1,8,0:0:0:0:
320,252,17962,1,8,0:0:0:0:
264,136,18110,1,8,0:0:0:0:
304,116,18184,1,0,0:0:0:0:
232,200,18258,1,0,0:0:0:0:
176,144,18406,1,8,0:0:0:0:
224,80,18480,1,8,0:0:0:0:
172,112,18553,1,0,0:0:0:0:
328,168,18701,1,8,0:0:0:0:
288,200,18775,1,8,0:0:0:0:
272,136,18849,1,0,0:0:0:0:
288,108,18997,1,8,0:0:0:0:
184,204,19145,1,12,0:0:0:0:
164,132,19292,1,12,0:0:0:0:
332,200,19440,1,0,0:0:0:0:
240,112,19588,1,12,0:0:0:0:
340,140,19736,1,0,0:0:0:0:
216,188,19884,1,12,0:0:0:0:
148,220,20031,1,12,0:0:0:0:
324,220,20179,1,0,0:0:0:0:
292,136,20253,1,8,0:0:0:0:
184,140,20327,1,0,0:0:0:0:
256,104,20401,1,0,0:0:0:0:
200,132,20475,1,8,0:0:0:0:
372,176,20549,1,8,0:0:0:0:
352,96,20622,1,0,0:0:0:0:
148,240,20696,1,8,0:0:0:0:
288,252,20770,1,0,0:0:0:0:
336,240,20844,1,0,0:0:0:0:
264,208,20918,1,8,0:0:0:0:
240,172,21066,1,8,0:0:0:0:
252,240,21140,1,8,0:0:0:0:
220,324,21214,1,0,0:0:0:0:
304,156,21361,1,8,0:0:0:0:
384,160,21435,1,8,0:0:0:0:
136,180,21509,1,8,0:0:0:0:
220,128,21657,1,8,0:0:0:0:
216,216,21731,1,0,0:0:0:0:
212,252,21805,1,0,0:0:0:0:
344,224,21953,1,8,0:0:0:0:
272,264,22026,1,8,0:0:0:0:
164,248,22100,1,0,0:0:0:0:
300,204,22248,1,8,0:0:0:0:
280,256,22322,1,8,0:0:0:0:
204,300,22396,1,0,0:0:0:0:
288,140,22544,1,8,0:0:0:0:
192,192,22618,1,8,0:0:0:0:
104,176,22691,1,8,0:0:0:0:
292,92,22839,1,8,0:0:0:0:
384,168,22913,1,0,0:0:0:0:
280,224,22987,1,0,0:0:0:0:
268,164,23135,1,8,0:0:0:0:
308,152,23209,1,8,0:0:0:0:
312,220,23283,1,0,0:0:0:0:
184,224,23430,1,8,0:0:0:0:
208,144,23504,1,8,0:0:0:0:
312,128,23578,1,0,0:0:0:0:
224,104,23726,1,8,0:0:0:0:
296,156,23800,1,8,0:0:0:0:
240,236,23874,1,8,0:0:0:0:
352,224,24021,1,8,0:0:0:0:
312,248,24095,1,0,0:0:0:0:
360,140,24169,1,0,0:0:0:0:
184,184,24317,1,8,0:0:0:0:
288,136,24391,1,8,0:0:0:0:
228,184,24465,1,0,0:0:0:0:
184,116,24539,1,0,0:0:0:0:
296,120,24613,1,0,0:0:0:0:
316,196,24686,1,0,0:0:0:0:
144,180,24760,1,8,0:0:0:0:
356,88,24908,1,8,0:0:0:0:
232,248,24982,1,8,0:0:0:0:
248,88,25056,1,0,0:0:0:0:
288,196,25130,1,0,0:0:0:0:
348,168,25204,1,0,0:0:0:0:
176,176,25278,1,0,0:0:0:0:
140,88,25352,1,8,0:0:0:0:
448,248,25425,1,0,0:0:0:0:
64,164,25499,1,8,0:0:0:0:
236,164,25573,1,8,0:0:0:0:
304,116,25647,1,0,0:0:0:0:
232,108,25795,1,8,0:0:0:0:
196,200,25943,1,4,0:0:0:0:
360,176,26090,1,12,0:0:0:0:
200,160,26238,1,12,0:0:0:0:
104,80,26386,1,12,0:0:0:0:
308,124,26534,1,0,0:0:0:0:
244,244,26682,1,12,0:0:0:0:
256,144,26829,1,0,0:0:0:0:
360,148,26977,1,12,0:0:0:0:
224,176,27125,1,4,0:0:0:0:
300,104,27273,1,12,0:0:0:0:
320,196,27420,1,4,0:0:0:0:
144,196,27568,1,8,0:0:0:0:
200,132,27716,1,4,0:0:0:0:
264,116,27864,1,12,0:0:0:0:
352,148,28012,1,4,0:0:0:0:
312,204,28159,1,8,0:0:0:0:
280,228,28233,1,8,0:0:0:0:
344,108,28307,1,0,0:0:0:0:
196,144,28455,1,12,0:0:0:0:
300,136,28603,1,0,0:0:0:0:
248,92,28751,1,12,0:0:0:0:
272,208,28898,1,4,0:0:0:0:
176,184,29046,1,12,0:0:0:0:
388,132,29194,1,12,0:0:0:0:
304,104,29342,1,0,0:0:0:0:
200,104,29489,1,12,0:0:0:0:
232,232,29637,1,8,0:0:0:0:
368,208,29785,1,0,0:0:0:0:
288,196,29859,1,0,0:0:0:0:
332,144,29933,1,0,0:0:0:0:
400,144,30007,1,0,0:0:0:0:
272,104,30081,1,8,0:0:0:0:
240,148,30130,1,8,0:0:0:0:
184,192,30179,1,8,0:0:0:0:
156,224,30228,1,8,0:0:0:0:
292,224,30278,1,8,0:0:0:0:
376,156,30327,1,8,0:0:0:0:
200,104,30376,1,0,0:0:0:0:
336,132,30672,1,8,0:0:0:0:
256,184,30819,1,8,0:0:0:0:
192,240,31115,1,8,0:0:0:0:
320,172,31411,1,8,0:0:0:0:
244,144,31558,1,4,0:0:0:0:
352,112,31854,1,8,0:0:0:0:
252,80,32002,1,4,0:0:0:0:
196,224,32297,1,4,0:0:0:0:
244,168,32593,1,12,0:0:0:0:
348,184,32741,1,12,0:0:0:0:
204,112,33036,1,8,0:0:0:0:
344,132,33184,1,8,0:0:0:0:
280,212,33480,1,8,0:0:0:0:
224,172,33775,1,8,0:0:0:0:
316,148,33923,1,12,0:0:0:0:
224,112,34219,1,12,0:0:0:0:
320,100,34366,1,12,0:0:0:0:
352,192,34662,1,4,0:0:0:0:
280,208,34957,1,4,0:0:0:0:
232,124,35105,1,4,0:0:0:0:
328,152,35401,1,4,0:0:0:0:
344,184,35549,1,8,0:0:0:0:
228,240,35622,1,8,0:0:0:0:
112,236,35696,1,0,0:0:0:0:
256,168,35844,1,0,0:0:0:0:
188,156,35992,1,4,0:0:0:0:
268,104,36140,1,8,0:0:0:0:
368,164,36287,1,4,0:0:0:0:
236,236,36583,1,8,0:0:0:0:
192,224,36731,1,8,0:0:0:0:
128,248,36805,1,8,0:0:0:0:
216,168,36879,1,0,0:0:0:0:
112,176,37026,1,0,0:0:0:0:
284,168,37174,1,8,0:0:0:0:
312,164,37322,1,8,0:0:0:0:
236,236,37396,1,8,0:0:0:0:
168,240,37470,1,0,0:0:0:0:
212,152,37544,1,0,0:0:0:0:
112,160,37618,1,8,0:0:0:0:
288,128,37691,1,8,0:0:0:0:
316,268,37765,1,0,0:0:0:0:
372,176,37839,1,0,0:0:0:0:
288,224,37913,1,8,0:0:0:0:
360,108,38061,1,4,0:0:0:0:
192,232,38209,1,8,0:0:0:0:
288,176,38283,1,0,0:0:0:0:
212,108,38356,1,8,0:0:0:0:
132,168,38430,1,0,0:0:0:0:
212,160,38504,1,8,0:0:0:0:
364,240,38652,1,4,0:0:0:0:
392,168,38800,1,0,0:0:0:0:
284,144,38948,1,8,0:0:0:0:
344,112,39095,1,0,0:0:0:0:
308,212,39169,1,0,0:0:0:0:
224,260,39243,1,8,0:0:0:0:
168,180,39317,1,0,0:0:0:0:
268,172,39391,1,8,0:0:0:0:
232,108,39539,1,8,0:0:0:0:
356,156,39834,1,4,0:0:0:0:
352,104,39982,1,8,0:0:0:0:
336,216,40056,1,8,0:0:0:0:
272,236,40130,1,0,0:0:0:0:
116,176,40204,1,8,0:0:0:0:
224,160,40352,1,8,0:0:0:0:
232,108,40425,1,0,0:0:0:0:
328,132,40499,1,8,0:0:0:0:
116,76,40647,1,8,0:0:0:0:
340,196,40721,1,0,0:0:0:0:
232,172,40795,1,0,0:0:0:0:
264,252,40869,1,8,0:0:0:0:
168,216,40943,1,8,0:0:0:0:
172,252,41017,1,0,0:0:0:0:
304,112,41164,1,8,0:0:0:0:
368,184,41238,1,0,0:0:0:0:
300,252,41312,1,0,0:0:0:0:
160,144,41386,1,8,0:0:0:0:
280,180,41534,1,8,0:0:0:0:
220,200,41608,1,0,0:0:0:0:
384,232,41682,1,8,0:0:0:0:
204,152,41829,1,8,0:0:0:0:
276,128,41903,1,0,0:0:0:0:
128,212,41977,1,8,0:0:0:0:
368,112,42051,1,0,0:0:0:0:
72,136,42125,1,8,0:0:0:0:
192,84,42199,1,0,0:0:0:0:
308,204,42347,1,8,0:0:0:0:
240,232,42420,1,8,0:0:0:0:
160,256,42494,1,0,0:0:0:0:
208,168,42568,1,8,0:0:0:0:
288,136,42716,1,8,0:0:0:0:
348,200,42790,1,0,0:0:0:0:
368,144,42864,1,8,0:0:0:0:
268,184,43012,1,8,0:0:0:0:
128,136,43086,1,0,0:0:0:0:
236,100,43159,1,0,0:0:0:0:
208,220,43233,1,8,0:0:0:0:
160,240,43307,1,8,0:0:0:0:
88,216,43381,1,0,0:0:0:0:
344,132,43529,1,8,0:0:0:0:
308,216,43603,1,0,0:0:0:0:
248,156,43677,1,0,0:0:0:0:
352,104,43751,1,8,0:0:0:0:
172,104,43898,1,8,0:0:0:0:
260,96,43972,1,0,0:0:0:0:
160,212,44120,1,8,0:0:0:0:
316,192,44268,1,8,0:0:0:0:
272,204,44342,1,8,0:0:0:0:
224,244,44416,1,0,0:0:0:0:
260,180,44489,1,0,0:0:0:0:
360,168,44563,1,8,0:0:0:0:
352,104,44711,1,8,0:0:0:0:
336,216,44785,1,8,0:0:0:0:
272,236,44859,1,0,0:0:0:0:
116,176,44933,1,8,0:0:0:0:
224,160,45081,1,8,0:0:0:0:
232,108,45154,1,0,0:0:0:0:
328,132,45228,1,8,0:0:0:0:
116,76,45376,1,8,0:0:0:0:
340,196,45450,1,0,0:0:0:0:
232,172,45524,1,0,0:0:0:0:
264,252,45598,1,8,0:0:0:0:
168,216,45672,1,8,0:0:0:0:
172,252,45746,1,0,0:0:0:0:
304,112,45893,1,8,0:0:0:0:
368,184,45967,1,0,0:0:0:0:
300,252,46041,1,0,0:0:0:0:
160,144,46115,1,8,0:0:0:0:
280,180,46263,1,8,0:0:0:0:
220,200,46337,1,0,0:0:0:0:
384,232,46411,1,8,0:0:0:0:
204,152,46558,1,8,0:0:0:0:
276,128,46632,1,0,0:0:0:0:
128,212,46706,1,8,0:0:0:0:
368,112,46780,1,0,0:0:0:0:
72,136,46854,1,8,0:0:0:0:
192,84,46928,1,0,0:0:0:0:
320,240,47076,1,0,0:0:0:0:
248,232,47223,1,8,0:0:0:0:
260,200,47297,1,8,0:0:0:0:
212,244,47371,1,0,0:0:0:0:
332,176,47519,1,0,0:0:0:0:
212,136,47667,1,8,0:0:0:0:
268,216,47741,1,0,0:0:0:0:
356,120,47815,1,8,0:0:0:0:
132,200,47888,1,8,0:0:0:0:
292,156,47962,1,0,0:0:0:0:
328,228,48110,1,8,0:0:0:0:
268,232,48258,1,8,0:0:0:0:
232,264,48332,1,0,0:0:0:0:
232,184,48406,1,8,0:0:0:0:
212,104,48553,1,8,0:0:0:0:
160,204,48701,1,0,0:0:0:0:
96,200,48775,1,0,0:0:0:0:
296,168,48849,1,8,0:0:0:0:
332,136,48923,1,8,0:0:0:0:
320,228,48997,1,0,0:0:0:0:
320,248,49071,1,0,0:0:0:0:
216,120,49145,1,8,0:0:0:0:
284,108,49219,1,8,0:0:0:0:
252,220,49292,1,0,0:0:0:0:
352,104,49440,1,8,0:0:0:0:
336,216,49514,1,8,0:0:0:0:
272,236,49588,1,0,0:0:0:0:
116,176,49662,1,8,0:0:0:0:
224,160,49810,1,8,0:0:0:0:
232,108,49883,1,0,0:0:0:0:
328,132,49957,1,8,0:0:0:0:
116,76,50105,1,8,0:0:0:0:
340,196,50179,1,0,0:0:0:0:
232,172,50253,1,0,0:0:0:0:
264,252,50327,1,8,0:0:0:0:
168,216,50401,1,8,0:0:0:0:
172,252,50475,1,0,0:0:0:0:
304,112,50622,1,8,0:0:0:0:
368,184,50696,1,0,0:0:0:0:
300,252,50770,1,0,0:0:0:0:
160,144,50844,1,8,0:0:0:0:
280,180,50992,1,8,0:0:0:0:
220,200,51066,1,0,0:0:0:0:
384,232,51140,1,8,0:0:0:0:
204,152,51287,1,8,0:0:0:0:
276,128,51361,1,0,0:0:0:0:
128,212,51435,1,8,0:0:0:0:
368,112,51509,1,0,0:0:0:0:
72,136,51583,1,8,0:0:0:0:
192,84,51657,1,0,0:0:0:0:
308,204,51805,1,8,0:0:0:0:
240,232,51878,1,8,0:0:0:0:
160,256,51952,1,0,0:0:0:0:
208,168,52026,1,8,0:0:0:0:
288,136,52174,1,8,0:0:0:0:
348,200,52248,1,0,0:0:0:0:
368,144,52322,1,8,0:0:0:0:
268,184,52470,1,8,0:0:0:0:
128,136,52544,1,0,0:0:0:0:
236,100,52617,1,0,0:0:0:0:
208,220,52691,1,8,0:0:0:0:
160,240,52765,1,8,0:0:0:0:
88,216,52839,1,0,0:0:0:0:
344,132,52987,1,8,0:0:0:0:
308,216,53061,1,0,0:0:0:0:
248,156,53135,1,0,0:0:0:0:
352,104,53209,1,8,0:0:0:0:
172,104,53356,1,8,0:0:0:0:
260,96,53430,1,0,0:0:0:0:
160,212,53578,1,8,0:0:0:0:
316,192,53726,1,8,0:0:0:0:
272,204,53800,1,8,0:0:0:0:
224,244,53874,1,0,0:0:0:0:
260,180,53947,1,0,0:0:0:0:
360,168,54021,1,8,0:0:0:0:
352,104,54169,1,8,0:0:0:0:
336,216,54243,1,8,0:0:0:0:
272,236,54317,1,0,0:0:0:0:
116,176,54391,1,8,0:0:0:0:
224,160,54539,1,8,0:0:0:0:
232,108,54612,1,0,0:0:0:0:
328,132,54686,1,8,0:0:0:0:
116,76,54834,1,8,0:0:0:0:
340,196,54908,1,0,0:0:0:0:
232,172,54982,1,0,0:0:0:0:
264,252,55056,1,8,0:0:0:0:
168,216,55130,1,8,0:0:0:0:
172,252,55204,1,0,0:0:0:0:
304,112,55351,1,8,0:0:0:0:
368,184,55425,1,0,0:0:0:0:
300,252,55499,1,0,0:0:0:0:
160,144,55573,1,8,0:0:0:0:
280,180,55721,1,8,0:0:0:0:
220,200,55795,1,0,0:0:0:0:
384,232,55869,1,8,0:0:0:0:
204,152,56016,1,8,0:0:0:0:
276,128,56090,1,0,0:0:0:0:
128,212,56164,1,8,0:0:0:0:
368,112,56238,1,0,0:0:0:0:
72,136,56312,1,8,0:0:0:0:
192,84,56386,1,0,0:0:0:0:
284,84,56460,1,0,0:0:0:0:
320,240,56534,1,8,0:0:0:0:
344,180,56608,1,0,0:0:0:0:
248,232,56681,1,0,0:0:0:0:
260,200,56755,1,0,0:0:0:0:
212,244,56829,1,8,0:0:0:0:
396,108,56903,1,8,0:0:0:0:
332,176,56977,1,0,0:0:0:0:
328,88,57051,1,0,0:0:0:0:
212,136,57125,1,8,0:0:0:0:
216,76,57174,1,8,0:0:0:0:
228,136,57223,1,8,0:0:0:0:
352,68,57273,1,0,0:0:0:0:
132,200,57346,1,0,0:0:0:0:
292,156,57420,1,8,0:0:0:0:
372,216,57470,1,8,0:0:0:0:
416,240,57519,1,8,0:0:0:0:
328,228,57568,1,0,0:0:0:0:
132,112,57790,1,4,0:0:0:0:
352,112,58012,1,12,0:0:0:0:
208,152,58233,1,12,0:0:0:0:
328,176,58455,1,4,0:0:0:0:
272,108,58603,1,12,0:0:0:0:
388,140,58751,1,4,0:0:0:0:
264,224,60819,1,0,0:0:0:0:
320,188,60967,1,0,0:0:0:0:
176,228,61115,1,12,0:0:0:0:
296,148,61706,1,8,0:0:0:0:
248,224,62297,1,0,0:0:0:0:
208,192,62593,1,8,0:0:0:0:
316,184,62741,1,0,0:0:0:0:
256,140,63036,1,0,0:0:0:0:
152,196,63332,1,0,0:0:0:0:
296,204,63627,1,0,0:0:0:0:
308,160,63775,1,0,0:0:0:0:
224,172,63923,1,0,0:0:0:0:
324,128,64071,1,8,0:0:0:0:
196,140,64219,1,0,0:0:0:0:
316,196,64366,1,0,0:0:0:0:
264,112,64514,1,8,0:0:0:0:
216,192,65549,1,0,0:0:0:0:
304,208,65696,1,0,0:0:0:0:
352,148,65844,1,8,0:0:0:0:
240,208,66435,1,8,0:0:0:0:
160,168,67026,1,0,0:0:0:0:
320,172,67322,1,8,0:0:0:0:
260,172,67470,1,0,0:0:0:0:
168,184,67765,1,0,0:0:0:0:
272,156,68061,1,0,0:0:0:0:
368,144,68356,1,0,0:0:0:0:
280,220,68504,1,0,0:0:0:0:
216,180,68652,1,0,0:0:0:0:
280,144,68800,1,8,0:0:0:0:
344,116,68948,1,8,0:0:0:0:
352,220,69095,1,0,0:0:0:0:
252,244,69243,1,8,0:0:0:0:
200,192,70278,1,0,0:0:0:0:
304,188,70425,1,8,0:0:0:0:
352,128,70573,1,4,0:0:0:0:
124,172,70869,1,8,0:0:0:0:
228,148,71164,1,8,0:0:0:0:
208,292,71460,1,8,0:0:0:0:
320,176,71755,1,0,0:0:0:0:
200,136,71903,1,0,0:0:0:0:
292,112,72051,1,8,0:0:0:0:
292,240,72199,1,0,0:0:0:0:
384,240,72347,1,8,0:0:0:0:
172,224,72494,1,4,0:0:0:0:
328,184,72790,1,4,0:0:0:0:
272,176,73086,1,0,0:0:0:0:
188,248,73233,1,0,0:0:0:0:
152,184,73381,1,0,0:0:0:0:
248,120,73529,1,8,0:0:0:0:
284,148,73677,1,0,0:0:0:0:
324,256,73824,1,0,0:0:0:0:
360,212,73972,1,8,0:0:0:0:
192,212,74120,1,4,0:0:0:0:
344,108,74416,1,8,0:0:0:0:
232,148,74563,1,8,0:0:0:0:
332,128,74711,1,4,0:0:0:0:
376,204,74933,1,4,0:0:0:0:
240,216,75154,1,4,0:0:0:0:
172,148,75302,1,4,0:0:0:0:
288,136,75450,1,0,0:0:0:0:
240,108,75524,1,0,0:0:0:0:
344,184,75598,1,8,0:0:0:0:
160,228,75746,1,0,0:0:0:0:
284,240,75893,1,12,0:0:0:0:
256,204,76041,1,0,0:0:0:0:
308,180,76189,1,8,0:0:0:0:
248,120,76337,1,8,0:0:0:0:
368,132,76485,1,4,0:0:0:0:
256,228,76780,1,8,0:0:0:0:
188,160,76928,1,12,0:0:0:0:
284,176,77223,1,4,0:0:0:0:
256,112,77371,1,0,0:0:0:0:
352,136,77519,1,12,0:0:0:0:
284,144,77815,1,8,0:0:0:0:
208,128,77962,1,4,0:0:0:0:
124,240,78110,1,0,0:0:0:0:
340,212,78258,1,4,0:0:0:0:
304,128,78406,1,8,0:0:0:0:
260,232,78553,1,4,0:0:0:0:
136,228,78701,1,12,0:0:0:0:
236,128,78849,1,4,0:0:0:0:
372,184,78997,1,0,0:0:0:0:
288,172,79145,1,8,0:0:0:0:
256,200,79292,1,8,0:0:0:0:
232,288,79366,1,8,0:0:0:0:
328,280,79440,1,0,0:0:0:0:
324,116,79514,1,8,0:0:0:0:
204,136,79588,1,0,0:0:0:0:
260,104,79736,1,0,0:0:0:0:
308,192,79810,1,0,0:0:0:0:
396,240,79884,1,8,0:0:0:0:
168,252,80031,1,12,0:0:0:0:
168,160,80179,1,0,0:0:0:0:
152,100,80327,1,8,0:0:0:0:
284,192,80401,1,8,0:0:0:0:
260,280,80475,1,0,0:0:0:0:
276,128,80622,1,8,0:0:0:0:
216,208,80770,1,0,0:0:0:0:
336,184,80844,1,8,0:0:0:0:
356,100,80918,1,0,0:0:0:0:
144,192,81066,1,0,0:0:0:0:
216,124,81214,1,8,0:0:0:0:
264,144,81287,1,8,0:0:0:0:
276,96,81361,1,0,0:0:0:0:
104,124,81509,1,8,0:0:0:0:
260,216,81657,1,0,0:0:0:0:
212,224,81731,1,8,0:0:0:0:
144,240,81805,1,0,0:0:0:0:
344,188,81953,1,8,0:0:0:0:
232,140,82100,1,8,0:0:0:0:
324,128,82248,1,0,0:0:0:0:
160,156,82396,1,0,0:0:0:0:
248,84,82544,1,8,0:0:0:0:
260,216,82618,1,8,0:0:0:0:
184,256,82691,1,0,0:0:0:0:
272,112,82765,1,0,0:0:0:0:
336,192,82839,1,0,0:0:0:0:
344,248,82913,1,0,0:0:0:0:
156,96,82987,1,8,0:0:0:0:
100,124,83135,1,8,0:0:0:0:
176,176,83283,1,8,0:0:0:0:
312,136,83430,1,0,0:0:0:0:
184,116,83578,1,8,0:0:0:0:
352,180,83726,1,8,0:0:0:0:
260,216,83874,1,0,0:0:0:0:
388,144,84021,1,8,0:0:0:0:
272,124,84169,1,0,0:0:0:0:
184,208,84317,1,8,0:0:0:0:
156,124,84465,1,0,0:0:0:0:
272,152,84613,1,0,0:0:0:0:
228,260,84760,1,12,0:0:0:0:
168,160,84908,1,0,0:0:0:0:
152,100,85056,1,8,0:0:0:0:
284,192,85130,1,8,0:0:0:0:
260,280,85204,1,0,0:0:0:0:
276,128,85351,1,8,0:0:0:0:
216,208,85499,1,0,0:0:0:0:
336,184,85573,1,8,0:0:0:0:
356,100,85647,1,0,0:0:0:0:
144,192,85795,1,0,0:0:0:0:
216,124,85943,1,8,0:0:0:0:
264,144,86016,1,8,0:0:0:0:
276,96,86090,1,0,0:0:0:0:
104,124,86238,1,8,0:0:0:0:
260,216,86386,1,0,0:0:0:0:
212,224,86460,1,8,0:0:0:0:
144,240,86534,1,0,0:0:0:0:
344,188,86682,1,8,0:0:0:0:
232,140,86829,1,8,0:0:0:0:
324,128,86977,1,0,0:0:0:0:
160,156,87125,1,0,0:0:0:0:
248,84,87273,1,8,0:0:0:0:
260,216,87347,1,8,0:0:0:0:
184,256,87420,1,0,0:0:0:0:
272,112,87494,1,0,0:0:0:0:
336,192,87568,1,0,0:0:0:0:
344,248,87642,1,0,0:0:0:0:
156,96,87716,1,8,0:0:0:0:
100,124,87864,1,8,0:0:0:0:
176,176,88012,1,8,0:0:0:0:
388,160,88159,1,8,0:0:0:0:
236,140,88307,1,4,0:0:0:0:
340,92,88603,1,12,0:0:0:0:
192,204,88751,1,4,0:0:0:0:
260,188,89046,1,4,0:0:0:0:
368,244,89194,1,0,0:0:0:0:
340,176,89268,1,0,0:0:0:0:
280,120,89342,1,8,0:0:0:0:
172,200,89489,1,12,0:0:0:0:
168,160,89637,1,0,0:0:0:0:
152,100,89785,1,8,0:0:0:0:
284,192,89859,1,8,0:0:0:0:
260,280,89933,1,0,0:0:0:0:
276,128,90080,1,8,0:0:0:0:
216,208,90228,1,0,0:0:0:0:
336,184,90302,1,8,0:0:0:0:
356,100,90376,1,0,0:0:0:0:
144,192,90524,1,0,0:0:0:0:
216,124,90672,1,8,0:0:0:0:
264,144,90745,1,8,0:0:0:0:
276,96,90819,1,0,0:0:0:0:
104,124,90967,1,8,0:0:0:0:
260,216,91115,1,0,0:0:0:0:
212,224,91189,1,8,0:0:0:0:
144,240,91263,1,0,0:0:0:0:
344,188,91411,1,8,0:0:0:0:
232,140,91558,1,8,0:0:0:0:
324,128,91706,1,0,0:0:0:0:
160,156,91854,1,0,0:0:0:0:
248,84,92002,1,8,0:0:0:0:
260,216,92076,1,8,0:0:0:0:
184,256,92149,1,0,0:0:0:0:
272,112,92223,1,0,0:0:0:0:
336,192,92297,1,0,0:0:0:0:
344,248,92371,1,0,0:0:0:0:
156,96,92445,1,8,0:0:0:0:
100,124,92593,1,8,0:0:0:0:
176,176,92741,1,8,0:0:0:0:
300,148,92888,1,0,0:0:0:0:
232,116,93036,1,8,0:0:0:0:
360,128,93184,1,8,0:0:0:0:
288,240,93332,1,0,0:0:0:0:
208,184,93480,1,8,0:0:0:0:
264,120,93627,1,0,0:0:0:0:
208,152,93775,1,0,0:0:0:0:
240,208,93849,1,0,0:0:0:0:
208,248,93923,1,0,0:0:0:0:
356,240,94071,1,0,0:0:0:0:
300,144,94219,1,8,0:0:0:0:
396,128,94292,1,8,0:0:0:0:
252,228,94366,1,0,0:0:0:0:
232,140,94440,1,0,0:0:0:0:
112,132,94514,1,8,0:0:0:0:
168,172,94588,1,0,0:0:0:0:
220,216,94662,1,0,0:0:0:0:
220,248,94736,1,0,0:0:0:0:
332,196,94810,1,8,0:0:0:0:
192,120,94884,1,8,0:0:0:0:
296,152,94957,1,0,0:0:0:0:
296,204,95031,1,0,0:0:0:0:
272,120,95105,1,8,0:0:0:0:
324,176,95179,1,0,0:0:0:0:
348,256,95253,1,0,0:0:0:0:
336,268,95327,1,0,0:0:0:0:
348,116,95401,1,8,0:0:0:0:
156,208,95475,1,0,0:0:0:0:
208,120,95549,1,0,0:0:0:0:
248,232,95622,1,8,0:0:0:0:
104,160,95696,1,8,0:0:0:0:
284,124,95770,1,0,0:0:0:0:
356,232,95844,1,0,0:0:0:0:
244,200,95918,1,8,0:0:0:0:
304,260,95992,1,0,0:0:0:0:
160,228,96066,1,0,0:0:0:0:
272,100,96140,1,8,0:0:0:0:
376,152,96214,1,8,0:0:0:0:
176,136,96287,1,8,0:0:0:0:
212,100,96361,1,8,0:0:0:0:
324,196,96435,1,0,0:0:0:0:
252,204,96509,1,0,0:0:0:0:
328,88,96583,1,8,0:0:0:0:
388,152,96731,1,0,0:0:0:0:
388,240,96879,1,8,0:0:0:0:
176,224,96953,1,0,0:0:0:0:
256,156,97026,1,0,0:0:0:0:
140,144,97322,1,0,0:0:0:0:
340,144,97470,1,4,0:0:0:0:
304,236,97618,1,4,0:0:0:0:
232,164,97913,1,4,0:0:0:0:
264,108,98061,1,4,0:0:0:0:
316,128,98209,1,4,0:0:0:0:
252,212,98356,1,4,0:0:0:0:
172,176,98652,1,0,0:0:0:0:
356,184,98726,1,0,0:0:0:0:
344,264,98800,1,8,0:0:0:0:
264,120,98948,1,12,0:0:0:0:
388,120,99095,1,0,0:0:0:0:
272,236,99169,1,0,0:0:0:0:
368,248,99243,1,8,0:0:0:0:
168,200,99391,1,0,0:0:0:0:
288,120,99539,1,8,0:0:0:0:
224,160,99686,1,0,0:0:0:0:
184,96,99834,1,8,0:0:0:0:
336,216,99982,1,8,0:0:0:0:
328,160,100130,1,0,0:0:0:0:
264,116,100278,1,8,0:0:0:0:
288,200,100352,1,8,0:0:0:0:
244,268,100425,1,0,0:0:0:0:
192,192,100499,1,0,0:0:0:0:
176,112,100573,1,0,0:0:0:0:
104,172,100647,1,0,0:0:0:0:
376,252,100721,1,8,0:0:0:0:
56,120,100795,1,0,0:0:0:0:
156,164,100869,1,0,0:0:0:0:
168,264,100943,1,0,0:0:0:0:
348,208,101017,1,8,0:0:0:0:
228,120,101090,1,0,0:0:0:0:
300,144,101164,1,8,0:0:0:0:
292,96,101238,1,8,0:0:0:0:
272,252,101312,1,0,0:0:0:0:
396,152,101534,1,4,0:0:0:0:
128,160,101755,1,12,0:0:0:0:
240,144,101903,1,4,0:0:0:0:
324,128,102125,1,12,0:0:0:0:
156,184,102347,1,12,0:0:0:0:
272,228,102494,1,12,0:0:0:0:
232,112,102716,1,4,0:0:0:0:
144,176,102938,1,12,0:0:0:0:
308,180,103086,1,4,0:0:0:0:
280,136,103307,1,12,0:0:0:0:
200,172,103529,1,12,0:0:0:0:
300,188,103677,1,12,0:0:0:0:
360,152,103824,1,0,0:0:0:0:
248,280,103898,1,0,0:0:0:0:
148,272,103972,1,8,0:0:0:0:
112,144,104120,1,0,0:0:0:0:
196,124,104194,1,0,0:0:0:0:
252,212,104268,1,0,0:0:0:0:
340,160,104416,1,0,0:0:0:0:
280,116,104563,1,8,0:0:0:0:
356,248,104711,1,0,0:0:0:0:
188,232,104859,1,12,0:0:0:0:
172,128,105154,1,12,0:0:0:0:
280,116,105302,1,12,0:0:0:0:
248,228,105598,1,4,0:0:0:0:
328,184,105893,1,12,0:0:0:0:
168,188,106189,1,4,0:0:0:0:
272,136,106337,1,4,0:0:0:0:
352,116,106485,1,8,0:0:0:0:
340,244,106558,1,8,0:0:0:0:
244,264,106632,1,0,0:0:0:0:
192,160,106706,1,0,0:0:0:0:
208,104,106780,1,0,0:0:0:0:
288,88,106854,1,0,0:0:0:0:
312,168,106928,1,8,0:0:0:0:
264,200,106977,1,8,0:0:0:0:
248,256,107026,1,8,0:0:0:0:
124,204,107076,1,8,0:0:0:0:
108,120,107125,1,8,0:0:0:0:
144,72,107174,1,8,0:0:0:0:
364,240,107223,1,0,0:0:0:0:
424,168,107371,1,12,0:0:0:0:
264,200,107667,1,12,0:0:0:0:
264,116,107815,1,12,0:0:0:0:
176,248,107962,1,12,0:0:0:0:
164,152,108110,1,12,0:0:0:0:
300,184,108406,1,12,0:0:0:0:
296,120,108553,1,4,0:0:0:0:
232,164,108701,1,4,0:0:0:0:
312,160,108849,1,12,0:0:0:0:
140,164,109145,1,12,0:0:0:0:
272,136,109440,1,12,0:0:0:0:
356,120,109588,1,8,0:0:0:0:
232,200,109662,1,8,0:0:0:0:
188,236,109736,1,0,0:0:0:0:
132,240,109810,1,0,0:0:0:0:
312,252,109884,1,0,0:0:0:0:
252,196,109957,1,0,0:0:0:0:
244,144,110031,1,0,0:0:0:0:
332,180,110105,1,0,0:0:0:0:
344,252,110179,1,8,0:0:0:0:
184,160,110253,1,0,0:0:0:0:
248,128,110327,1,8,0:0:0:0:
280,244,110401,1,8,0:0:0:0:
212,168,110475,1,8,0:0:0:0:
132,240,110549,1,0,0:0:0:0:
96,188,110622,1,8,0:0:0:0:
136,184,110696,1,0,0:0:0:0:
220,256,110770,1,8,0:0:0:0:
336,208,110918,1,4,0:0:0:0:
320,136,111066,1,12,0:0:0:0:
204,136,111214,1,4,0:0:0:0:
268,208,111509,1,4,0:0:0:0:
176,208,111805,1,12,0:0:0:0:
232,132,111953,1,8,0:0:0:0:
356,236,112026,1,8,0:0:0:0:
256,272,112100,1,0,0:0:0:0:
340,144,112174,1,0,0:0:0:0:
296,124,112248,1,8,0:0:0:0:
144,140,112322,1,0,0:0:0:0:
248,216,112396,1,0,0:0:0:0:
268,224,112470,1,0,0:0:0:0:
116,216,112544,1,8,0:0:0:0:
164,232,112618,1,0,0:0:0:0:
200,264,112691,1,8,0:0:0:0:
192,280,112765,1,8,0:0:0:0:
232,152,112839,1,0,0:0:0:0:
156,152,112913,1,8,0:0:0:0:
264,160,112987,1,8,0:0:0:0:
292,244,113061,1,8,0:0:0:0:
276,152,113135,1,0,0:0:0:0:
312,112,113209,1,8,0:0:0:0:
360,212,113283,1,8,0:0:0:0:
288,240,113356,1,0,0:0:0:0:
224,112,113430,1,0,0:0:0:0:
132,148,113504,1,8,0:0:0:0:
180,224,113578,1,8,0:0:0:0:
200,264,113652,1,0,0:0:0:0:
316,224,113726,1,8,0:0:0:0:
196,204,113800,1,8,0:0:0:0:
268,188,113874,1,0,0:0:0:0:
312,144,113948,1,0,0:0:0:0:
296,104,114021,1,0,0:0:0:0:
352,100,114095,1,0,0:0:0:0:
372,176,114169,1,8,0:0:0:0:
276,204,114243,1,0,0:0:0:0:
200,132,114317,1,8,0:0:0:0:
104,176,114391,1,8,0:0:0:0:
192,224,114465,1,8,0:0:0:0:
288,164,114539,1,8,0:0:0:0:
264,204,114613,1,0,0:0:0:0:
264,104,114686,1,0,0:0:0:0:
304,96,114760,1,8,0:0:0:0:
328,192,114834,1,8,0:0:0:0:
284,256,114908,1,0,0:0:0:0:
140,168,114982,1,0,0:0:0:0:
212,120,115056,1,0,0:0:0:0:
256,148,115130,1,0,0:0:0:0:
160,108,115204,1,8,0:0:0:0:
144,116,115278,1,0,0:0:0:0:
224,152,115352,1,8,0:0:0:0:
248,208,115425,1,8,0:0:0:0:
320,128,115499,1,0,0:0:0:0:
244,112,115573,1,0,0:0:0:0:
344,232,115647,1,8,0:0:0:0:
120,232,115721,1,0,0:0:0:0:
96,208,115795,1,8,0:0:0:0:
168,188,115869,1,0,0:0:0:0:
140,132,115943,1,8,0:0:0:0:
104,140,116017,1,8,0:0:0:0:
204,152,116090,1,0,0:0:0:0:
248,228,116164,1,0,0:0:0:0:
232,264,116238,1,0,0:0:0:0:
136,260,116312,1,0,0:0:0:0:
80,124,116386,1,8,0:0:0:0:
324,120,116534,1,12,0:0:0:0:
