osu file format v14

[General]
AudioFilename: audio.mp3
AudioLeadIn: 0
PreviewTime: 70730
Countdown: 1
SampleSet: None
StackLeniency: 0.7
Mode: 3
LetterboxInBreaks: 0
SpecialStyle: 0
WidescreenStoryboard: 1

[Editor]
DistanceSpacing: 1
BeatDivisor: 4
GridSize: 32
TimelineZoom: 2.099999

[Metadata]
Title:Run Wild
TitleUnicode:Run Wild
Artist:PLS&TY
ArtistUnicode:PLS&TY
Creator:Combistein
Version:Ethnic
Source:
Tags:
BeatmapID:1737006
BeatmapSetID:828272

[Difficulty]
HPDrainRate:9
CircleSize:4
OverallDifficulty:8
ApproachRate:5
SliderMultiplier:1.4
SliderTickRate:1

[Events]
//Background and Video events
0,0,"anime-original-girl-artwork-xs.jpg",0,0
//Break Periods
//Storyboard Layer 0 (Background)
//Storyboard Layer 1 (Fail)
//Storyboard Layer 2 (Pass)
//Storyboard Layer 3 (Foreground)
//Storyboard Sound Samples

[TimingPoints]
73,315.789473684211,4,2,0,20,1,0
9546,-125,4,2,0,20,0,0
9941,-90.9090909090909,4,2,0,20,0,0
10020,-71.4285714285714,4,2,0,20,0,0
10178,-100,4,2,0,20,0,0
19651,-142.857142857143,4,2,0,20,0,0
19967,-111.111111111111,4,2,0,20,0,0
20046,-90.9090909090909,4,2,0,20,0,0
20125,-66.6666666666667,4,2,0,20,0,0
20283,-100,4,2,0,20,0,0
30230,-83.3333333333333,4,2,0,20,0,0
30388,-100,4,2,0,20,0,0
35283,-83.3333333333333,4,2,0,20,0,0
35441,-100,4,2,0,20,0,0
40336,-83.3333333333333,4,2,0,20,0,0
40494,-100,4,2,0,20,0,0
40967,-83.3333333333333,4,2,0,20,0,0
41125,-100,4,2,0,20,0,0
41441,-83.3333333333333,4,2,0,20,0,0
41599,-100,4,2,0,20,0,0
42230,-83.3333333333333,4,2,0,20,0,0
42388,-100,4,2,0,20,0,0
42704,-83.3333333333333,4,2,0,20,0,0
42862,-100,4,2,0,20,0,0
43494,-83.3333333333333,4,2,0,20,0,0
43651,-100,4,2,0,20,0,0
43967,-83.3333333333333,4,2,0,20,0,0
44125,-100,4,2,0,20,0,0
44757,-83.3333333333333,4,2,0,20,0,0
44915,-100,4,2,0,20,0,0
45230,-83.3333333333333,4,2,0,20,0,0
45388,-100,4,2,0,20,0,0
46020,-83.3333333333333,4,2,0,20,0,0
46178,-100,4,2,0,20,0,0
46494,-83.3333333333333,4,2,0,20,0,0
46651,-100,4,2,0,20,0,0
47283,-83.3333333333333,4,2,0,20,0,0
47441,-100,4,2,0,20,0,0
47757,-83.3333333333333,4,2,0,20,0,0
47915,-100,4,2,0,20,0,0
48546,-83.3333333333333,4,2,0,20,0,0
48704,-100,4,2,0,20,0,0
49809,-83.3333333333333,4,2,0,20,0,0
49967,-100,4,2,0,20,0,0
51073,-83.3333333333333,4,2,0,20,0,0
51230,-100,4,2,0,20,0,0
51546,-83.3333333333333,4,2,0,20,0,0
51704,-100,4,2,0,20,0,0
52336,-83.3333333333333,4,2,0,20,0,0
52494,-100,4,2,0,20,0,0
52809,-83.3333333333333,4,2,0,20,0,0
52967,-100,4,2,0,20,0,0
53599,-83.3333333333333,4,2,0,20,0,0
53757,-100,4,2,0,20,0,0
54073,-83.3333333333333,4,2,0,20,0,0
54230,-100,4,2,0,20,0,0
54862,-83.3333333333333,4,2,0,20,0,0
55020,-100,4,2,0,20,0,0
55336,-83.3333333333333,4,2,0,20,0,0
55494,-100,4,2,0,20,0,0
56125,-83.3333333333333,4,2,0,20,0,0
56283,-100,4,2,0,20,0,0
56599,-83.3333333333333,4,2,0,20,0,0
56757,-100,4,2,0,20,0,0
57388,-83.3333333333333,4,2,0,20,0,0
57546,-100,4,2,0,20,0,0
57862,-83.3333333333333,4,2,0,20,0,0
58020,-100,4,2,0,20,0,0
58651,-83.3333333333333,4,2,0,20,0,0
58809,-100,4,2,0,20,0,0
59915,-83.3333333333333,4,2,0,20,0,0
60073,-100,4,2,0,20,0,0
61178,-83.3333333333333,4,2,0,20,0,0
61336,-100,4,2,0,20,0,0
61809,-83.3333333333333,4,2,0,20,0,0
61967,-100,4,2,0,20,0,0
62441,-83.3333333333333,4,2,0,20,0,0
62599,-100,4,2,0,20,0,0
63073,-83.3333333333333,4,2,0,20,0,0
63230,-100,4,2,0,20,0,0
63704,-83.3333333333333,4,2,0,20,0,0
63862,-100,4,2,0,20,0,0
64336,-83.3333333333333,4,2,0,20,0,0
64494,-100,4,2,0,20,0,0
64967,-83.3333333333333,4,2,0,20,0,0
65125,-100,4,2,0,20,0,0
65441,-133.333333333333,4,2,0,20,0,0
65599,-76.9230769230769,4,2,0,20,0,0
65757,-100,4,2,0,20,0,0
66230,-83.3333333333333,4,2,0,20,0,0
66388,-100,4,2,0,20,0,0
67494,-83.3333333333333,4,2,0,20,0,0
67651,-100,4,2,0,20,0,0
68283,-100,4,2,0,20,0,0
68599,-95.2380952380952,4,2,0,20,0,0
68915,-90.9090909090909,4,2,0,20,0,0
69230,-86.9565217391304,4,2,0,20,0,0
70178,-666.666666666658,4,2,0,20,0,0
70651,-90.9090909090909,4,2,0,20,0,0
70809,-100,4,2,0,20,0,0
71283,-66.6666666666667,4,2,0,20,0,0
71441,-100,4,2,0,20,0,0
72546,-76.9230769230769,4,2,0,20,0,0
72704,-100,4,2,0,20,0,0
73178,-76.9230769230769,4,2,0,20,0,0
73336,-100,4,2,0,20,0,0
73809,-83.3333333333333,4,2,0,20,0,0
73967,-100,4,2,0,20,0,0
74204,-83.3333333333333,4,2,0,20,0,0
74283,-100,4,2,0,20,0,0
75073,-76.9230769230769,4,2,0,20,0,0
75230,-100,4,2,0,20,0,0
75704,-76.9230769230769,4,2,0,20,0,0
75862,-100,4,2,0,20,0,0
76415,-83.3333333333333,4,2,0,20,0,0
76494,-100,4,2,0,20,0,0
77678,-83.3333333333333,4,2,0,20,0,0
77757,-100,4,2,0,20,0,0
78309,-83.3333333333333,4,2,0,20,0,0
78388,-100,4,2,0,20,0,0
78862,-83.3333333333333,4,2,0,20,0,0
79020,-100,4,2,0,20,0,0
79178,-83.3333333333333,4,2,0,20,0,0
79336,-100,4,2,0,20,0,0
80204,-83.3333333333333,4,2,0,20,0,0
80283,-100,4,2,0,20,0,0
80836,-83.3333333333333,4,2,0,20,0,0
80915,-100,4,2,0,20,0,0
81388,-83.3333333333333,4,2,0,20,0,0
81546,-100,4,2,0,20,0,0
82651,-83.3333333333333,4,2,0,20,0,0
82809,-100,4,2,0,20,0,0
83283,-83.3333333333333,4,2,0,20,0,0
83441,-100,4,2,0,20,0,0
83913,-83.3333333333333,4,2,0,20,0,0
84073,-100,4,2,0,20,0,0
84230,-83.3333333333333,4,2,0,20,0,0
84388,-100,4,2,0,20,0,0
84783,-125,4,2,0,20,0,0
85178,-83.3333333333333,4,2,0,20,0,0
85336,-100,4,2,0,20,0,0
85809,-83.3333333333333,4,2,0,20,0,0
85967,-100,4,2,0,20,0,0
86520,-83.3333333333333,4,2,0,20,0,0
86599,-100,4,2,0,20,0,0
87783,-83.3333333333333,4,2,0,20,0,0
87862,-100,4,2,0,20,0,0
88415,-83.3333333333333,4,2,0,20,0,0
88494,-100,4,2,0,20,0,0
88967,-83.3333333333333,4,2,0,20,0,0
89125,-100,4,2,0,20,0,0
89283,-83.3333333333333,4,2,0,20,0,0
89441,-100,4,2,0,20,0,0
89757,-125,4,2,0,20,0,0
90230,-83.3333333333333,4,2,0,20,0,0
90388,-100,4,2,0,20,0,0
90704,-83.3333333333333,4,2,0,20,0,0
91020,-100,4,2,0,20,0,0
92125,-83.3333333333333,4,2,0,20,0,0
92283,-100,4,2,0,20,0,0
93073,-83.3333333333333,4,2,0,20,0,0
93230,-100,4,2,0,20,0,0
94651,-83.3333333333333,4,2,0,20,0,0
94809,-100,4,2,0,20,0,0
95599,-83.3333333333333,4,2,0,20,0,0
95757,-100,4,2,0,20,0,0
95915,-83.3333333333333,4,2,0,20,0,0
96073,-100,4,2,0,20,0,0
97178,-83.3333333333333,4,2,0,20,0,0
97336,-100,4,2,0,20,0,0
98125,-83.3333333333333,4,2,0,20,0,0
98283,-100,4,2,0,20,0,0
99704,-83.3333333333333,4,2,0,20,0,0
99862,-100,4,2,0,20,0,0
100809,-83.3333333333333,4,2,0,20,0,0
101125,-100,4,2,0,20,0,0
105862,-90.9090909090909,4,2,0,20,0,0
106020,-83.3333333333333,4,2,0,20,0,0
106178,-100,4,2,0,20,0,0
110915,-83.3333333333333,4,2,0,20,0,0
111230,-100,4,2,0,20,0,0
121020,-83.3333333333333,4,2,0,20,0,0
121336,-100,4,2,0,20,0,0
131283,-83.3333333333333,4,2,0,20,0,0
131441,-100,4,2,0,20,0,0
141546,-125,4,2,0,20,0,0
141862,-83.3333333333333,4,2,0,20,0,0
142178,-100,4,2,0,20,0,0
142178,-100,4,2,0,20,0,0
142257,-83.3333333333333,4,2,0,20,0,0
142336,-66.6666666666667,4,2,0,20,0,0
142415,-133.333333333333,4,2,0,20,0,0
142494,-66.6666666666667,4,2,0,20,0,0
142573,-133.333333333333,4,2,0,20,0,0
142651,-66.6666666666667,4,2,0,20,0,0
142651,-66.6666666666667,4,2,0,20,0,0
142730,-133.333333333333,4,2,0,20,0,0
142809,-66.6666666666667,4,2,0,20,0,0
142888,-133.333333333333,4,2,0,20,0,0
142967,-66.6666666666667,4,2,0,20,0,0
143046,-133.333333333333,4,2,0,20,0,0
143125,-66.6666666666667,4,2,0,20,0,0
143204,-133.333333333333,4,2,0,20,0,0
143283,-66.6666666666667,4,2,0,20,0,0
143362,-133.333333333333,4,2,0,20,0,0
143441,-66.6666666666667,4,2,0,20,0,0
143520,-133.333333333333,4,2,0,20,0,0
143599,-66.6666666666667,4,2,0,20,0,0
143678,-133.333333333333,4,2,0,20,0,0
143757,-66.6666666666667,4,2,0,20,0,0
143836,-133.333333333333,4,2,0,20,0,0
143915,-66.6666666666667,4,2,0,20,0,0
143994,-133.333333333333,4,2,0,20,0,0
144073,-66.6666666666667,4,2,0,20,0,0
144151,-133.333333333333,4,2,0,20,0,0
144230,-66.6666666666667,4,2,0,20,0,0
144309,-133.333333333333,4,2,0,20,0,0
144388,-66.6666666666667,4,2,0,20,0,0
144467,-133.333333333333,4,2,0,20,0,0
144546,-66.6666666666667,4,2,0,20,0,0
144625,-133.333333333333,4,2,0,20,0,0
144704,-66.6666666666667,4,2,0,20,0,0
144783,-133.333333333333,4,2,0,20,0,0
144862,-66.6666666666667,4,2,0,20,0,0
144941,-133.333333333333,4,2,0,20,0,0
145020,-66.6666666666667,4,2,0,20,0,0
145099,-133.333333333333,4,2,0,20,0,0
145178,-66.6666666666667,4,2,0,20,0,0
145257,-133.333333333333,4,2,0,20,0,0
145336,-66.6666666666667,4,2,0,20,0,0
145415,-133.333333333333,4,2,0,20,0,0
145494,-66.6666666666667,4,2,0,20,0,0
145573,-133.333333333333,4,2,0,20,0,0
145651,-66.6666666666667,4,2,0,20,0,0
145730,-133.333333333333,4,2,0,20,0,0
145809,-66.6666666666667,4,2,0,20,0,0
145888,-133.333333333333,4,2,0,20,0,0
145967,-66.6666666666667,4,2,0,20,0,0
146046,-133.333333333333,4,2,0,20,0,0
146125,-66.6666666666667,4,2,0,20,0,0
146204,-133.333333333333,4,2,0,20,0,0
146283,-66.6666666666667,4,2,0,20,0,0
146362,-133.333333333333,4,2,0,20,0,0
146441,-66.6666666666667,4,2,0,20,0,0
146520,-133.333333333333,4,2,0,20,0,0
146599,-66.6666666666667,4,2,0,20,0,0
146678,-133.333333333333,4,2,0,20,0,0
146757,-66.6666666666667,4,2,0,20,0,0
146836,-133.333333333333,4,2,0,20,0,0
146915,-66.6666666666667,4,2,0,20,0,0
146994,-133.333333333333,4,2,0,20,0,0
147073,-66.6666666666667,4,2,0,20,0,0
147151,-133.333333333333,4,2,0,20,0,0
147230,-66.6666666666667,4,2,0,20,0,0
147309,-133.333333333333,4,2,0,20,0,0
147388,-66.6666666666667,4,2,0,20,0,0
147467,-133.333333333333,4,2,0,20,0,0
147546,-66.6666666666667,4,2,0,20,0,0
147625,-133.333333333333,4,2,0,20,0,0
147704,-66.6666666666667,4,2,0,20,0,0
147783,-133.333333333333,4,2,0,20,0,0
147862,-66.6666666666667,4,2,0,20,0,0
147941,-133.333333333333,4,2,0,20,0,0
148020,-66.6666666666667,4,2,0,20,0,0
148099,-133.333333333333,4,2,0,20,0,0
148178,-66.6666666666667,4,2,0,20,0,0
148257,-133.333333333333,4,2,0,20,0,0
148336,-66.6666666666667,4,2,0,20,0,0
148415,-133.333333333333,4,2,0,20,0,0
148494,-66.6666666666667,4,2,0,20,0,0
148573,-133.333333333333,4,2,0,20,0,0
148651,-66.6666666666667,4,2,0,20,0,0
148730,-133.333333333333,4,2,0,20,0,0
148809,-66.6666666666667,4,2,0,20,0,0
148888,-133.333333333333,4,2,0,20,0,0
148967,-66.6666666666667,4,2,0,20,0,0
149046,-133.333333333333,4,2,0,20,0,0
149125,-66.6666666666667,4,2,0,20,0,0
149204,-133.333333333333,4,2,0,20,0,0
149283,-66.6666666666667,4,2,0,20,0,0
149362,-133.333333333333,4,2,0,20,0,0
149441,-66.6666666666667,4,2,0,20,0,0
149520,-133.333333333333,4,2,0,20,0,0
149599,-66.6666666666667,4,2,0,20,0,0
149678,-133.333333333333,4,2,0,20,0,0
149757,-66.6666666666667,4,2,0,20,0,0
149836,-133.333333333333,4,2,0,20,0,0
149915,-66.6666666666667,4,2,0,20,0,0
149994,-133.333333333333,4,2,0,20,0,0
150073,-66.6666666666667,4,2,0,20,0,0
150151,-133.333333333333,4,2,0,20,0,0
150230,-66.6666666666667,4,2,0,20,0,0
150309,-133.333333333333,4,2,0,20,0,0
150388,-66.6666666666667,4,2,0,20,0,0
150467,-133.333333333333,4,2,0,20,0,0
150546,-66.6666666666667,4,2,0,20,0,0
150625,-133.333333333333,4,2,0,20,0,0
150704,-66.6666666666667,4,2,0,20,0,0
150783,-133.333333333333,4,2,0,20,0,0
150862,-66.6666666666667,4,2,0,20,0,0
150941,-133.333333333333,4,2,0,20,0,0
151020,-66.6666666666667,4,2,0,20,0,0
151099,-133.333333333333,4,2,0,20,0,0
151178,-66.6666666666667,4,2,0,20,0,0
151257,-133.333333333333,4,2,0,20,0,0
151336,-66.6666666666667,4,2,0,20,0,0
151415,-133.333333333333,4,2,0,20,0,0
151494,-66.6666666666667,4,2,0,20,0,0
151573,-133.333333333333,4,2,0,20,0,0
151651,-100,4,2,0,20,0,0
152599,-50,4,2,0,20,0,0
152638,-200,4,2,0,20,0,0
152757,-33.3333333333333,4,2,0,20,0,0
152796,-200,4,2,0,20,0,0
152915,-25,4,2,0,20,0,0
152954,-200,4,2,0,20,0,0
153073,-20,4,2,0,20,0,0
153112,-200,4,2,0,20,0,0
153230,-16.6666666666667,4,2,0,20,0,0
153270,-200,4,2,0,20,0,0
153388,-14.2857142857143,4,2,0,20,0,0
153428,-200,4,2,0,20,0,0
153546,-12.5,4,2,0,20,0,0
153586,-200,4,2,0,20,0,0
153704,-11.1111111111111,4,2,0,20,0,0
153744,-200,4,2,0,20,0,0
153862,-10,4,2,0,20,0,0
153901,-200,4,2,0,20,0,0
154020,-10,4,2,0,20,0,0
154059,-200,4,2,0,20,0,0
154178,-10,4,2,0,20,0,0
154217,-200,4,2,0,20,0,0
154336,-10,4,2,0,20,0,0
154375,-200,4,2,0,20,0,0
154494,-10,4,2,0,20,0,0
154533,-200,4,2,0,20,0,0
154651,-10,4,2,0,20,0,0
154691,-200,4,2,0,20,0,0
154809,-10,4,2,0,20,0,0
154849,-200,4,2,0,20,0,0
154967,-10,4,2,0,20,0,0
155007,-200,4,2,0,20,0,0
155125,-10,4,2,0,20,0,0
155165,-200,4,2,0,20,0,0
155283,-10,4,2,0,20,0,0
155323,-200,4,2,0,20,0,0
155441,-10,4,2,0,20,0,0
155480,-200,4,2,0,20,0,0
155599,-10,4,2,0,20,0,0
155638,-200,4,2,0,20,0,0
155757,-10,4,2,0,20,0,0
155796,-200,4,2,0,20,0,0
155915,-10,4,2,0,20,0,0
155954,-200,4,2,0,20,0,0
156073,-10,4,2,0,20,0,0
156112,-200,4,2,0,20,0,0
156230,-10,4,2,0,20,0,0
156270,-200,4,2,0,20,0,0
156388,-10,4,2,0,20,0,0
156428,-200,4,2,0,20,0,0
156546,-10,4,2,0,20,0,0
156586,-200,4,2,0,20,0,0
156704,-10,4,2,0,20,0,0
156744,-200,4,2,0,20,0,0
156862,-10,4,2,0,20,0,0
156901,-200,4,2,0,20,0,0
157020,-10,4,2,0,20,0,0
157059,-200,4,2,0,20,0,0
157178,-10,4,2,0,20,0,0
157217,-200,4,2,0,20,0,0
157336,-10,4,2,0,20,0,0
157375,-200,4,2,0,20,0,0
157494,-10,4,2,0,20,0,0
157533,-200,4,2,0,20,0,0
157651,-10,4,2,0,20,0,0
157691,-200,4,2,0,20,0,0
157809,-10,4,2,0,20,0,0
157849,-200,4,2,0,20,0,0
157967,-10,4,2,0,20,0,0
158007,-200,4,2,0,20,0,0
158125,-10,4,2,0,20,0,0
158165,-200,4,2,0,20,0,0
158283,-10,4,2,0,20,0,0
158323,-200,4,2,0,20,0,0
158441,-10,4,2,0,20,0,0
158480,-200,4,2,0,20,0,0
158599,-10,4,2,0,20,0,0
158638,-200,4,2,0,20,0,0
158757,-10,4,2,0,20,0,0
158796,-200,4,2,0,20,0,0
158915,-10,4,2,0,20,0,0
158954,-200,4,2,0,20,0,0
159073,-10,4,2,0,20,0,0
159112,-200,4,2,0,20,0,0
159230,-10,4,2,0,20,0,0
159270,-200,4,2,0,20,0,0
159388,-10,4,2,0,20,0,0
159428,-200,4,2,0,20,0,0
159546,-10,4,2,0,20,0,0
159586,-200,4,2,0,20,0,0
159704,-10,4,2,0,20,0,0
159744,-200,4,2,0,20,0,0
159862,-10,4,2,0,20,0,0
159901,-200,4,2,0,20,0,0
160020,-10,4,2,0,20,0,0
160059,-200,4,2,0,20,0,0
160178,-10,4,2,0,20,0,0
160217,-200,4,2,0,20,0,0
160336,-10,4,2,0,20,0,0
160375,-200,4,2,0,20,0,0
160494,-10,4,2,0,20,0,0
160533,-200,4,2,0,20,0,0
160651,-12.5,4,2,0,20,0,0
160691,-200,4,2,0,20,0,0
160809,-16.6666666666667,4,2,0,20,0,0
160849,-200,4,2,0,20,0,0
160967,-25,4,2,0,20,0,0
161007,-200,4,2,0,20,0,0
161125,-25,4,2,0,20,0,0
161165,-200,4,2,0,20,0,0
161283,-50,4,2,0,20,0,0
161323,-200,4,2,0,20,0,0
161480,-66.6666666666667,4,2,0,20,0,0
161559,-100,4,2,0,20,0,0
161599,-100,4,2,0,20,0,0
161757,-100,4,2,0,20,0,0
162230,-83.3333333333333,4,2,0,20,0,0
162388,-100,4,2,0,20,0,0
162862,-83.3333333333333,4,2,0,20,0,0
163020,-100,4,2,0,20,0,0
163494,-83.3333333333333,4,2,0,20,0,0
163651,-100,4,2,0,20,0,0
164125,-83.3333333333333,4,2,0,20,0,0
164283,-100,4,2,0,20,0,0
164757,-83.3333333333333,4,2,0,20,0,0
164915,-100,4,2,0,20,0,0
165388,-83.3333333333333,4,2,0,20,0,0
165546,-100,4,2,0,20,0,0
166020,-83.3333333333333,4,2,0,20,0,0
166178,-100,4,2,0,20,0,0
166651,-83.3333333333333,4,2,0,20,0,0
166809,-100,4,2,0,20,0,0
171704,-83.3333333333333,4,2,0,20,0,0
171862,-100,4,2,0,20,0,0
172336,-83.3333333333333,4,2,0,20,0,0
172494,-100,4,2,0,20,0,0
173599,-83.3333333333333,4,2,0,20,0,0
173757,-100,4,2,0,20,0,0
174230,-83.3333333333333,4,2,0,20,0,0
174388,-100,4,2,0,20,0,0
174862,-83.3333333333333,4,2,0,20,0,0
175020,-100,4,2,0,20,0,0
175257,-83.3333333333333,4,2,0,20,0,0
175336,-100,4,2,0,20,0,0
176204,-83.3333333333333,4,2,0,20,0,0
176283,-100,4,2,0,20,0,0
176757,-83.3333333333333,4,2,0,20,0,0
176915,-100,4,2,0,20,0,0
177467,-83.3333333333333,4,2,0,20,0,0
177546,-100,4,2,0,20,0,0
178730,-83.3333333333333,4,2,0,20,0,0
178809,-100,4,2,0,20,0,0
179362,-83.3333333333333,4,2,0,20,0,0
179441,-100,4,2,0,20,0,0
179915,-83.3333333333333,4,2,0,20,0,0
180073,-100,4,2,0,20,0,0
180230,-83.3333333333333,4,2,0,20,0,0
180388,-100,4,2,0,20,0,0
181257,-83.3333333333333,4,2,0,20,0,0
181336,-100,4,2,0,20,0,0
181888,-83.3333333333333,4,2,0,20,0,0
181967,-100,4,2,0,20,0,0
182441,-83.3333333333333,4,2,0,20,0,0
182599,-100,4,2,0,20,0,0
183704,-83.3333333333333,4,2,0,20,0,0
183862,-100,4,2,0,20,0,0
184336,-83.3333333333333,4,2,0,20,0,0
184494,-100,4,2,0,20,0,0
184967,-83.3333333333333,4,2,0,20,0,0
185125,-100,4,2,0,20,0,0
185283,-83.3333333333333,4,2,0,20,0,0
185441,-100,4,2,0,20,0,0
185836,-125,4,2,0,20,0,0
186230,-83.3333333333333,4,2,0,20,0,0
186388,-100,4,2,0,20,0,0
186862,-83.3333333333333,4,2,0,20,0,0
187020,-100,4,2,0,20,0,0
187573,-83.3333333333333,4,2,0,20,0,0
187651,-100,4,2,0,20,0,0
188836,-83.3333333333333,4,2,0,20,0,0
188915,-100,4,2,0,20,0,0
189467,-83.3333333333333,4,2,0,20,0,0
189546,-100,4,2,0,20,0,0
190020,-83.3333333333333,4,2,0,20,0,0
190178,-100,4,2,0,20,0,0
190336,-83.3333333333333,4,2,0,20,0,0
190494,-100,4,2,0,20,0,0
190809,-125,4,2,0,20,0,0
191283,-83.3333333333333,4,2,0,20,0,0
191441,-100,4,2,0,20,0,0
191757,-83.3333333333333,4,2,0,20,0,0
192073,-100,4,2,0,20,0,0
193178,-83.3333333333333,4,2,0,20,0,0
193336,-100,4,2,0,20,0,0
194125,-83.3333333333333,4,2,0,20,0,0
194283,-100,4,2,0,20,0,0
195704,-83.3333333333333,4,2,0,20,0,0
195862,-100,4,2,0,20,0,0
196651,-83.3333333333333,4,2,0,20,0,0
196809,-100,4,2,0,20,0,0
198230,-83.3333333333333,4,2,0,20,0,0
198388,-100,4,2,0,20,0,0
199178,-83.3333333333333,4,2,0,20,0,0
199336,-100,4,2,0,20,0,0
200757,-83.3333333333333,4,2,0,20,0,0
200915,-100,4,2,0,20,0,0

[HitObjects]
192,192,73,128,0,230:0:0:0:0:
320,192,230,128,0,388:0:0:0:0:
448,192,388,128,0,546:0:0:0:0:
320,192,546,128,0,704:0:0:0:0:
64,192,704,128,0,862:0:0:0:0:
192,192,862,128,0,1020:0:0:0:0:
320,192,1020,128,0,1178:0:0:0:0:
192,192,1178,128,0,1336:0:0:0:0:
64,192,1336,128,0,1415:0:0:0:0:
448,192,1336,128,0,1415:0:0:0:0:
192,192,1651,128,0,2046:0:0:0:0:
448,192,1651,128,0,2046:0:0:0:0:
320,192,2125,128,0,2283:0:0:0:0:
64,192,2283,128,0,2441:0:0:0:0:
448,192,2441,128,0,2599:0:0:0:0:
192,192,2599,128,0,2678:0:0:0:0:
320,192,2599,128,0,2678:0:0:0:0:
320,192,2915,128,0,3309:0:0:0:0:
64,192,2915,128,0,3309:0:0:0:0:
192,192,3388,128,0,3546:0:0:0:0:
448,192,3546,128,0,3704:0:0:0:0:
64,192,3704,128,0,3862:0:0:0:0:
320,192,3862,128,0,4020:0:0:0:0:
192,192,4020,128,0,4178:0:0:0:0:
64,192,4178,128,0,4336:0:0:0:0:
192,192,4336,128,0,4494:0:0:0:0:
448,192,4494,1,0,0:0:0:0:
64,192,5125,1,0,0:0:0:0:
448,192,5125,128,0,5283:0:0:0:0:
192,192,5283,128,0,5441:0:0:0:0:
320,192,5441,128,0,5599:0:0:0:0:
64,192,5599,128,0,5757:0:0:0:0:
448,192,5757,128,0,5915:0:0:0:0:
320,192,5915,128,0,6073:0:0:0:0:
64,192,6073,128,0,6230:0:0:0:0:
192,192,6230,128,0,6388:0:0:0:0:
320,192,6388,128,0,6467:0:0:0:0:
448,192,6388,128,0,6467:0:0:0:0:
192,192,6704,128,0,7099:0:0:0:0:
320,192,6704,128,0,7099:0:0:0:0:
64,192,7178,128,0,7336:0:0:0:0:
448,192,7336,128,0,7494:0:0:0:0:
192,192,7494,128,0,7651:0:0:0:0:
64,192,7651,128,0,7730:0:0:0:0:
448,192,7651,128,0,7730:0:0:0:0:
320,192,7967,128,0,8362:0:0:0:0:
192,192,7967,128,0,8362:0:0:0:0:
64,192,8441,128,0,8599:0:0:0:0:
448,192,8599,128,0,8757:0:0:0:0:
64,192,8757,128,0,8915:0:0:0:0:
320,192,8915,128,0,9073:0:0:0:0:
192,192,9073,128,0,9230:0:0:0:0:
448,192,9230,128,0,9388:0:0:0:0:
64,192,9388,128,0,9546:0:0:0:0:
192,192,9546,1,0,0:0:0:0:
448,192,10178,128,0,12704:0:0:0:0:
64,192,10178,128,0,10336:0:0:0:0:
192,192,10336,128,0,10494:0:0:0:0:
320,192,10494,128,0,10651:0:0:0:0:
64,192,10651,128,0,10809:0:0:0:0:
320,192,10809,128,0,10967:0:0:0:0:
64,192,10967,128,0,11125:0:0:0:0:
320,192,11125,128,0,11283:0:0:0:0:
192,192,11283,128,0,11441:0:0:0:0:
64,192,11441,128,0,11520:0:0:0:0:
320,192,11441,128,0,11520:0:0:0:0:
192,192,11757,128,0,12230:0:0:0:0:
64,192,12230,128,0,12388:0:0:0:0:
320,192,12388,128,0,12546:0:0:0:0:
192,192,12546,128,0,12704:0:0:0:0:
64,192,12704,128,0,13967:0:0:0:0:
320,192,12704,128,0,12783:0:0:0:0:
448,192,13020,128,0,13494:0:0:0:0:
192,192,13494,128,0,13651:0:0:0:0:
320,192,13651,128,0,13809:0:0:0:0:
448,192,13809,128,0,13967:0:0:0:0:
192,192,13967,128,0,15230:0:0:0:0:
320,192,13967,128,0,14125:0:0:0:0:
448,192,14125,128,0,14283:0:0:0:0:
64,192,14283,128,0,14441:0:0:0:0:
320,192,14441,128,0,14599:0:0:0:0:
448,192,14599,128,0,15230:0:0:0:0:
64,192,15230,128,0,17757:0:0:0:0:
320,192,15388,128,0,15546:0:0:0:0:
448,192,15546,128,0,15704:0:0:0:0:
192,192,15704,128,0,15862:0:0:0:0:
448,192,15862,128,0,16020:0:0:0:0:
320,192,15862,1,0,0:0:0:0:
320,192,16020,128,0,16178:0:0:0:0:
192,192,16178,128,0,16336:0:0:0:0:
448,192,16336,128,0,16494:0:0:0:0:
320,192,16494,128,0,16573:0:0:0:0:
448,192,16809,128,0,17283:0:0:0:0:
192,192,17283,128,0,17441:0:0:0:0:
320,192,17441,128,0,17599:0:0:0:0:
192,192,17599,128,0,17757:0:0:0:0:
448,192,17757,128,0,17836:0:0:0:0:
320,192,17757,128,0,19020:0:0:0:0:
64,192,18073,128,0,18546:0:0:0:0:
192,192,18546,128,0,18704:0:0:0:0:
448,192,18704,128,0,18862:0:0:0:0:
64,192,18862,128,0,19020:0:0:0:0:
192,192,19020,128,0,19651:0:0:0:0:
448,192,19178,128,0,19336:0:0:0:0:
64,192,19336,128,0,19494:0:0:0:0:
448,192,19494,128,0,19651:0:0:0:0:
320,192,19651,1,0,0:0:0:0:
64,192,20283,1,0,0:0:0:0:
448,192,20283,1,0,0:0:0:0:
320,192,20441,1,0,0:0:0:0:
192,192,20599,1,0,0:0:0:0:
64,192,20757,1,0,0:0:0:0:
192,192,20836,1,0,0:0:0:0:
320,192,20915,1,0,0:0:0:0:
448,192,20915,1,0,0:0:0:0:
64,192,21073,1,0,0:0:0:0:
448,192,21230,1,0,0:0:0:0:
192,192,21388,1,0,0:0:0:0:
320,192,21546,1,0,0:0:0:0:
448,192,21546,1,0,0:0:0:0:
64,192,21704,1,0,0:0:0:0:
192,192,21783,1,0,0:0:0:0:
448,192,21862,1,0,0:0:0:0:
448,192,22020,1,0,0:0:0:0:
64,192,22178,1,0,0:0:0:0:
192,192,22178,1,0,0:0:0:0:
192,192,22336,1,0,0:0:0:0:
320,192,22494,1,0,0:0:0:0:
448,192,22651,1,0,0:0:0:0:
320,192,22730,1,0,0:0:0:0:
192,192,22809,1,0,0:0:0:0:
64,192,22809,1,0,0:0:0:0:
448,192,22967,1,0,0:0:0:0:
64,192,23125,1,0,0:0:0:0:
320,192,23125,1,0,0:0:0:0:
192,192,23204,1,0,0:0:0:0:
448,192,23283,1,0,0:0:0:0:
320,192,23441,1,0,0:0:0:0:
192,192,23441,1,0,0:0:0:0:
64,192,23520,1,0,0:0:0:0:
320,192,23599,1,0,0:0:0:0:
448,192,23678,1,0,0:0:0:0:
64,192,23757,1,0,0:0:0:0:
192,192,23757,1,0,0:0:0:0:
192,192,23915,1,0,0:0:0:0:
320,192,24073,1,0,0:0:0:0:
448,192,24073,1,0,0:0:0:0:
64,192,24230,1,0,0:0:0:0:
192,192,24309,1,0,0:0:0:0:
448,192,24388,1,0,0:0:0:0:
64,192,24546,1,0,0:0:0:0:
192,192,24704,1,0,0:0:0:0:
320,192,24704,1,0,0:0:0:0:
320,192,24862,1,0,0:0:0:0:
448,192,25020,1,0,0:0:0:0:
448,192,25178,1,0,0:0:0:0:
320,192,25336,1,0,0:0:0:0:
64,192,25336,1,0,0:0:0:0:
64,192,25494,1,0,0:0:0:0:
192,192,25651,1,0,0:0:0:0:
320,192,25730,1,0,0:0:0:0:
448,192,25809,1,0,0:0:0:0:
320,192,25967,1,0,0:0:0:0:
192,192,25967,1,0,0:0:0:0:
192,192,26125,1,0,0:0:0:0:
448,192,26283,1,0,0:0:0:0:
64,192,26441,1,0,0:0:0:0:
320,192,26599,1,0,0:0:0:0:
448,192,26599,1,0,0:0:0:0:
64,192,26757,1,0,0:0:0:0:
192,192,26836,1,0,0:0:0:0:
448,192,26915,1,0,0:0:0:0:
448,192,27073,1,0,0:0:0:0:
320,192,27151,1,0,0:0:0:0:
64,192,27230,1,0,0:0:0:0:
192,192,27230,1,0,0:0:0:0:
448,192,27388,1,0,0:0:0:0:
192,192,27467,1,0,0:0:0:0:
320,192,27546,1,0,0:0:0:0:
64,192,27704,1,0,0:0:0:0:
448,192,27783,1,0,0:0:0:0:
192,192,27862,1,0,0:0:0:0:
64,192,27862,1,0,0:0:0:0:
448,192,28020,1,0,0:0:0:0:
320,192,28020,1,0,0:0:0:0:
64,192,28178,1,0,0:0:0:0:
192,192,28217,1,0,0:0:0:0:
448,192,28257,1,0,0:0:0:0:
64,192,28336,1,0,0:0:0:0:
192,192,28494,1,0,0:0:0:0:
320,192,28494,1,0,0:0:0:0:
448,192,28651,1,0,0:0:0:0:
64,192,28809,1,0,0:0:0:0:
320,192,28809,1,0,0:0:0:0:
320,192,28967,1,0,0:0:0:0:
64,192,29125,1,0,0:0:0:0:
448,192,29125,1,0,0:0:0:0:
192,192,29283,1,0,0:0:0:0:
64,192,29362,1,0,0:0:0:0:
320,192,29441,1,0,0:0:0:0:
448,192,29441,1,0,0:0:0:0:
64,192,29599,1,0,0:0:0:0:
448,192,29678,1,0,0:0:0:0:
192,192,29757,1,0,0:0:0:0:
320,192,29757,1,0,0:0:0:0:
64,192,29915,1,0,0:0:0:0:
192,192,29994,1,0,0:0:0:0:
320,192,30073,1,0,0:0:0:0:
448,192,30073,1,0,0:0:0:0:
192,192,30230,1,0,0:0:0:0:
320,192,30309,1,0,0:0:0:0:
64,192,30388,1,0,0:0:0:0:
448,192,30388,1,0,0:0:0:0:
448,192,30546,1,0,0:0:0:0:
448,192,30704,1,0,0:0:0:0:
192,192,30704,1,0,0:0:0:0:
448,192,30862,1,0,0:0:0:0:
448,192,31020,1,0,0:0:0:0:
64,192,31020,1,0,0:0:0:0:
448,192,31178,1,0,0:0:0:0:
192,192,31336,1,0,0:0:0:0:
320,192,31336,1,0,0:0:0:0:
320,192,31494,1,0,0:0:0:0:
64,192,31651,1,0,0:0:0:0:
320,192,31651,1,0,0:0:0:0:
320,192,31809,1,0,0:0:0:0:
192,192,31967,1,0,0:0:0:0:
320,192,31967,1,0,0:0:0:0:
320,192,32125,1,0,0:0:0:0:
320,192,32283,1,0,0:0:0:0:
64,192,32283,1,0,0:0:0:0:
320,192,32441,1,0,0:0:0:0:
320,192,32599,1,0,0:0:0:0:
448,192,32599,1,0,0:0:0:0:
320,192,32757,1,0,0:0:0:0:
64,192,32915,1,0,0:0:0:0:
320,192,32915,1,0,0:0:0:0:
320,192,33073,1,0,0:0:0:0:
320,192,33230,1,0,0:0:0:0:
448,192,33230,1,0,0:0:0:0:
320,192,33388,1,0,0:0:0:0:
320,192,33546,1,0,0:0:0:0:
192,192,33546,1,0,0:0:0:0:
320,192,33704,1,0,0:0:0:0:
64,192,33862,1,0,0:0:0:0:
448,192,33862,1,0,0:0:0:0:
64,192,34020,1,0,0:0:0:0:
64,192,34178,1,0,0:0:0:0:
320,192,34178,1,0,0:0:0:0:
64,192,34336,1,0,0:0:0:0:
192,192,34494,1,0,0:0:0:0:
448,192,34494,1,0,0:0:0:0:
192,192,34651,1,0,0:0:0:0:
192,192,34809,1,0,0:0:0:0:
320,192,34809,1,0,0:0:0:0:
192,192,34967,1,0,0:0:0:0:
192,192,35125,1,0,0:0:0:0:
448,192,35125,1,0,0:0:0:0:
192,192,35283,1,0,0:0:0:0:
64,192,35441,1,0,0:0:0:0:
192,192,35441,1,0,0:0:0:0:
448,192,35599,1,0,0:0:0:0:
192,192,35599,1,0,0:0:0:0:
64,192,35757,1,0,0:0:0:0:
320,192,35757,1,0,0:0:0:0:
192,192,35915,1,0,0:0:0:0:
448,192,36073,1,0,0:0:0:0:
192,192,36073,1,0,0:0:0:0:
64,192,36230,1,0,0:0:0:0:
320,192,36388,1,0,0:0:0:0:
64,192,36388,1,0,0:0:0:0:
448,192,36546,1,0,0:0:0:0:
320,192,36546,1,0,0:0:0:0:
64,192,36704,1,0,0:0:0:0:
192,192,36704,1,0,0:0:0:0:
192,192,36862,1,0,0:0:0:0:
448,192,36862,1,0,0:0:0:0:
320,192,37020,1,0,0:0:0:0:
448,192,37020,1,0,0:0:0:0:
64,192,37178,1,0,0:0:0:0:
192,192,37178,1,0,0:0:0:0:
448,192,37336,1,0,0:0:0:0:
64,192,37336,1,0,0:0:0:0:
320,192,37494,1,0,0:0:0:0:
192,192,37494,1,0,0:0:0:0:
192,192,37651,1,0,0:0:0:0:
320,192,37651,1,0,0:0:0:0:
448,192,37809,1,0,0:0:0:0:
64,192,37809,1,0,0:0:0:0:
64,192,37967,1,0,0:0:0:0:
448,192,37967,1,0,0:0:0:0:
192,192,38046,1,0,0:0:0:0:
320,192,38125,1,0,0:0:0:0:
448,192,38204,1,0,0:0:0:0:
64,192,38204,1,0,0:0:0:0:
192,192,38283,1,0,0:0:0:0:
64,192,38362,1,0,0:0:0:0:
320,192,38441,1,0,0:0:0:0:
448,192,38520,1,0,0:0:0:0:
320,192,38599,1,0,0:0:0:0:
192,192,38678,1,0,0:0:0:0:
448,192,38757,1,0,0:0:0:0:
320,192,38836,1,0,0:0:0:0:
64,192,38915,1,0,0:0:0:0:
192,192,38994,1,0,0:0:0:0:
320,192,39073,1,0,0:0:0:0:
448,192,39151,1,0,0:0:0:0:
320,192,39230,1,0,0:0:0:0:
192,192,39309,1,0,0:0:0:0:
448,192,39388,1,0,0:0:0:0:
64,192,39467,1,0,0:0:0:0:
320,192,39546,1,0,0:0:0:0:
192,192,39625,1,0,0:0:0:0:
320,192,39704,1,0,0:0:0:0:
448,192,39783,1,0,0:0:0:0:
64,192,39862,1,0,0:0:0:0:
192,192,39862,1,0,0:0:0:0:
64,192,40494,1,0,0:0:0:0:
448,192,40494,1,0,0:0:0:0:
64,192,40651,128,0,40730:0:0:0:0:
64,192,40809,128,0,40888:0:0:0:0:
320,192,40809,128,0,40967:0:0:0:0:
64,192,40967,128,0,41046:0:0:0:0:
64,192,41125,128,0,41204:0:0:0:0:
448,192,41125,1,0,0:0:0:0:
320,192,41125,1,0,0:0:0:0:
64,192,41283,128,0,41362:0:0:0:0:
448,192,41441,128,0,41520:0:0:0:0:
192,192,41441,1,0,0:0:0:0:
448,192,41599,128,0,41678:0:0:0:0:
64,192,41599,1,0,0:0:0:0:
448,192,41757,128,0,41836:0:0:0:0:
192,192,41757,1,0,0:0:0:0:
448,192,41915,128,0,41994:0:0:0:0:
448,192,42073,128,0,42151:0:0:0:0:
320,192,42073,1,0,0:0:0:0:
448,192,42230,128,0,42309:0:0:0:0:
448,192,42388,128,0,42467:0:0:0:0:
64,192,42388,1,0,0:0:0:0:
192,192,42388,1,0,0:0:0:0:
448,192,42546,128,0,42625:0:0:0:0:
448,192,42704,128,0,42783:0:0:0:0:
192,192,42704,1,0,0:0:0:0:
448,192,42862,128,0,42941:0:0:0:0:
448,192,43020,128,0,43099:0:0:0:0:
320,192,43020,1,0,0:0:0:0:
448,192,43178,128,0,43257:0:0:0:0:
448,192,43336,128,0,43415:0:0:0:0:
64,192,43336,1,0,0:0:0:0:
320,192,43336,1,0,0:0:0:0:
448,192,43494,128,0,43573:0:0:0:0:
448,192,43651,128,0,43730:0:0:0:0:
64,192,43651,1,0,0:0:0:0:
192,192,43651,1,0,0:0:0:0:
448,192,43809,128,0,43888:0:0:0:0:
320,192,43967,128,0,44046:0:0:0:0:
64,192,43967,1,0,0:0:0:0:
320,192,44125,128,0,44204:0:0:0:0:
320,192,44283,128,0,44362:0:0:0:0:
448,192,44283,1,0,0:0:0:0:
320,192,44441,128,0,44520:0:0:0:0:
64,192,44599,128,0,44678:0:0:0:0:
448,192,44599,1,0,0:0:0:0:
64,192,44757,128,0,44836:0:0:0:0:
64,192,44915,128,0,44994:0:0:0:0:
192,192,44915,1,0,0:0:0:0:
448,192,44915,1,0,0:0:0:0:
64,192,45073,128,0,45151:0:0:0:0:
64,192,45230,128,0,45309:0:0:0:0:
320,192,45230,1,0,0:0:0:0:
64,192,45388,128,0,45467:0:0:0:0:
192,192,45546,128,0,45625:0:0:0:0:
448,192,45546,1,0,0:0:0:0:
192,192,45704,128,0,45783:0:0:0:0:
192,192,45862,128,0,45941:0:0:0:0:
448,192,45862,1,0,0:0:0:0:
320,192,45862,1,0,0:0:0:0:
192,192,46020,128,0,46099:0:0:0:0:
192,192,46178,128,0,46257:0:0:0:0:
448,192,46178,1,0,0:0:0:0:
64,192,46178,1,0,0:0:0:0:
192,192,46336,128,0,46415:0:0:0:0:
448,192,46494,128,0,46573:0:0:0:0:
64,192,46494,1,0,0:0:0:0:
448,192,46651,128,0,46730:0:0:0:0:
320,192,46651,1,0,0:0:0:0:
448,192,46809,128,0,46888:0:0:0:0:
192,192,46809,1,0,0:0:0:0:
448,192,46967,128,0,47046:0:0:0:0:
448,192,47125,128,0,47204:0:0:0:0:
320,192,47125,1,0,0:0:0:0:
448,192,47283,128,0,47362:0:0:0:0:
448,192,47441,128,0,47520:0:0:0:0:
64,192,47441,1,0,0:0:0:0:
192,192,47441,1,0,0:0:0:0:
448,192,47599,128,0,47678:0:0:0:0:
448,192,47757,128,0,47836:0:0:0:0:
192,192,47757,1,0,0:0:0:0:
448,192,47915,128,0,47994:0:0:0:0:
448,192,48073,128,0,48151:0:0:0:0:
320,192,48073,1,0,0:0:0:0:
448,192,48230,128,0,48309:0:0:0:0:
448,192,48388,128,0,48467:0:0:0:0:
64,192,48388,1,0,0:0:0:0:
320,192,48388,1,0,0:0:0:0:
448,192,48546,128,0,48625:0:0:0:0:
448,192,48704,128,0,48783:0:0:0:0:
64,192,48704,1,0,0:0:0:0:
192,192,48704,1,0,0:0:0:0:
448,192,48862,128,0,48941:0:0:0:0:
320,192,49020,128,0,49099:0:0:0:0:
64,192,49020,1,0,0:0:0:0:
320,192,49178,128,0,49257:0:0:0:0:
320,192,49336,128,0,49415:0:0:0:0:
448,192,49336,1,0,0:0:0:0:
320,192,49494,128,0,49573:0:0:0:0:
64,192,49651,128,0,49730:0:0:0:0:
448,192,49651,1,0,0:0:0:0:
64,192,49809,128,0,49888:0:0:0:0:
64,192,49967,128,0,50046:0:0:0:0:
192,192,49967,1,0,0:0:0:0:
448,192,49967,1,0,0:0:0:0:
64,192,50125,128,0,50204:0:0:0:0:
64,192,50283,128,0,50362:0:0:0:0:
320,192,50283,1,0,0:0:0:0:
64,192,50441,128,0,50520:0:0:0:0:
192,192,50599,128,0,50915:0:0:0:0:
448,192,50599,128,0,50915:0:0:0:0:
320,192,50915,128,0,50994:0:0:0:0:
320,192,51073,128,0,51151:0:0:0:0:
192,192,51230,128,0,51309:0:0:0:0:
448,192,51230,1,0,0:0:0:0:
64,192,51230,1,0,0:0:0:0:
192,192,51388,128,0,51467:0:0:0:0:
320,192,51546,128,0,51625:0:0:0:0:
320,192,51704,128,0,51783:0:0:0:0:
64,192,51862,1,0,0:0:0:0:
448,192,51862,128,0,51941:0:0:0:0:
448,192,52020,128,0,52099:0:0:0:0:
320,192,52178,1,0,0:0:0:0:
448,192,52178,128,0,52257:0:0:0:0:
448,192,52336,128,0,52415:0:0:0:0:
192,192,52494,1,0,0:0:0:0:
64,192,52494,1,0,0:0:0:0:
448,192,52494,128,0,52573:0:0:0:0:
448,192,52651,128,0,52730:0:0:0:0:
192,192,52809,1,0,0:0:0:0:
448,192,52809,128,0,52888:0:0:0:0:
448,192,52967,128,0,53046:0:0:0:0:
320,192,53125,1,0,0:0:0:0:
448,192,53125,128,0,53204:0:0:0:0:
448,192,53283,128,0,53362:0:0:0:0:
320,192,53441,1,0,0:0:0:0:
64,192,53441,1,0,0:0:0:0:
448,192,53441,128,0,53520:0:0:0:0:
448,192,53599,128,0,53678:0:0:0:0:
192,192,53757,1,0,0:0:0:0:
64,192,53757,1,0,0:0:0:0:
448,192,53757,128,0,53836:0:0:0:0:
448,192,53915,128,0,53994:0:0:0:0:
64,192,54073,1,0,0:0:0:0:
320,192,54073,128,0,54151:0:0:0:0:
320,192,54230,128,0,54309:0:0:0:0:
448,192,54388,1,0,0:0:0:0:
320,192,54388,128,0,54467:0:0:0:0:
320,192,54546,128,0,54625:0:0:0:0:
448,192,54704,1,0,0:0:0:0:
64,192,54704,128,0,54783:0:0:0:0:
64,192,54862,128,0,54941:0:0:0:0:
448,192,55020,1,0,0:0:0:0:
192,192,55020,1,0,0:0:0:0:
64,192,55020,128,0,55099:0:0:0:0:
64,192,55178,128,0,55257:0:0:0:0:
320,192,55336,1,0,0:0:0:0:
64,192,55336,128,0,55415:0:0:0:0:
64,192,55494,128,0,55573:0:0:0:0:
448,192,55651,1,0,0:0:0:0:
192,192,55651,128,0,55730:0:0:0:0:
192,192,55809,128,0,55888:0:0:0:0:
320,192,55967,1,0,0:0:0:0:
448,192,55967,1,0,0:0:0:0:
192,192,55967,128,0,56046:0:0:0:0:
192,192,56125,128,0,56204:0:0:0:0:
64,192,56283,1,0,0:0:0:0:
448,192,56283,1,0,0:0:0:0:
192,192,56283,128,0,56362:0:0:0:0:
192,192,56441,128,0,56520:0:0:0:0:
448,192,56599,1,0,0:0:0:0:
320,192,56599,128,0,56678:0:0:0:0:
320,192,56757,128,0,56836:0:0:0:0:
192,192,56915,128,0,56994:0:0:0:0:
192,192,57073,128,0,57151:0:0:0:0:
448,192,57230,128,0,57309:0:0:0:0:
320,192,57230,1,0,0:0:0:0:
448,192,57388,128,0,57467:0:0:0:0:
64,192,57546,128,0,57625:0:0:0:0:
192,192,57546,1,0,0:0:0:0:
320,192,57546,1,0,0:0:0:0:
64,192,57704,128,0,57783:0:0:0:0:
448,192,57862,128,0,57941:0:0:0:0:
192,192,57862,1,0,0:0:0:0:
448,192,58020,128,0,58099:0:0:0:0:
320,192,58178,128,0,58257:0:0:0:0:
64,192,58178,1,0,0:0:0:0:
192,192,58178,1,0,0:0:0:0:
320,192,58336,128,0,58415:0:0:0:0:
192,192,58494,128,0,58573:0:0:0:0:
448,192,58494,1,0,0:0:0:0:
192,192,58651,128,0,58730:0:0:0:0:
64,192,58809,1,0,0:0:0:0:
448,192,58809,1,0,0:0:0:0:
320,192,58809,128,0,58888:0:0:0:0:
320,192,58967,128,0,59046:0:0:0:0:
448,192,59125,128,0,59204:0:0:0:0:
192,192,59125,1,0,0:0:0:0:
64,192,59125,1,0,0:0:0:0:
448,192,59283,128,0,59362:0:0:0:0:
64,192,59441,128,0,59520:0:0:0:0:
320,192,59441,1,0,0:0:0:0:
64,192,59599,128,0,59678:0:0:0:0:
192,192,59757,128,0,59836:0:0:0:0:
448,192,59757,1,0,0:0:0:0:
192,192,59915,128,0,59994:0:0:0:0:
320,192,60073,1,0,0:0:0:0:
448,192,60073,128,0,60151:0:0:0:0:
448,192,60230,128,0,60309:0:0:0:0:
448,192,60388,128,0,60467:0:0:0:0:
448,192,60546,128,0,60625:0:0:0:0:
320,192,60625,1,0,0:0:0:0:
64,192,60704,1,0,0:0:0:0:
192,192,60704,1,0,0:0:0:0:
64,192,60862,128,0,60941:0:0:0:0:
64,192,61020,128,0,61099:0:0:0:0:
320,192,61020,128,0,61178:0:0:0:0:
64,192,61178,128,0,61257:0:0:0:0:
64,192,61336,128,0,61415:0:0:0:0:
448,192,61336,1,0,0:0:0:0:
320,192,61336,1,0,0:0:0:0:
64,192,61494,128,0,61573:0:0:0:0:
448,192,61651,128,0,61730:0:0:0:0:
192,192,61651,1,0,0:0:0:0:
448,192,61809,128,0,61888:0:0:0:0:
64,192,61809,1,0,0:0:0:0:
448,192,61967,128,0,62046:0:0:0:0:
192,192,61967,1,0,0:0:0:0:
320,192,61967,1,0,0:0:0:0:
448,192,62125,128,0,62204:0:0:0:0:
448,192,62283,128,0,62362:0:0:0:0:
320,192,62283,1,0,0:0:0:0:
448,192,62441,128,0,62520:0:0:0:0:
448,192,62599,128,0,62678:0:0:0:0:
64,192,62599,1,0,0:0:0:0:
192,192,62599,1,0,0:0:0:0:
448,192,62757,128,0,62836:0:0:0:0:
448,192,62915,128,0,62994:0:0:0:0:
192,192,62915,1,0,0:0:0:0:
448,192,63073,128,0,63151:0:0:0:0:
448,192,63230,128,0,63309:0:0:0:0:
320,192,63230,1,0,0:0:0:0:
64,192,63230,1,0,0:0:0:0:
448,192,63388,128,0,63467:0:0:0:0:
448,192,63546,128,0,63625:0:0:0:0:
320,192,63546,1,0,0:0:0:0:
448,192,63704,128,0,63783:0:0:0:0:
448,192,63862,128,0,63941:0:0:0:0:
64,192,63862,1,0,0:0:0:0:
192,192,63862,1,0,0:0:0:0:
448,192,64020,128,0,64099:0:0:0:0:
320,192,64178,128,0,64257:0:0:0:0:
64,192,64178,1,0,0:0:0:0:
320,192,64336,128,0,64415:0:0:0:0:
320,192,64494,128,0,64573:0:0:0:0:
448,192,64494,1,0,0:0:0:0:
192,192,64494,1,0,0:0:0:0:
320,192,64651,128,0,64730:0:0:0:0:
64,192,64809,128,0,64888:0:0:0:0:
448,192,64809,1,0,0:0:0:0:
64,192,64967,128,0,65046:0:0:0:0:
64,192,65125,128,0,65204:0:0:0:0:
192,192,65125,1,0,0:0:0:0:
448,192,65125,1,0,0:0:0:0:
64,192,65283,128,0,65362:0:0:0:0:
64,192,65441,128,0,65520:0:0:0:0:
320,192,65441,1,0,0:0:0:0:
64,192,65599,128,0,65678:0:0:0:0:
448,192,65757,1,0,0:0:0:0:
320,192,65757,1,0,0:0:0:0:
64,192,65915,1,0,0:0:0:0:
320,192,65915,1,0,0:0:0:0:
192,192,65994,1,0,0:0:0:0:
448,192,66073,1,0,0:0:0:0:
320,192,66073,1,0,0:0:0:0:
192,192,66230,1,0,0:0:0:0:
64,192,66309,1,0,0:0:0:0:
448,192,66388,1,0,0:0:0:0:
320,192,66388,1,0,0:0:0:0:
192,192,66388,1,0,0:0:0:0:
192,192,66546,1,0,0:0:0:0:
320,192,66625,1,0,0:0:0:0:
64,192,66704,1,0,0:0:0:0:
192,192,66704,1,0,0:0:0:0:
320,192,66862,1,0,0:0:0:0:
448,192,66941,1,0,0:0:0:0:
192,192,67020,1,0,0:0:0:0:
320,192,67020,1,0,0:0:0:0:
64,192,67178,1,0,0:0:0:0:
192,192,67257,1,0,0:0:0:0:
320,192,67336,1,0,0:0:0:0:
448,192,67336,1,0,0:0:0:0:
192,192,67494,1,0,0:0:0:0:
64,192,67573,1,0,0:0:0:0:
192,192,67651,1,0,0:0:0:0:
320,192,67651,1,0,0:0:0:0:
448,192,67651,1,0,0:0:0:0:
64,192,67809,1,0,0:0:0:0:
448,192,67888,1,0,0:0:0:0:
192,192,67967,1,0,0:0:0:0:
320,192,67967,1,0,0:0:0:0:
64,192,68125,1,0,0:0:0:0:
192,192,68204,1,0,0:0:0:0:
320,192,68283,1,0,0:0:0:0:
448,192,68283,1,0,0:0:0:0:
64,192,68441,1,0,0:0:0:0:
320,192,68441,1,0,0:0:0:0:
64,192,68599,1,0,0:0:0:0:
192,192,68599,1,0,0:0:0:0:
192,192,68757,1,0,0:0:0:0:
448,192,68757,1,0,0:0:0:0:
320,192,68915,1,0,0:0:0:0:
448,192,68915,1,0,0:0:0:0:
320,192,69073,1,0,0:0:0:0:
448,192,69073,1,0,0:0:0:0:
64,192,69230,1,0,0:0:0:0:
192,192,69230,1,0,0:0:0:0:
192,192,69388,1,0,0:0:0:0:
64,192,69388,1,0,0:0:0:0:
448,192,69546,1,0,0:0:0:0:
320,192,69546,1,0,0:0:0:0:
192,192,69625,1,0,0:0:0:0:
64,192,69704,1,0,0:0:0:0:
448,192,69704,1,0,0:0:0:0:
320,192,69783,1,0,0:0:0:0:
192,192,69862,1,0,0:0:0:0:
64,192,69862,1,0,0:0:0:0:
320,192,69941,1,0,0:0:0:0:
448,192,70020,1,0,0:0:0:0:
64,192,70020,1,0,0:0:0:0:
192,192,70099,1,0,0:0:0:0:
448,192,70178,1,0,0:0:0:0:
320,192,70178,1,0,0:0:0:0:
64,192,70809,128,0,71125:0:0:0:0:
192,192,70809,128,0,71125:0:0:0:0:
320,192,70809,1,0,0:0:0:0:
448,192,71125,128,0,71283:0:0:0:0:
64,192,71441,1,0,0:0:0:0:
320,192,71441,1,0,0:0:0:0:
192,192,71441,1,0,0:0:0:0:
320,192,71757,128,0,72073:0:0:0:0:
64,192,72388,128,0,72546:0:0:0:0:
192,192,72704,1,0,0:0:0:0:
320,192,72704,1,0,0:0:0:0:
448,192,72704,1,0,0:0:0:0:
192,192,73020,128,0,73178:0:0:0:0:
64,192,73336,128,0,73651:0:0:0:0:
320,192,73336,128,0,73651:0:0:0:0:
448,192,73336,128,0,73651:0:0:0:0:
64,192,73809,1,0,0:0:0:0:
192,192,73809,1,0,0:0:0:0:
192,192,73967,1,0,0:0:0:0:
320,192,73967,128,0,74204:0:0:0:0:
448,192,73967,128,0,74204:0:0:0:0:
64,192,74283,128,0,75151:0:0:0:0:
192,192,74283,128,0,75151:0:0:0:0:
320,192,74283,1,0,0:0:0:0:
64,192,75230,1,0,0:0:0:0:
320,192,75230,1,0,0:0:0:0:
192,192,75230,1,0,0:0:0:0:
448,192,75230,1,0,0:0:0:0:
64,192,75862,128,0,76178:0:0:0:0:
448,192,75862,128,0,76178:0:0:0:0:
192,192,76178,128,0,76257:0:0:0:0:
448,192,76336,128,0,76415:0:0:0:0:
320,192,76494,1,0,0:0:0:0:
192,192,76494,1,0,0:0:0:0:
64,192,76494,1,0,0:0:0:0:
448,192,76809,128,0,76888:0:0:0:0:
192,192,76967,128,0,77046:0:0:0:0:
64,192,77441,128,0,77520:0:0:0:0:
448,192,77599,128,0,77678:0:0:0:0:
64,192,77757,1,0,0:0:0:0:
192,192,77757,1,0,0:0:0:0:
320,192,77757,1,0,0:0:0:0:
448,192,78073,128,0,78151:0:0:0:0:
64,192,78230,128,0,78309:0:0:0:0:
192,192,78388,128,0,78704:0:0:0:0:
320,192,78388,128,0,78704:0:0:0:0:
448,192,78388,128,0,78704:0:0:0:0:
64,192,78704,128,0,78783:0:0:0:0:
448,192,78862,1,0,0:0:0:0:
320,192,79020,1,0,0:0:0:0:
192,192,79020,1,0,0:0:0:0:
64,192,79020,1,0,0:0:0:0:
448,192,79336,128,0,80204:0:0:0:0:
320,192,79336,128,0,80204:0:0:0:0:
192,192,79336,128,0,80204:0:0:0:0:
64,192,79336,1,0,0:0:0:0:
64,192,80283,1,0,0:0:0:0:
192,192,80283,1,0,0:0:0:0:
448,192,80283,1,0,0:0:0:0:
320,192,80441,1,0,0:0:0:0:
448,192,80480,1,0,0:0:0:0:
64,192,80520,1,0,0:0:0:0:
192,192,80559,1,0,0:0:0:0:
320,192,80599,1,0,0:0:0:0:
192,192,80757,1,0,0:0:0:0:
64,192,80796,1,0,0:0:0:0:
448,192,80836,1,0,0:0:0:0:
320,192,80875,1,0,0:0:0:0:
192,192,80915,1,0,0:0:0:0:
64,192,80915,128,0,82178:0:0:0:0:
448,192,81230,128,0,81546:0:0:0:0:
320,192,81388,128,0,81546:0:0:0:0:
192,192,81546,1,0,0:0:0:0:
192,192,81862,128,0,82020:0:0:0:0:
320,192,82178,1,0,0:0:0:0:
192,192,82494,128,0,82651:0:0:0:0:
64,192,82809,1,0,0:0:0:0:
320,192,82809,1,0,0:0:0:0:
448,192,82809,1,0,0:0:0:0:
320,192,83125,128,0,83283:0:0:0:0:
64,192,83441,128,0,83757:0:0:0:0:
192,192,83441,128,0,83757:0:0:0:0:
448,192,83441,128,0,83757:0:0:0:0:
192,192,83915,1,0,0:0:0:0:
320,192,83915,1,0,0:0:0:0:
320,192,84073,1,0,0:0:0:0:
448,192,84073,128,0,84388:0:0:0:0:
64,192,84388,1,0,0:0:0:0:
192,192,84388,128,0,85257:0:0:0:0:
320,192,84388,128,0,85257:0:0:0:0:
448,192,84704,1,0,0:0:0:0:
64,192,85336,1,0,0:0:0:0:
192,192,85336,1,0,0:0:0:0:
320,192,85336,1,0,0:0:0:0:
448,192,85336,1,0,0:0:0:0:
192,192,85651,128,0,85809:0:0:0:0:
64,192,85967,128,0,86283:0:0:0:0:
448,192,85967,128,0,86283:0:0:0:0:
320,192,86283,128,0,86362:0:0:0:0:
192,192,86441,128,0,86520:0:0:0:0:
320,192,86599,1,0,0:0:0:0:
64,192,86599,1,0,0:0:0:0:
448,192,86599,1,0,0:0:0:0:
448,192,86915,128,0,86994:0:0:0:0:
192,192,87073,128,0,87151:0:0:0:0:
64,192,87546,128,0,87625:0:0:0:0:
448,192,87704,128,0,87783:0:0:0:0:
64,192,87862,1,0,0:0:0:0:
192,192,87862,1,0,0:0:0:0:
320,192,87862,1,0,0:0:0:0:
448,192,88178,128,0,88257:0:0:0:0:
64,192,88336,128,0,88415:0:0:0:0:
192,192,88494,128,0,88809:0:0:0:0:
320,192,88494,128,0,88809:0:0:0:0:
448,192,88494,128,0,88809:0:0:0:0:
64,192,88809,128,0,88888:0:0:0:0:
448,192,88967,1,0,0:0:0:0:
320,192,89125,1,0,0:0:0:0:
192,192,89125,1,0,0:0:0:0:
64,192,89125,1,0,0:0:0:0:
448,192,89441,128,0,90309:0:0:0:0:
320,192,89441,128,0,90309:0:0:0:0:
192,192,89441,128,0,90309:0:0:0:0:
64,192,89441,1,0,0:0:0:0:
64,192,90388,1,0,0:0:0:0:
192,192,90388,1,0,0:0:0:0:
448,192,90388,1,0,0:0:0:0:
320,192,90704,128,0,91020:0:0:0:0:
192,192,91020,1,0,0:0:0:0:
448,192,91020,1,0,0:0:0:0:
192,192,91178,1,0,0:0:0:0:
320,192,91336,1,0,0:0:0:0:
448,192,91415,1,0,0:0:0:0:
64,192,91494,1,0,0:0:0:0:
192,192,91651,1,0,0:0:0:0:
448,192,91651,1,0,0:0:0:0:
320,192,91967,1,0,0:0:0:0:
448,192,92125,1,0,0:0:0:0:
192,192,92204,1,0,0:0:0:0:
64,192,92283,1,0,0:0:0:0:
320,192,92283,1,0,0:0:0:0:
448,192,92283,1,0,0:0:0:0:
192,192,92441,1,0,0:0:0:0:
192,192,92599,1,0,0:0:0:0:
192,192,92757,1,0,0:0:0:0:
64,192,92915,1,0,0:0:0:0:
320,192,92915,1,0,0:0:0:0:
192,192,93230,1,0,0:0:0:0:
320,192,93230,1,0,0:0:0:0:
448,192,93230,1,0,0:0:0:0:
192,192,93546,1,0,0:0:0:0:
64,192,93546,128,0,93862:0:0:0:0:
448,192,93546,1,0,0:0:0:0:
320,192,93704,1,0,0:0:0:0:
448,192,93862,1,0,0:0:0:0:
320,192,93941,1,0,0:0:0:0:
64,192,94020,1,0,0:0:0:0:
192,192,94020,1,0,0:0:0:0:
448,192,94178,128,0,94494:0:0:0:0:
320,192,94178,1,0,0:0:0:0:
192,192,94494,1,0,0:0:0:0:
320,192,94494,128,0,94809:0:0:0:0:
64,192,94494,1,0,0:0:0:0:
64,192,94651,1,0,0:0:0:0:
192,192,94730,1,0,0:0:0:0:
448,192,94809,1,0,0:0:0:0:
64,192,94967,1,0,0:0:0:0:
64,192,95125,1,0,0:0:0:0:
64,192,95283,1,0,0:0:0:0:
192,192,95441,1,0,0:0:0:0:
448,192,95441,1,0,0:0:0:0:
64,192,95757,1,0,0:0:0:0:
320,192,95757,1,0,0:0:0:0:
448,192,95757,1,0,0:0:0:0:
64,192,96073,1,0,0:0:0:0:
192,192,96073,1,0,0:0:0:0:
448,192,96073,1,0,0:0:0:0:
192,192,96230,1,0,0:0:0:0:
192,192,96388,1,0,0:0:0:0:
320,192,96467,1,0,0:0:0:0:
448,192,96546,1,0,0:0:0:0:
64,192,96704,1,0,0:0:0:0:
320,192,96704,1,0,0:0:0:0:
192,192,97020,1,0,0:0:0:0:
192,192,97178,1,0,0:0:0:0:
320,192,97257,1,0,0:0:0:0:
64,192,97336,1,0,0:0:0:0:
192,192,97336,1,0,0:0:0:0:
448,192,97336,1,0,0:0:0:0:
320,192,97494,1,0,0:0:0:0:
320,192,97651,1,0,0:0:0:0:
320,192,97809,1,0,0:0:0:0:
64,192,97967,1,0,0:0:0:0:
448,192,97967,1,0,0:0:0:0:
64,192,98283,1,0,0:0:0:0:
192,192,98283,1,0,0:0:0:0:
320,192,98283,1,0,0:0:0:0:
448,192,98283,128,0,98599:0:0:0:0:
192,192,98599,128,0,98757:0:0:0:0:
320,192,98599,128,0,98757:0:0:0:0:
64,192,98599,1,0,0:0:0:0:
448,192,98757,1,0,0:0:0:0:
448,192,98915,1,0,0:0:0:0:
320,192,98994,1,0,0:0:0:0:
64,192,99073,1,0,0:0:0:0:
192,192,99073,1,0,0:0:0:0:
320,192,99230,1,0,0:0:0:0:
64,192,99546,1,0,0:0:0:0:
448,192,99546,128,0,99704:0:0:0:0:
320,192,99546,1,0,0:0:0:0:
64,192,99704,1,0,0:0:0:0:
192,192,99783,1,0,0:0:0:0:
320,192,99862,1,0,0:0:0:0:
448,192,99862,1,0,0:0:0:0:
64,192,99862,1,0,0:0:0:0:
192,192,100020,1,0,0:0:0:0:
192,192,100178,1,0,0:0:0:0:
192,192,100336,1,0,0:0:0:0:
448,192,100494,1,0,0:0:0:0:
320,192,100809,128,0,101125:0:0:0:0:
64,192,101125,1,0,0:0:0:0:
448,192,101125,1,0,0:0:0:0:
192,192,101283,1,0,0:0:0:0:
320,192,101441,1,0,0:0:0:0:
448,192,101599,1,0,0:0:0:0:
320,192,101757,1,0,0:0:0:0:
64,192,101757,1,0,0:0:0:0:
192,192,101915,1,0,0:0:0:0:
320,192,102073,1,0,0:0:0:0:
448,192,102230,1,0,0:0:0:0:
320,192,102388,1,0,0:0:0:0:
192,192,102546,1,0,0:0:0:0:
320,192,102704,1,0,0:0:0:0:
448,192,102862,1,0,0:0:0:0:
64,192,103020,1,0,0:0:0:0:
192,192,103020,1,0,0:0:0:0:
320,192,103178,1,0,0:0:0:0:
448,192,103336,1,0,0:0:0:0:
64,192,103494,1,0,0:0:0:0:
320,192,103651,1,0,0:0:0:0:
448,192,103651,128,0,103730:0:0:0:0:
192,192,103809,1,0,0:0:0:0:
320,192,103967,1,0,0:0:0:0:
64,192,104125,1,0,0:0:0:0:
448,192,104125,128,0,104204:0:0:0:0:
320,192,104283,1,0,0:0:0:0:
192,192,104283,1,0,0:0:0:0:
64,192,104441,1,0,0:0:0:0:
192,192,104599,128,0,104678:0:0:0:0:
320,192,104599,1,0,0:0:0:0:
448,192,104757,1,0,0:0:0:0:
64,192,104915,1,0,0:0:0:0:
448,192,105073,1,0,0:0:0:0:
320,192,105230,1,0,0:0:0:0:
192,192,105388,1,0,0:0:0:0:
64,192,105546,1,0,0:0:0:0:
448,192,105546,1,0,0:0:0:0:
192,192,105704,1,0,0:0:0:0:
320,192,105862,1,0,0:0:0:0:
64,192,105862,128,0,106178:0:0:0:0:
448,192,106020,1,0,0:0:0:0:
320,192,106178,1,0,0:0:0:0:
192,192,106336,1,0,0:0:0:0:
448,192,106494,1,0,0:0:0:0:
64,192,106651,1,0,0:0:0:0:
192,192,106809,1,0,0:0:0:0:
448,192,106809,1,0,0:0:0:0:
320,192,106967,1,0,0:0:0:0:
64,192,107125,1,0,0:0:0:0:
448,192,107283,1,0,0:0:0:0:
192,192,107441,1,0,0:0:0:0:
320,192,107599,1,0,0:0:0:0:
64,192,107757,1,0,0:0:0:0:
448,192,107915,1,0,0:0:0:0:
320,192,108073,1,0,0:0:0:0:
64,192,108073,1,0,0:0:0:0:
192,192,108230,1,0,0:0:0:0:
320,192,108388,1,0,0:0:0:0:
448,192,108546,1,0,0:0:0:0:
64,192,108704,128,0,108783:0:0:0:0:
320,192,108704,1,0,0:0:0:0:
192,192,108862,1,0,0:0:0:0:
64,192,109020,1,0,0:0:0:0:
192,192,109178,1,0,0:0:0:0:
448,192,109178,128,0,109257:0:0:0:0:
320,192,109336,1,0,0:0:0:0:
448,192,109494,1,0,0:0:0:0:
64,192,109651,128,0,109730:0:0:0:0:
192,192,109651,1,0,0:0:0:0:
320,192,109809,1,0,0:0:0:0:
448,192,109967,1,0,0:0:0:0:
64,192,110125,1,0,0:0:0:0:
320,192,110283,1,0,0:0:0:0:
192,192,110441,128,0,111230:0:0:0:0:
320,192,110915,128,0,111230:0:0:0:0:
64,192,111230,128,0,111388:0:0:0:0:
448,192,111388,128,0,111546:0:0:0:0:
192,192,111546,128,0,111704:0:0:0:0:
320,192,111704,128,0,111862:0:0:0:0:
64,192,111862,128,0,112020:0:0:0:0:
192,192,112020,128,0,112178:0:0:0:0:
320,192,112178,128,0,112336:0:0:0:0:
192,192,112336,128,0,112494:0:0:0:0:
64,192,112494,128,0,112573:0:0:0:0:
448,192,112494,128,0,112573:0:0:0:0:
192,192,112809,128,0,113204:0:0:0:0:
448,192,112809,128,0,113204:0:0:0:0:
320,192,113283,128,0,113441:0:0:0:0:
64,192,113441,128,0,113599:0:0:0:0:
448,192,113599,128,0,113757:0:0:0:0:
192,192,113757,128,0,113836:0:0:0:0:
320,192,113757,128,0,113836:0:0:0:0:
320,192,114073,128,0,114467:0:0:0:0:
64,192,114073,128,0,114467:0:0:0:0:
192,192,114546,128,0,114704:0:0:0:0:
448,192,114704,128,0,114862:0:0:0:0:
64,192,114862,128,0,115020:0:0:0:0:
320,192,115020,128,0,115178:0:0:0:0:
192,192,115178,128,0,115336:0:0:0:0:
64,192,115336,128,0,115494:0:0:0:0:
192,192,115494,128,0,115651:0:0:0:0:
448,192,115651,1,0,0:0:0:0:
320,192,115809,1,0,0:0:0:0:
192,192,115967,1,0,0:0:0:0:
320,192,116125,1,0,0:0:0:0:
64,192,116283,1,0,0:0:0:0:
448,192,116283,128,0,116441:0:0:0:0:
192,192,116441,128,0,116599:0:0:0:0:
320,192,116599,128,0,116757:0:0:0:0:
64,192,116757,128,0,116915:0:0:0:0:
448,192,116915,128,0,117073:0:0:0:0:
320,192,117073,128,0,117230:0:0:0:0:
64,192,117230,128,0,117388:0:0:0:0:
192,192,117388,128,0,117546:0:0:0:0:
320,192,117546,128,0,117625:0:0:0:0:
448,192,117546,128,0,117625:0:0:0:0:
192,192,117862,128,0,118257:0:0:0:0:
320,192,117862,128,0,118257:0:0:0:0:
64,192,118336,128,0,118494:0:0:0:0:
448,192,118494,128,0,118651:0:0:0:0:
192,192,118651,128,0,118809:0:0:0:0:
64,192,118809,128,0,118888:0:0:0:0:
448,192,118809,128,0,118888:0:0:0:0:
320,192,119125,128,0,119520:0:0:0:0:
192,192,119125,128,0,119520:0:0:0:0:
64,192,119599,128,0,119757:0:0:0:0:
448,192,119757,128,0,119915:0:0:0:0:
64,192,119915,128,0,120073:0:0:0:0:
320,192,120073,128,0,120230:0:0:0:0:
192,192,120230,128,0,120388:0:0:0:0:
448,192,120388,128,0,120546:0:0:0:0:
64,192,120546,128,0,120704:0:0:0:0:
192,192,120704,1,0,0:0:0:0:
320,192,121020,128,0,121336:0:0:0:0:
192,192,121336,1,0,0:0:0:0:
448,192,121336,1,0,0:0:0:0:
64,192,121494,1,0,0:0:0:0:
192,192,121651,1,0,0:0:0:0:
320,192,121730,1,0,0:0:0:0:
448,192,121809,1,0,0:0:0:0:
64,192,121888,1,0,0:0:0:0:
192,192,121967,1,0,0:0:0:0:
320,192,121967,1,0,0:0:0:0:
448,192,121967,1,0,0:0:0:0:
64,192,122125,1,0,0:0:0:0:
192,192,122283,1,0,0:0:0:0:
448,192,122283,1,0,0:0:0:0:
320,192,122441,1,0,0:0:0:0:
448,192,122599,1,0,0:0:0:0:
64,192,122599,1,0,0:0:0:0:
192,192,122599,1,0,0:0:0:0:
192,192,122757,1,0,0:0:0:0:
320,192,122836,1,0,0:0:0:0:
448,192,122915,1,0,0:0:0:0:
64,192,123073,1,0,0:0:0:0:
192,192,123230,1,0,0:0:0:0:
320,192,123230,1,0,0:0:0:0:
448,192,123230,1,0,0:0:0:0:
64,192,123388,1,0,0:0:0:0:
448,192,123546,1,0,0:0:0:0:
320,192,123704,1,0,0:0:0:0:
192,192,123704,1,0,0:0:0:0:
64,192,123862,1,0,0:0:0:0:
448,192,123862,1,0,0:0:0:0:
192,192,123862,1,0,0:0:0:0:
320,192,124020,1,0,0:0:0:0:
320,192,124178,1,0,0:0:0:0:
192,192,124257,1,0,0:0:0:0:
64,192,124336,1,0,0:0:0:0:
192,192,124494,1,0,0:0:0:0:
320,192,124494,1,0,0:0:0:0:
448,192,124494,1,0,0:0:0:0:
64,192,124651,1,0,0:0:0:0:
448,192,124809,1,0,0:0:0:0:
192,192,124809,1,0,0:0:0:0:
320,192,124967,1,0,0:0:0:0:
192,192,125046,1,0,0:0:0:0:
64,192,125125,1,0,0:0:0:0:
448,192,125125,1,0,0:0:0:0:
192,192,125283,1,0,0:0:0:0:
448,192,125441,1,0,0:0:0:0:
64,192,125599,1,0,0:0:0:0:
192,192,125757,1,0,0:0:0:0:
320,192,125757,1,0,0:0:0:0:
448,192,125757,1,0,0:0:0:0:
64,192,125915,1,0,0:0:0:0:
448,192,126073,1,0,0:0:0:0:
320,192,126230,1,0,0:0:0:0:
64,192,126388,1,0,0:0:0:0:
192,192,126388,1,0,0:0:0:0:
448,192,126388,1,0,0:0:0:0:
320,192,126546,1,0,0:0:0:0:
192,192,126704,1,0,0:0:0:0:
64,192,126862,1,0,0:0:0:0:
448,192,126941,1,0,0:0:0:0:
320,192,127020,1,0,0:0:0:0:
192,192,127020,1,0,0:0:0:0:
64,192,127020,1,0,0:0:0:0:
448,192,127178,1,0,0:0:0:0:
64,192,127336,1,0,0:0:0:0:
192,192,127336,1,0,0:0:0:0:
320,192,127494,1,0,0:0:0:0:
64,192,127651,1,0,0:0:0:0:
192,192,127651,1,0,0:0:0:0:
448,192,127651,1,0,0:0:0:0:
320,192,127809,1,0,0:0:0:0:
192,192,127888,1,0,0:0:0:0:
64,192,127967,1,0,0:0:0:0:
192,192,128125,1,0,0:0:0:0:
64,192,128283,1,0,0:0:0:0:
320,192,128283,1,0,0:0:0:0:
448,192,128283,1,0,0:0:0:0:
192,192,128441,1,0,0:0:0:0:
320,192,128599,1,0,0:0:0:0:
448,192,128757,1,0,0:0:0:0:
64,192,128757,1,0,0:0:0:0:
320,192,128915,1,0,0:0:0:0:
192,192,128915,1,0,0:0:0:0:
64,192,128915,1,0,0:0:0:0:
192,192,129073,1,0,0:0:0:0:
320,192,129230,1,0,0:0:0:0:
448,192,129309,1,0,0:0:0:0:
64,192,129388,1,0,0:0:0:0:
192,192,129546,1,0,0:0:0:0:
320,192,129546,1,0,0:0:0:0:
448,192,129546,1,0,0:0:0:0:
64,192,129704,1,0,0:0:0:0:
192,192,129862,1,0,0:0:0:0:
448,192,129862,1,0,0:0:0:0:
320,192,130020,1,0,0:0:0:0:
64,192,130099,1,0,0:0:0:0:
192,192,130178,1,0,0:0:0:0:
448,192,130178,1,0,0:0:0:0:
320,192,130336,1,0,0:0:0:0:
64,192,130494,1,0,0:0:0:0:
448,192,130494,1,0,0:0:0:0:
192,192,130651,1,0,0:0:0:0:
320,192,130809,1,0,0:0:0:0:
448,192,130809,1,0,0:0:0:0:
64,192,130809,1,0,0:0:0:0:
192,192,130967,1,0,0:0:0:0:
320,192,131125,1,0,0:0:0:0:
448,192,131283,128,0,131441:0:0:0:0:
64,192,131441,1,0,0:0:0:0:
448,192,131599,1,0,0:0:0:0:
320,192,131757,1,0,0:0:0:0:
192,192,131836,1,0,0:0:0:0:
64,192,131915,1,0,0:0:0:0:
448,192,131994,1,0,0:0:0:0:
320,192,132073,1,0,0:0:0:0:
192,192,132073,1,0,0:0:0:0:
64,192,132073,1,0,0:0:0:0:
448,192,132230,1,0,0:0:0:0:
320,192,132388,1,0,0:0:0:0:
64,192,132388,1,0,0:0:0:0:
192,192,132546,1,0,0:0:0:0:
64,192,132704,1,0,0:0:0:0:
448,192,132704,1,0,0:0:0:0:
320,192,132704,1,0,0:0:0:0:
320,192,132862,1,0,0:0:0:0:
192,192,132941,1,0,0:0:0:0:
64,192,133020,1,0,0:0:0:0:
448,192,133178,1,0,0:0:0:0:
320,192,133336,1,0,0:0:0:0:
192,192,133336,1,0,0:0:0:0:
64,192,133336,1,0,0:0:0:0:
448,192,133494,1,0,0:0:0:0:
64,192,133651,1,0,0:0:0:0:
192,192,133809,1,0,0:0:0:0:
320,192,133809,1,0,0:0:0:0:
448,192,133967,1,0,0:0:0:0:
64,192,133967,1,0,0:0:0:0:
320,192,133967,1,0,0:0:0:0:
192,192,134125,1,0,0:0:0:0:
192,192,134283,1,0,0:0:0:0:
320,192,134362,1,0,0:0:0:0:
448,192,134441,1,0,0:0:0:0:
320,192,134599,1,0,0:0:0:0:
192,192,134599,1,0,0:0:0:0:
64,192,134599,1,0,0:0:0:0:
448,192,134757,1,0,0:0:0:0:
64,192,134915,1,0,0:0:0:0:
320,192,134915,1,0,0:0:0:0:
192,192,135073,1,0,0:0:0:0:
320,192,135151,1,0,0:0:0:0:
448,192,135230,1,0,0:0:0:0:
64,192,135230,1,0,0:0:0:0:
320,192,135388,1,0,0:0:0:0:
64,192,135546,1,0,0:0:0:0:
448,192,135704,1,0,0:0:0:0:
320,192,135862,1,0,0:0:0:0:
192,192,135862,1,0,0:0:0:0:
64,192,135862,1,0,0:0:0:0:
448,192,136020,1,0,0:0:0:0:
64,192,136178,1,0,0:0:0:0:
192,192,136336,1,0,0:0:0:0:
448,192,136494,1,0,0:0:0:0:
320,192,136494,1,0,0:0:0:0:
64,192,136494,1,0,0:0:0:0:
320,192,136651,1,0,0:0:0:0:
192,192,136809,1,0,0:0:0:0:
64,192,136888,1,0,0:0:0:0:
448,192,136967,1,0,0:0:0:0:
320,192,137046,1,0,0:0:0:0:
192,192,137125,1,0,0:0:0:0:
64,192,137125,1,0,0:0:0:0:
320,192,137283,1,0,0:0:0:0:
320,192,137441,1,0,0:0:0:0:
448,192,137441,1,0,0:0:0:0:
64,192,137599,1,0,0:0:0:0:
448,192,137599,1,0,0:0:0:0:
192,192,137757,1,0,0:0:0:0:
64,192,137757,1,0,0:0:0:0:
192,192,137915,1,0,0:0:0:0:
320,192,137915,1,0,0:0:0:0:
320,192,138073,1,0,0:0:0:0:
448,192,138073,1,0,0:0:0:0:
64,192,138230,1,0,0:0:0:0:
448,192,138230,1,0,0:0:0:0:
192,192,138388,1,0,0:0:0:0:
64,192,138388,1,0,0:0:0:0:
64,192,138546,1,0,0:0:0:0:
192,192,138546,1,0,0:0:0:0:
320,192,138704,1,0,0:0:0:0:
448,192,138704,1,0,0:0:0:0:
448,192,138862,1,0,0:0:0:0:
320,192,138862,1,0,0:0:0:0:
64,192,139020,1,0,0:0:0:0:
192,192,139020,1,0,0:0:0:0:
320,192,139099,1,0,0:0:0:0:
448,192,139178,1,0,0:0:0:0:
64,192,139178,1,0,0:0:0:0:
192,192,139257,1,0,0:0:0:0:
320,192,139336,1,0,0:0:0:0:
448,192,139336,1,0,0:0:0:0:
192,192,139415,1,0,0:0:0:0:
64,192,139494,1,0,0:0:0:0:
448,192,139494,1,0,0:0:0:0:
192,192,139573,1,0,0:0:0:0:
320,192,139651,1,0,0:0:0:0:
448,192,139730,1,0,0:0:0:0:
192,192,139730,1,0,0:0:0:0:
64,192,139809,1,0,0:0:0:0:
192,192,139888,1,0,0:0:0:0:
320,192,139967,1,0,0:0:0:0:
448,192,140046,1,0,0:0:0:0:
320,192,140125,1,0,0:0:0:0:
192,192,140204,1,0,0:0:0:0:
64,192,140283,1,0,0:0:0:0:
448,192,140283,1,0,0:0:0:0:
320,192,140362,1,0,0:0:0:0:
192,192,140441,1,0,0:0:0:0:
64,192,140520,1,0,0:0:0:0:
192,192,140599,1,0,0:0:0:0:
320,192,140599,1,0,0:0:0:0:
448,192,140678,1,0,0:0:0:0:
64,192,140757,1,0,0:0:0:0:
192,192,140836,1,0,0:0:0:0:
320,192,140836,1,0,0:0:0:0:
448,192,140915,128,0,141546:0:0:0:0:
320,192,141546,1,0,0:0:0:0:
192,192,141546,128,0,141862:0:0:0:0:
64,192,141546,128,0,141862:0:0:0:0:
320,192,141862,128,0,142099:0:0:0:0:
64,192,142178,1,0,0:0:0:0:
448,192,142178,1,0,0:0:0:0:
192,192,142178,1,0,0:0:0:0:
448,192,142336,1,0,0:0:0:0:
192,192,142494,1,0,0:0:0:0:
320,192,142651,1,0,0:0:0:0:
64,192,142809,1,0,0:0:0:0:
320,192,142967,1,0,0:0:0:0:
192,192,143125,1,0,0:0:0:0:
64,192,143125,1,0,0:0:0:0:
320,192,143283,1,0,0:0:0:0:
192,192,143441,1,0,0:0:0:0:
64,192,143441,1,0,0:0:0:0:
320,192,143599,1,0,0:0:0:0:
64,192,143757,1,0,0:0:0:0:
448,192,143915,1,0,0:0:0:0:
192,192,144073,1,0,0:0:0:0:
64,192,144073,1,0,0:0:0:0:
448,192,144230,1,0,0:0:0:0:
192,192,144388,128,0,144467:0:0:0:0:
64,192,144388,1,0,0:0:0:0:
320,192,144546,1,0,0:0:0:0:
192,192,144704,1,0,0:0:0:0:
64,192,144704,1,0,0:0:0:0:
320,192,144862,1,0,0:0:0:0:
64,192,145020,1,0,0:0:0:0:
192,192,145020,1,0,0:0:0:0:
320,192,145178,1,0,0:0:0:0:
192,192,145336,1,0,0:0:0:0:
448,192,145494,1,0,0:0:0:0:
64,192,145651,1,0,0:0:0:0:
320,192,145809,1,0,0:0:0:0:
192,192,145967,1,0,0:0:0:0:
64,192,145967,1,0,0:0:0:0:
320,192,146125,1,0,0:0:0:0:
192,192,146283,1,0,0:0:0:0:
320,192,146441,1,0,0:0:0:0:
192,192,146599,1,0,0:0:0:0:
448,192,146757,128,0,146836:0:0:0:0:
64,192,146915,128,0,146994:0:0:0:0:
320,192,147073,128,0,147151:0:0:0:0:
192,192,147230,128,0,147309:0:0:0:0:
64,192,147230,1,0,0:0:0:0:
448,192,147388,128,0,147467:0:0:0:0:
64,192,147546,128,0,147625:0:0:0:0:
192,192,147546,1,0,0:0:0:0:
448,192,147704,128,0,147783:0:0:0:0:
192,192,147862,128,0,147941:0:0:0:0:
320,192,148020,128,0,148099:0:0:0:0:
64,192,148178,128,0,148257:0:0:0:0:
192,192,148178,1,0,0:0:0:0:
448,192,148336,128,0,148415:0:0:0:0:
192,192,148494,128,0,148573:0:0:0:0:
64,192,148494,1,0,0:0:0:0:
320,192,148651,128,0,148730:0:0:0:0:
64,192,148809,128,0,148888:0:0:0:0:
448,192,148967,128,0,149046:0:0:0:0:
192,192,149125,128,0,149204:0:0:0:0:
320,192,149125,1,0,0:0:0:0:
448,192,149283,128,0,149362:0:0:0:0:
64,192,149441,128,0,149520:0:0:0:0:
448,192,149599,128,0,149678:0:0:0:0:
192,192,149757,128,0,149836:0:0:0:0:
64,192,149757,1,0,0:0:0:0:
320,192,149915,128,0,149994:0:0:0:0:
64,192,150073,128,0,150151:0:0:0:0:
448,192,150230,128,0,150309:0:0:0:0:
192,192,150388,128,0,150467:0:0:0:0:
320,192,150546,128,0,150625:0:0:0:0:
64,192,150704,128,0,150783:0:0:0:0:
448,192,150862,128,0,150941:0:0:0:0:
192,192,151020,128,0,151099:0:0:0:0:
64,192,151020,1,0,0:0:0:0:
320,192,151178,128,0,151257:0:0:0:0:
64,192,151336,128,0,151415:0:0:0:0:
448,192,151494,128,0,151573:0:0:0:0:
64,192,151651,128,0,151967:0:0:0:0:
192,192,151651,128,0,151967:0:0:0:0:
320,192,151967,1,0,0:0:0:0:
448,192,151967,1,0,0:0:0:0:
192,192,152125,1,0,0:0:0:0:
64,192,152125,1,0,0:0:0:0:
448,192,152283,1,0,0:0:0:0:
320,192,152283,1,0,0:0:0:0:
192,192,152441,1,0,0:0:0:0:
64,192,152441,1,0,0:0:0:0:
320,192,152599,1,0,0:0:0:0:
448,192,152599,1,0,0:0:0:0:
192,192,152757,1,0,0:0:0:0:
64,192,152757,1,0,0:0:0:0:
448,192,152915,1,0,0:0:0:0:
320,192,152915,1,0,0:0:0:0:
64,192,153073,1,0,0:0:0:0:
192,192,153073,1,0,0:0:0:0:
320,192,153230,1,0,0:0:0:0:
448,192,153230,1,0,0:0:0:0:
192,192,153388,1,0,0:0:0:0:
64,192,153388,1,0,0:0:0:0:
448,192,153546,1,0,0:0:0:0:
320,192,153546,1,0,0:0:0:0:
64,192,153704,1,0,0:0:0:0:
192,192,153704,1,0,0:0:0:0:
320,192,153862,1,0,0:0:0:0:
448,192,153862,1,0,0:0:0:0:
192,192,154020,1,0,0:0:0:0:
64,192,154020,1,0,0:0:0:0:
448,192,154178,1,0,0:0:0:0:
320,192,154178,1,0,0:0:0:0:
192,192,154336,1,0,0:0:0:0:
64,192,154336,1,0,0:0:0:0:
320,192,154494,1,0,0:0:0:0:
448,192,154494,1,0,0:0:0:0:
192,192,154651,1,0,0:0:0:0:
64,192,154651,1,0,0:0:0:0:
448,192,154809,1,0,0:0:0:0:
320,192,154809,1,0,0:0:0:0:
64,192,154967,1,0,0:0:0:0:
192,192,154967,1,0,0:0:0:0:
320,192,155125,1,0,0:0:0:0:
448,192,155125,1,0,0:0:0:0:
192,192,155283,1,0,0:0:0:0:
64,192,155283,1,0,0:0:0:0:
448,192,155441,1,0,0:0:0:0:
320,192,155441,1,0,0:0:0:0:
64,192,155599,1,0,0:0:0:0:
192,192,155599,1,0,0:0:0:0:
320,192,155757,1,0,0:0:0:0:
448,192,155757,1,0,0:0:0:0:
192,192,155915,1,0,0:0:0:0:
64,192,155915,1,0,0:0:0:0:
448,192,156073,1,0,0:0:0:0:
320,192,156073,1,0,0:0:0:0:
64,192,156230,1,0,0:0:0:0:
192,192,156230,1,0,0:0:0:0:
320,192,156388,1,0,0:0:0:0:
448,192,156388,1,0,0:0:0:0:
192,192,156546,1,0,0:0:0:0:
64,192,156546,1,0,0:0:0:0:
448,192,156704,1,0,0:0:0:0:
320,192,156704,1,0,0:0:0:0:
192,192,156862,1,0,0:0:0:0:
64,192,156862,1,0,0:0:0:0:
320,192,157020,1,0,0:0:0:0:
448,192,157020,1,0,0:0:0:0:
192,192,157178,1,0,0:0:0:0:
64,192,157178,1,0,0:0:0:0:
448,192,157336,1,0,0:0:0:0:
320,192,157336,1,0,0:0:0:0:
64,192,157494,1,0,0:0:0:0:
192,192,157494,1,0,0:0:0:0:
320,192,157651,1,0,0:0:0:0:
448,192,157651,1,0,0:0:0:0:
192,192,157809,1,0,0:0:0:0:
64,192,157809,1,0,0:0:0:0:
448,192,157967,1,0,0:0:0:0:
320,192,157967,1,0,0:0:0:0:
64,192,158125,1,0,0:0:0:0:
192,192,158125,1,0,0:0:0:0:
320,192,158283,1,0,0:0:0:0:
448,192,158283,1,0,0:0:0:0:
192,192,158441,1,0,0:0:0:0:
64,192,158441,1,0,0:0:0:0:
448,192,158599,1,0,0:0:0:0:
320,192,158599,1,0,0:0:0:0:
192,192,158757,1,0,0:0:0:0:
64,192,158757,1,0,0:0:0:0:
320,192,158915,1,0,0:0:0:0:
448,192,158915,1,0,0:0:0:0:
192,192,159073,1,0,0:0:0:0:
64,192,159073,1,0,0:0:0:0:
448,192,159230,1,0,0:0:0:0:
320,192,159230,1,0,0:0:0:0:
64,192,159388,1,0,0:0:0:0:
192,192,159388,1,0,0:0:0:0:
320,192,159546,1,0,0:0:0:0:
448,192,159546,1,0,0:0:0:0:
192,192,159704,1,0,0:0:0:0:
64,192,159704,1,0,0:0:0:0:
448,192,159862,1,0,0:0:0:0:
320,192,159862,1,0,0:0:0:0:
64,192,160020,1,0,0:0:0:0:
192,192,160020,1,0,0:0:0:0:
320,192,160178,1,0,0:0:0:0:
448,192,160178,1,0,0:0:0:0:
192,192,160336,1,0,0:0:0:0:
64,192,160336,1,0,0:0:0:0:
448,192,160494,1,0,0:0:0:0:
320,192,160494,1,0,0:0:0:0:
64,192,160651,1,0,0:0:0:0:
192,192,160651,1,0,0:0:0:0:
320,192,160809,1,0,0:0:0:0:
448,192,160809,1,0,0:0:0:0:
192,192,160967,1,0,0:0:0:0:
64,192,160967,1,0,0:0:0:0:
448,192,161125,1,0,0:0:0:0:
320,192,161125,1,0,0:0:0:0:
64,192,161283,1,0,0:0:0:0:
192,192,161283,1,0,0:0:0:0:
320,192,161441,1,0,0:0:0:0:
448,192,161441,1,0,0:0:0:0:
64,192,161599,1,0,0:0:0:0:
192,192,161678,1,0,0:0:0:0:
64,192,161757,1,0,0:0:0:0:
448,192,161757,1,0,0:0:0:0:
64,192,161915,128,0,161994:0:0:0:0:
64,192,162073,128,0,162151:0:0:0:0:
320,192,162073,128,0,162230:0:0:0:0:
64,192,162230,128,0,162309:0:0:0:0:
64,192,162388,128,0,162467:0:0:0:0:
448,192,162388,1,0,0:0:0:0:
320,192,162388,1,0,0:0:0:0:
64,192,162546,128,0,162625:0:0:0:0:
448,192,162704,128,0,162783:0:0:0:0:
192,192,162704,1,0,0:0:0:0:
448,192,162862,128,0,162941:0:0:0:0:
64,192,162862,1,0,0:0:0:0:
448,192,163020,128,0,163099:0:0:0:0:
192,192,163020,1,0,0:0:0:0:
448,192,163178,128,0,163257:0:0:0:0:
448,192,163336,128,0,163415:0:0:0:0:
320,192,163336,1,0,0:0:0:0:
448,192,163494,128,0,163573:0:0:0:0:
448,192,163651,128,0,163730:0:0:0:0:
64,192,163651,1,0,0:0:0:0:
192,192,163651,1,0,0:0:0:0:
448,192,163809,128,0,163888:0:0:0:0:
448,192,163967,128,0,164046:0:0:0:0:
192,192,163967,1,0,0:0:0:0:
448,192,164125,128,0,164204:0:0:0:0:
448,192,164283,128,0,164362:0:0:0:0:
320,192,164283,1,0,0:0:0:0:
448,192,164441,128,0,164520:0:0:0:0:
448,192,164599,128,0,164678:0:0:0:0:
64,192,164599,1,0,0:0:0:0:
320,192,164599,1,0,0:0:0:0:
448,192,164757,128,0,164836:0:0:0:0:
448,192,164915,128,0,164994:0:0:0:0:
64,192,164915,1,0,0:0:0:0:
192,192,164915,1,0,0:0:0:0:
448,192,165073,128,0,165151:0:0:0:0:
320,192,165230,128,0,165309:0:0:0:0:
64,192,165230,1,0,0:0:0:0:
320,192,165388,128,0,165467:0:0:0:0:
320,192,165546,128,0,165625:0:0:0:0:
448,192,165546,1,0,0:0:0:0:
320,192,165704,128,0,165783:0:0:0:0:
64,192,165862,128,0,165941:0:0:0:0:
448,192,165862,1,0,0:0:0:0:
64,192,166020,128,0,166099:0:0:0:0:
64,192,166178,128,0,166257:0:0:0:0:
192,192,166178,1,0,0:0:0:0:
448,192,166178,1,0,0:0:0:0:
64,192,166336,128,0,166415:0:0:0:0:
64,192,166494,128,0,166573:0:0:0:0:
320,192,166494,1,0,0:0:0:0:
64,192,166651,128,0,166730:0:0:0:0:
448,192,166809,1,0,0:0:0:0:
192,192,166809,1,0,0:0:0:0:
64,192,166967,1,0,0:0:0:0:
448,192,166967,1,0,0:0:0:0:
192,192,167046,1,0,0:0:0:0:
64,192,167125,1,0,0:0:0:0:
320,192,167125,1,0,0:0:0:0:
192,192,167283,1,0,0:0:0:0:
448,192,167362,1,0,0:0:0:0:
64,192,167441,1,0,0:0:0:0:
320,192,167441,1,0,0:0:0:0:
192,192,167441,1,0,0:0:0:0:
192,192,167599,1,0,0:0:0:0:
320,192,167678,1,0,0:0:0:0:
64,192,167757,1,0,0:0:0:0:
448,192,167757,1,0,0:0:0:0:
320,192,167915,1,0,0:0:0:0:
192,192,167994,1,0,0:0:0:0:
64,192,168073,1,0,0:0:0:0:
320,192,168073,1,0,0:0:0:0:
64,192,168230,1,0,0:0:0:0:
448,192,168309,1,0,0:0:0:0:
320,192,168388,1,0,0:0:0:0:
192,192,168388,1,0,0:0:0:0:
64,192,168546,1,0,0:0:0:0:
448,192,168625,1,0,0:0:0:0:
192,192,168704,1,0,0:0:0:0:
320,192,168704,1,0,0:0:0:0:
64,192,168704,1,0,0:0:0:0:
448,192,168862,1,0,0:0:0:0:
64,192,168941,1,0,0:0:0:0:
192,192,169020,1,0,0:0:0:0:
320,192,169020,1,0,0:0:0:0:
64,192,169178,1,0,0:0:0:0:
448,192,169257,1,0,0:0:0:0:
320,192,169336,1,0,0:0:0:0:
192,192,169336,1,0,0:0:0:0:
64,192,169494,1,0,0:0:0:0:
320,192,169494,1,0,0:0:0:0:
64,192,169651,1,0,0:0:0:0:
192,192,169651,1,0,0:0:0:0:
192,192,169809,1,0,0:0:0:0:
448,192,169809,1,0,0:0:0:0:
320,192,169967,1,0,0:0:0:0:
448,192,169967,1,0,0:0:0:0:
64,192,169967,1,0,0:0:0:0:
320,192,170125,1,0,0:0:0:0:
192,192,170125,1,0,0:0:0:0:
64,192,170283,1,0,0:0:0:0:
192,192,170283,1,0,0:0:0:0:
64,192,170441,1,0,0:0:0:0:
320,192,170441,1,0,0:0:0:0:
448,192,170599,1,0,0:0:0:0:
320,192,170599,1,0,0:0:0:0:
192,192,170678,1,0,0:0:0:0:
64,192,170757,1,0,0:0:0:0:
448,192,170757,1,0,0:0:0:0:
320,192,170836,1,0,0:0:0:0:
192,192,170915,1,0,0:0:0:0:
64,192,170915,1,0,0:0:0:0:
320,192,170994,1,0,0:0:0:0:
448,192,171073,1,0,0:0:0:0:
64,192,171073,1,0,0:0:0:0:
192,192,171151,1,0,0:0:0:0:
448,192,171230,1,0,0:0:0:0:
320,192,171230,1,0,0:0:0:0:
64,192,171230,1,0,0:0:0:0:
448,192,171862,128,0,172178:0:0:0:0:
320,192,171862,128,0,172178:0:0:0:0:
64,192,171862,1,0,0:0:0:0:
192,192,172178,128,0,172336:0:0:0:0:
448,192,172494,1,0,0:0:0:0:
64,192,172494,1,0,0:0:0:0:
320,192,172494,1,0,0:0:0:0:
192,192,172494,1,0,0:0:0:0:
192,192,172809,128,0,173125:0:0:0:0:
448,192,173441,128,0,173599:0:0:0:0:
320,192,173757,1,0,0:0:0:0:
192,192,173757,1,0,0:0:0:0:
64,192,173757,1,0,0:0:0:0:
448,192,173757,1,0,0:0:0:0:
320,192,174073,128,0,174230:0:0:0:0:
448,192,174388,128,0,174704:0:0:0:0:
192,192,174388,128,0,174704:0:0:0:0:
64,192,174388,128,0,174704:0:0:0:0:
448,192,174862,1,0,0:0:0:0:
320,192,174862,1,0,0:0:0:0:
320,192,175020,1,0,0:0:0:0:
192,192,175020,128,0,175257:0:0:0:0:
64,192,175020,128,0,175257:0:0:0:0:
448,192,175336,128,0,176204:0:0:0:0:
320,192,175336,128,0,176204:0:0:0:0:
192,192,175336,1,0,0:0:0:0:
448,192,176283,1,0,0:0:0:0:
192,192,176283,1,0,0:0:0:0:
320,192,176283,1,0,0:0:0:0:
64,192,176283,1,0,0:0:0:0:
448,192,176915,128,0,177230:0:0:0:0:
64,192,176915,128,0,177230:0:0:0:0:
320,192,177230,128,0,177309:0:0:0:0:
64,192,177388,128,0,177467:0:0:0:0:
192,192,177546,1,0,0:0:0:0:
320,192,177546,1,0,0:0:0:0:
448,192,177546,1,0,0:0:0:0:
64,192,177862,128,0,177941:0:0:0:0:
320,192,178020,128,0,178099:0:0:0:0:
448,192,178494,128,0,178573:0:0:0:0:
64,192,178651,128,0,178730:0:0:0:0:
448,192,178809,1,0,0:0:0:0:
320,192,178809,1,0,0:0:0:0:
192,192,178809,1,0,0:0:0:0:
64,192,179125,128,0,179204:0:0:0:0:
448,192,179283,128,0,179362:0:0:0:0:
320,192,179441,128,0,179757:0:0:0:0:
192,192,179441,128,0,179757:0:0:0:0:
64,192,179441,128,0,179757:0:0:0:0:
448,192,179757,128,0,179836:0:0:0:0:
64,192,179915,1,0,0:0:0:0:
192,192,179915,1,0,0:0:0:0:
192,192,180073,1,0,0:0:0:0:
320,192,180073,1,0,0:0:0:0:
448,192,180073,1,0,0:0:0:0:
64,192,180388,128,0,181257:0:0:0:0:
192,192,180388,128,0,181257:0:0:0:0:
320,192,180388,128,0,181257:0:0:0:0:
448,192,180388,1,0,0:0:0:0:
448,192,181336,1,0,0:0:0:0:
320,192,181336,1,0,0:0:0:0:
64,192,181336,1,0,0:0:0:0:
192,192,181494,1,0,0:0:0:0:
64,192,181533,1,0,0:0:0:0:
448,192,181573,1,0,0:0:0:0:
320,192,181612,1,0,0:0:0:0:
192,192,181651,1,0,0:0:0:0:
320,192,181809,1,0,0:0:0:0:
448,192,181849,1,0,0:0:0:0:
64,192,181888,1,0,0:0:0:0:
192,192,181928,1,0,0:0:0:0:
320,192,181967,1,0,0:0:0:0:
448,192,181967,128,0,183230:0:0:0:0:
64,192,182283,128,0,182599:0:0:0:0:
192,192,182441,128,0,182599:0:0:0:0:
320,192,182599,1,0,0:0:0:0:
320,192,182915,128,0,183073:0:0:0:0:
192,192,183230,1,0,0:0:0:0:
320,192,183546,128,0,183704:0:0:0:0:
448,192,183862,1,0,0:0:0:0:
192,192,183862,1,0,0:0:0:0:
64,192,183862,1,0,0:0:0:0:
192,192,184178,128,0,184336:0:0:0:0:
448,192,184494,128,0,184809:0:0:0:0:
320,192,184494,128,0,184809:0:0:0:0:
64,192,184494,128,0,184809:0:0:0:0:
320,192,184967,1,0,0:0:0:0:
192,192,184967,1,0,0:0:0:0:
192,192,185125,1,0,0:0:0:0:
64,192,185125,128,0,185441:0:0:0:0:
448,192,185441,1,0,0:0:0:0:
320,192,185441,128,0,186309:0:0:0:0:
192,192,185441,128,0,186309:0:0:0:0:
64,192,185757,1,0,0:0:0:0:
448,192,186388,1,0,0:0:0:0:
320,192,186388,1,0,0:0:0:0:
192,192,186388,1,0,0:0:0:0:
64,192,186388,1,0,0:0:0:0:
320,192,186704,128,0,186862:0:0:0:0:
448,192,187020,128,0,187336:0:0:0:0:
64,192,187020,128,0,187336:0:0:0:0:
192,192,187336,128,0,187415:0:0:0:0:
320,192,187494,128,0,187573:0:0:0:0:
192,192,187651,1,0,0:0:0:0:
448,192,187651,1,0,0:0:0:0:
64,192,187651,1,0,0:0:0:0:
64,192,187967,128,0,188046:0:0:0:0:
320,192,188125,128,0,188204:0:0:0:0:
448,192,188599,128,0,188678:0:0:0:0:
64,192,188757,128,0,188836:0:0:0:0:
448,192,188915,1,0,0:0:0:0:
320,192,188915,1,0,0:0:0:0:
192,192,188915,1,0,0:0:0:0:
64,192,189230,128,0,189309:0:0:0:0:
448,192,189388,128,0,189467:0:0:0:0:
320,192,189546,128,0,189862:0:0:0:0:
192,192,189546,128,0,189862:0:0:0:0:
64,192,189546,128,0,189862:0:0:0:0:
448,192,189862,128,0,189941:0:0:0:0:
64,192,190020,1,0,0:0:0:0:
192,192,190178,1,0,0:0:0:0:
320,192,190178,1,0,0:0:0:0:
448,192,190178,1,0,0:0:0:0:
64,192,190494,128,0,191362:0:0:0:0:
192,192,190494,128,0,191362:0:0:0:0:
320,192,190494,128,0,191362:0:0:0:0:
448,192,190494,1,0,0:0:0:0:
448,192,191441,1,0,0:0:0:0:
320,192,191441,1,0,0:0:0:0:
64,192,191441,1,0,0:0:0:0:
192,192,191757,128,0,192073:0:0:0:0:
320,192,192073,1,0,0:0:0:0:
64,192,192073,1,0,0:0:0:0:
320,192,192230,1,0,0:0:0:0:
320,192,192388,1,0,0:0:0:0:
192,192,192467,1,0,0:0:0:0:
64,192,192546,1,0,0:0:0:0:
192,192,192704,1,0,0:0:0:0:
448,192,192704,1,0,0:0:0:0:
320,192,193020,1,0,0:0:0:0:
64,192,193020,1,0,0:0:0:0:
192,192,193178,1,0,0:0:0:0:
320,192,193257,1,0,0:0:0:0:
448,192,193336,1,0,0:0:0:0:
192,192,193336,1,0,0:0:0:0:
64,192,193336,1,0,0:0:0:0:
320,192,193494,1,0,0:0:0:0:
320,192,193651,1,0,0:0:0:0:
320,192,193809,1,0,0:0:0:0:
64,192,193967,1,0,0:0:0:0:
448,192,193967,1,0,0:0:0:0:
64,192,194283,1,0,0:0:0:0:
192,192,194283,1,0,0:0:0:0:
320,192,194283,1,0,0:0:0:0:
448,192,194283,1,0,0:0:0:0:
192,192,194599,1,0,0:0:0:0:
64,192,194599,128,0,194678:0:0:0:0:
320,192,194757,1,0,0:0:0:0:
320,192,194915,1,0,0:0:0:0:
192,192,194994,1,0,0:0:0:0:
320,192,195073,1,0,0:0:0:0:
448,192,195073,128,0,195151:0:0:0:0:
64,192,195230,1,0,0:0:0:0:
192,192,195230,1,0,0:0:0:0:
192,192,195546,1,0,0:0:0:0:
320,192,195546,128,0,195625:0:0:0:0:
64,192,195704,1,0,0:0:0:0:
192,192,195783,1,0,0:0:0:0:
320,192,195862,1,0,0:0:0:0:
448,192,195862,1,0,0:0:0:0:
64,192,195862,1,0,0:0:0:0:
192,192,196020,1,0,0:0:0:0:
192,192,196178,1,0,0:0:0:0:
320,192,196336,1,0,0:0:0:0:
320,192,196494,1,0,0:0:0:0:
64,192,196494,1,0,0:0:0:0:
64,192,196809,1,0,0:0:0:0:
192,192,196809,1,0,0:0:0:0:
320,192,196809,1,0,0:0:0:0:
448,192,196809,1,0,0:0:0:0:
64,192,197125,1,0,0:0:0:0:
192,192,197125,1,0,0:0:0:0:
192,192,197283,1,0,0:0:0:0:
320,192,197441,1,0,0:0:0:0:
192,192,197520,1,0,0:0:0:0:
64,192,197599,1,0,0:0:0:0:
192,192,197757,1,0,0:0:0:0:
448,192,197757,1,0,0:0:0:0:
320,192,198073,1,0,0:0:0:0:
320,192,198230,1,0,0:0:0:0:
192,192,198309,1,0,0:0:0:0:
64,192,198388,1,0,0:0:0:0:
320,192,198388,1,0,0:0:0:0:
448,192,198388,1,0,0:0:0:0:
192,192,198546,1,0,0:0:0:0:
192,192,198704,1,0,0:0:0:0:
192,192,198862,1,0,0:0:0:0:
192,192,199020,1,0,0:0:0:0:
448,192,199020,1,0,0:0:0:0:
64,192,199336,1,0,0:0:0:0:
192,192,199336,1,0,0:0:0:0:
320,192,199336,1,0,0:0:0:0:
448,192,199336,1,0,0:0:0:0:
64,192,199651,128,0,199730:0:0:0:0:
320,192,199651,128,0,199730:0:0:0:0:
448,192,199651,128,0,199730:0:0:0:0:
192,192,199809,1,0,0:0:0:0:
192,192,199967,1,0,0:0:0:0:
320,192,200046,1,0,0:0:0:0:
448,192,200125,128,0,200204:0:0:0:0:
64,192,200125,128,0,200204:0:0:0:0:
192,192,200125,128,0,200204:0:0:0:0:
320,192,200283,1,0,0:0:0:0:
320,192,200599,128,0,200678:0:0:0:0:
448,192,200599,128,0,200678:0:0:0:0:
64,192,200599,128,0,200678:0:0:0:0:
192,192,200757,1,0,0:0:0:0:
320,192,200836,1,0,0:0:0:0:
448,192,200915,1,0,0:0:0:0:
192,192,200915,1,0,0:0:0:0:
64,192,200915,1,0,0:0:0:0:
320,192,201073,1,0,0:0:0:0:
320,192,201230,1,0,0:0:0:0:
320,192,201388,1,0,0:0:0:0:
64,192,201546,1,0,0:0:0:0:
448,192,201546,1,0,0:0:0:0:
192,192,201546,128,0,201862:0:0:0:0:
320,192,201862,128,0,202178:0:0:0:0:
64,192,202178,128,0,202336:0:0:0:0:
448,192,202336,128,0,202494:0:0:0:0:
192,192,202494,128,0,202651:0:0:0:0:
320,192,202651,128,0,202809:0:0:0:0:
64,192,202809,1,0,0:0:0:0:
