osu file format v14

[General]
AudioFilename: audio.mp3
AudioLeadIn: 0
PreviewTime: 35647
Countdown: 1
SampleSet: Soft
StackLeniency: 0.7
Mode: 0
LetterboxInBreaks: 0
WidescreenStoryboard: 1

[Editor]
DistanceSpacing: 0.4
BeatDivisor: 8
GridSize: 4
TimelineZoom: 2.699999

[Metadata]
Title:OVERDRIVERS
TitleUnicode:OVERDRIVERS
Artist:P*LIGHT FEAT. MOW*2
ArtistUnicode:P*LIGHT FEAT. MOW*2
Creator:Morbon
Version:meh
Source:
Tags:BASSBOOST BA$$BOO$T
BeatmapID:1810097
BeatmapSetID:865712

[Difficulty]
HPDrainRate:7
CircleSize:0
OverallDifficulty:8
ApproachRate:9
SliderMultiplier:2.25
SliderTickRate:1

[Events]
//Background and Video events
0,0,"overdrivers.jpg",0,0
//Break Periods
//Storyboard Layer 0 (Background)
//Storyboard Layer 1 (Fail)
//Storyboard Layer 2 (Pass)
//Storyboard Layer 3 (Foreground)
//Storyboard Sound Samples

[TimingPoints]
1071.45691075088,338.983050847458,4,2,0,100,1,0
3783,-80,4,2,0,100,0,0

[HitObjects]
76,48,1071,6,0,L|204:80,1,112.5
8,140,1325,2,0,P|0:188|4:260,1,112.5
116,322,1579,2,0,P|128:288|120:240,1,56.25
185,75,1749,6,0,P|237:63|321:75,1,112.5
389,114,2003,2,0,P|439:115|488:104,1,56.25
84,144,2257,2,0,P|72:176|76:208,1,56.25
480,320,2427,5,0,0:0:0:0:
172,60,2512,1,0,0:0:0:0:
188,312,2596,1,0,0:0:0:0:
188,312,2766,1,0,0:0:0:0:
172,60,2851,6,0,L|292:52,1,112.5
332,60,3105,1,0,0:0:0:0:
384,88,3190,1,0,0:0:0:0:
432,124,3274,1,0,0:0:0:0:
456,180,3359,1,0,0:0:0:0:
452,240,3444,2,0,P|404:320|352:352,1,112.5
276,188,3783,6,0,L|284:372,1,140.625
140,132,4037,1,0,0:0:0:0:
140,132,4122,2,0,L|120:316,1,140.625
0,36,4376,1,0,0:0:0:0:
0,36,4461,2,0,L|-12:196,1,140.625
352,64,4715,1,0,0:0:0:0:
352,64,4800,1,0,0:0:0:0:
124,271,4969,1,0,0:0:0:0:
456,180,5054,1,0,0:0:0:0:
456,180,5139,6,0,L|476:24,1,140.625
292,268,5393,1,0,0:0:0:0:
292,268,5478,2,0,L|304:96,1,140.625
88,348,5732,1,0,0:0:0:0:
88,348,5817,2,0,L|72:160,1,140.625
32,32,6071,1,0,0:0:0:0:
32,32,6156,1,0,0:0:0:0:
288,288,6325,1,0,0:0:0:0:
170,9,6410,1,0,0:0:0:0:
170,9,6495,6,0,L|22:33,1,140.625
484,52,6749,1,0,0:0:0:0:
484,52,6834,2,0,B|312:72,1,140.625
14,162,7088,1,0,0:0:0:0:
14,162,7173,2,0,B|185:187,1,140.625
464,336,7427,1,0,0:0:0:0:
464,336,7512,1,0,0:0:0:0:
192,32,7681,1,0,0:0:0:0:
32,352,7851,5,0,0:0:0:0:
480,192,8020,2,0,P|444:84|440:-12,1,210.9375
192,32,8359,2,0,P|80:44|-16:80,1,210.9375
76,308,8698,2,0,L|96:152,1,140.625
108,172,8910,1,0,0:0:0:0:
120,176,8952,1,0,0:0:0:0:
132,180,8995,1,0,0:0:0:0:
144,184,9037,1,0,0:0:0:0:
156,188,9079,1,0,0:0:0:0:
168,192,9122,1,0,0:0:0:0:
180,196,9164,1,0,0:0:0:0:
192,200,9207,6,0,P|256:212|336:244,1,140.625
