osu file format v14

[General]
AudioFilename: audio.mp3
AudioLeadIn: 0
PreviewTime: 35647
Countdown: 1
SampleSet: Soft
StackLeniency: 0.7
Mode: 3
LetterboxInBreaks: 0
SpecialStyle: 0
WidescreenStoryboard: 0

[Editor]
DistanceSpacing: 0.8
BeatDivisor: 8
GridSize: 16
TimelineZoom: 1.6

[Metadata]
Title:OVERDRIVERS
TitleUnicode:OVERDRIVERS
Artist:P*LIGHT FEAT. MOW*2
ArtistUnicode:P*LIGHT FEAT. MOW*2
Creator:Morbon
Version:bom
Source:
Tags:BASSBOOST BA$$BOO$T
BeatmapID:1810098
BeatmapSetID:865712

[Difficulty]
HPDrainRate:7
CircleSize:4
OverallDifficulty:8
ApproachRate:5
SliderMultiplier:1.4
SliderTickRate:1

[Events]
//Background and Video events
0,0,"overdrivers.jpg",0,0
//Break Periods
//Storyboard Layer 0 (Background)
//Storyboard Layer 1 (Fail)
//Storyboard Layer 2 (Pass)
//Storyboard Layer 3 (Foreground)
//Storyboard Sound Samples

[TimingPoints]
1071.45691075088,338.983050847458,4,2,0,100,1,0
68868,-100,4,2,0,100,0,1
78359,-100,4,2,0,100,0,0

[HitObjects]
192,192,1071,5,0,0:0:0:0:
64,192,1071,1,0,0:0:0:0:
320,192,1071,1,0,0:0:0:0:
448,192,1071,1,0,0:0:0:0:
448,192,1325,1,0,0:0:0:0:
320,192,1325,1,0,0:0:0:0:
192,192,1325,1,0,0:0:0:0:
64,192,1325,1,0,0:0:0:0:
448,192,1579,1,0,0:0:0:0:
320,192,1579,1,0,0:0:0:0:
64,192,1579,1,0,0:0:0:0:
192,192,1579,1,0,0:0:0:0:
448,192,1749,1,0,0:0:0:0:
320,192,1749,1,0,0:0:0:0:
192,192,1749,1,0,0:0:0:0:
64,192,1749,1,0,0:0:0:0:
448,192,2003,1,0,0:0:0:0:
320,192,2003,1,0,0:0:0:0:
192,192,2003,1,0,0:0:0:0:
64,192,2003,1,0,0:0:0:0:
448,192,2257,1,0,0:0:0:0:
320,192,2257,1,0,0:0:0:0:
192,192,2257,1,0,0:0:0:0:
64,192,2257,1,0,0:0:0:0:
448,192,2427,1,0,0:0:0:0:
320,192,2427,1,0,0:0:0:0:
192,192,2427,1,0,0:0:0:0:
64,192,2427,1,0,0:0:0:0:
192,192,2596,1,0,0:0:0:0:
64,192,2596,1,0,0:0:0:0:
192,192,2681,1,0,0:0:0:0:
64,192,2681,1,0,0:0:0:0:
448,192,2851,1,0,0:0:0:0:
320,192,2851,1,0,0:0:0:0:
448,192,2935,1,0,0:0:0:0:
320,192,2935,1,0,0:0:0:0:
192,192,3105,1,0,0:0:0:0:
64,192,3105,1,0,0:0:0:0:
192,192,3190,1,0,0:0:0:0:
64,192,3190,1,0,0:0:0:0:
320,192,3274,1,0,0:0:0:0:
448,192,3274,1,0,0:0:0:0:
320,192,3359,1,0,0:0:0:0:
448,192,3359,1,0,0:0:0:0:
192,192,3444,1,0,0:0:0:0:
64,192,3444,1,0,0:0:0:0:
64,192,3613,1,0,0:0:0:0:
64,192,3698,1,0,0:0:0:0:
448,192,3783,1,0,0:0:0:0:
320,192,3783,1,0,0:0:0:0:
192,192,3783,1,0,0:0:0:0:
64,192,3783,1,0,0:0:0:0:
448,192,3952,1,0,0:0:0:0:
448,192,4037,1,0,0:0:0:0:
448,192,4122,1,0,0:0:0:0:
320,192,4122,1,0,0:0:0:0:
192,192,4122,1,0,0:0:0:0:
64,192,4122,1,0,0:0:0:0:
320,192,4291,1,0,0:0:0:0:
320,192,4376,1,0,0:0:0:0:
64,192,4461,1,0,0:0:0:0:
320,192,4461,1,0,0:0:0:0:
448,192,4461,1,0,0:0:0:0:
192,192,4461,1,0,0:0:0:0:
192,192,4630,1,0,0:0:0:0:
192,192,4715,1,0,0:0:0:0:
448,192,4800,1,0,0:0:0:0:
320,192,4800,1,0,0:0:0:0:
192,192,4800,1,0,0:0:0:0:
64,192,4800,1,0,0:0:0:0:
64,192,4969,1,0,0:0:0:0:
64,192,5054,1,0,0:0:0:0:
448,192,5139,1,0,0:0:0:0:
320,192,5139,1,0,0:0:0:0:
192,192,5139,1,0,0:0:0:0:
64,192,5139,1,0,0:0:0:0:
192,192,5308,1,0,0:0:0:0:
192,192,5393,1,0,0:0:0:0:
448,192,5478,1,0,0:0:0:0:
320,192,5478,1,0,0:0:0:0:
192,192,5478,1,0,0:0:0:0:
64,192,5478,1,0,0:0:0:0:
448,192,5647,1,0,0:0:0:0:
448,192,5732,1,0,0:0:0:0:
448,192,5817,1,0,0:0:0:0:
320,192,5817,1,0,0:0:0:0:
64,192,5817,1,0,0:0:0:0:
192,192,5817,1,0,0:0:0:0:
320,192,5986,1,0,0:0:0:0:
320,192,6071,1,0,0:0:0:0:
448,192,6156,1,0,0:0:0:0:
320,192,6156,1,0,0:0:0:0:
192,192,6156,1,0,0:0:0:0:
64,192,6156,1,0,0:0:0:0:
64,192,6325,1,0,0:0:0:0:
64,192,6410,1,0,0:0:0:0:
320,192,6495,1,0,0:0:0:0:
192,192,6495,1,0,0:0:0:0:
64,192,6495,1,0,0:0:0:0:
448,192,6495,1,0,0:0:0:0:
192,192,6664,1,0,0:0:0:0:
192,192,6749,1,0,0:0:0:0:
448,192,6834,1,0,0:0:0:0:
320,192,6834,1,0,0:0:0:0:
192,192,6834,1,0,0:0:0:0:
64,192,6834,1,0,0:0:0:0:
448,192,7003,1,0,0:0:0:0:
448,192,7088,1,0,0:0:0:0:
64,192,7173,1,0,0:0:0:0:
192,192,7173,1,0,0:0:0:0:
320,192,7173,1,0,0:0:0:0:
448,192,7173,1,0,0:0:0:0:
64,192,7342,1,0,0:0:0:0:
64,192,7427,1,0,0:0:0:0:
448,192,7512,1,0,0:0:0:0:
320,192,7512,1,0,0:0:0:0:
192,192,7512,1,0,0:0:0:0:
64,192,7512,1,0,0:0:0:0:
64,192,7681,1,0,0:0:0:0:
192,192,7681,1,0,0:0:0:0:
320,192,7681,1,0,0:0:0:0:
448,192,7681,1,0,0:0:0:0:
448,192,7851,1,0,0:0:0:0:
320,192,7851,1,0,0:0:0:0:
192,192,7851,1,0,0:0:0:0:
64,192,7851,1,0,0:0:0:0:
64,192,8020,128,0,8274:0:0:0:0:
320,192,8020,128,0,8274:0:0:0:0:
448,192,8020,128,0,8274:0:0:0:0:
192,192,8020,1,0,0:0:0:0:
64,192,8359,128,0,8613:0:0:0:0:
192,192,8359,128,0,8613:0:0:0:0:
448,192,8359,128,0,8613:0:0:0:0:
320,192,8359,1,0,0:0:0:0:
64,192,8698,1,0,0:0:0:0:
192,192,8698,128,0,8783:0:0:0:0:
320,192,8698,128,0,8825:0:0:0:0:
448,192,8698,128,0,8868:0:0:0:0:
64,192,8868,1,0,0:0:0:0:
192,192,8896,1,0,0:0:0:0:
320,192,8924,1,0,0:0:0:0:
448,192,8952,1,0,0:0:0:0:
64,192,8981,1,0,0:0:0:0:
192,192,9009,1,0,0:0:0:0:
320,192,9037,1,0,0:0:0:0:
448,192,9065,1,0,0:0:0:0:
64,192,9094,1,0,0:0:0:0:
192,192,9122,1,0,0:0:0:0:
320,192,9150,1,0,0:0:0:0:
448,192,9207,1,0,0:0:0:0:
192,192,9207,1,0,0:0:0:0:
64,192,9207,1,0,0:0:0:0:
192,192,9376,1,0,0:0:0:0:
192,192,9461,1,0,0:0:0:0:
64,192,9546,1,0,0:0:0:0:
192,192,9546,1,0,0:0:0:0:
320,192,9546,1,0,0:0:0:0:
448,192,9546,1,0,0:0:0:0:
448,192,9715,1,0,0:0:0:0:
448,192,9800,1,0,0:0:0:0:
448,192,9885,1,0,0:0:0:0:
320,192,9885,1,0,0:0:0:0:
192,192,9885,1,0,0:0:0:0:
64,192,9885,1,0,0:0:0:0:
64,192,10054,1,0,0:0:0:0:
64,192,10139,1,0,0:0:0:0:
64,192,10223,1,0,0:0:0:0:
192,192,10223,1,0,0:0:0:0:
320,192,10223,1,0,0:0:0:0:
448,192,10223,1,0,0:0:0:0:
320,192,10393,1,0,0:0:0:0:
320,192,10478,1,0,0:0:0:0:
448,192,10562,1,0,0:0:0:0:
320,192,10562,1,0,0:0:0:0:
192,192,10562,1,0,0:0:0:0:
64,192,10562,1,0,0:0:0:0:
192,192,10732,1,0,0:0:0:0:
192,192,10817,1,0,0:0:0:0:
448,192,10901,1,0,0:0:0:0:
320,192,10901,1,0,0:0:0:0:
192,192,10901,1,0,0:0:0:0:
64,192,10901,1,0,0:0:0:0:
64,192,11071,1,0,0:0:0:0:
64,192,11156,1,0,0:0:0:0:
64,192,11240,1,0,0:0:0:0:
192,192,11240,1,0,0:0:0:0:
320,192,11240,1,0,0:0:0:0:
448,192,11240,1,0,0:0:0:0:
448,192,11410,1,0,0:0:0:0:
448,192,11495,1,0,0:0:0:0:
448,192,11579,1,0,0:0:0:0:
320,192,11579,1,0,0:0:0:0:
192,192,11579,1,0,0:0:0:0:
64,192,11579,1,0,0:0:0:0:
192,192,11749,1,0,0:0:0:0:
192,192,11834,1,0,0:0:0:0:
64,192,11918,1,0,0:0:0:0:
192,192,11918,1,0,0:0:0:0:
320,192,11918,1,0,0:0:0:0:
448,192,11918,1,0,0:0:0:0:
448,192,12088,1,0,0:0:0:0:
320,192,12088,1,0,0:0:0:0:
192,192,12088,1,0,0:0:0:0:
64,192,12088,1,0,0:0:0:0:
64,192,12257,1,0,0:0:0:0:
192,192,12257,1,0,0:0:0:0:
448,192,12257,1,0,0:0:0:0:
320,192,12257,1,0,0:0:0:0:
448,192,12427,1,0,0:0:0:0:
320,192,12427,1,0,0:0:0:0:
192,192,12427,1,0,0:0:0:0:
64,192,12427,1,0,0:0:0:0:
64,192,12596,1,0,0:0:0:0:
192,192,12596,1,0,0:0:0:0:
320,192,12681,1,0,0:0:0:0:
448,192,12681,1,0,0:0:0:0:
192,192,12766,1,0,0:0:0:0:
64,192,12766,1,0,0:0:0:0:
320,192,12851,1,0,0:0:0:0:
448,192,12851,1,0,0:0:0:0:
192,192,12935,1,0,0:0:0:0:
64,192,12935,1,0,0:0:0:0:
192,192,13020,1,0,0:0:0:0:
64,192,13020,1,0,0:0:0:0:
320,192,13105,1,0,0:0:0:0:
448,192,13105,1,0,0:0:0:0:
320,192,13190,1,0,0:0:0:0:
448,192,13190,1,0,0:0:0:0:
192,192,13274,128,0,13444:0:0:0:0:
64,192,13274,128,0,13444:0:0:0:0:
320,192,13444,128,0,13698:0:0:0:0:
448,192,13444,128,0,13698:0:0:0:0:
64,192,13783,128,0,14037:0:0:0:0:
192,192,13783,128,0,14037:0:0:0:0:
448,192,13783,128,0,14037:0:0:0:0:
192,192,14122,128,0,14207:0:0:0:0:
320,192,14122,128,0,14249:0:0:0:0:
448,192,14122,128,0,14291:0:0:0:0:
64,192,14291,1,0,0:0:0:0:
192,192,14320,1,0,0:0:0:0:
320,192,14348,1,0,0:0:0:0:
448,192,14376,1,0,0:0:0:0:
64,192,14404,1,0,0:0:0:0:
192,192,14433,1,0,0:0:0:0:
320,192,14461,1,0,0:0:0:0:
448,192,14489,1,0,0:0:0:0:
64,192,14517,1,0,0:0:0:0:
192,192,14546,1,0,0:0:0:0:
320,192,14574,1,0,0:0:0:0:
448,192,14602,1,0,0:0:0:0:
64,192,14630,1,0,0:0:0:0:
192,192,14630,1,0,0:0:0:0:
192,192,14800,1,0,0:0:0:0:
320,192,14800,1,0,0:0:0:0:
320,192,14969,1,0,0:0:0:0:
448,192,14969,1,0,0:0:0:0:
192,192,15139,1,0,0:0:0:0:
320,192,15139,1,0,0:0:0:0:
192,192,15308,1,0,0:0:0:0:
64,192,15308,1,0,0:0:0:0:
192,192,15478,1,0,0:0:0:0:
320,192,15478,1,0,0:0:0:0:
320,192,15647,1,0,0:0:0:0:
448,192,15647,1,0,0:0:0:0:
192,192,15817,1,0,0:0:0:0:
320,192,15817,1,0,0:0:0:0:
64,192,15986,1,0,0:0:0:0:
192,192,15986,1,0,0:0:0:0:
320,192,15986,1,0,0:0:0:0:
448,192,15986,1,0,0:0:0:0:
320,192,16156,1,0,0:0:0:0:
192,192,16156,1,0,0:0:0:0:
64,192,16325,1,0,0:0:0:0:
192,192,16325,1,0,0:0:0:0:
64,192,16495,1,0,0:0:0:0:
192,192,16495,1,0,0:0:0:0:
320,192,16495,1,0,0:0:0:0:
448,192,16495,1,0,0:0:0:0:
320,192,16664,1,0,0:0:0:0:
192,192,16664,1,0,0:0:0:0:
448,192,16834,1,0,0:0:0:0:
320,192,16834,1,0,0:0:0:0:
192,192,17003,1,0,0:0:0:0:
320,192,17003,1,0,0:0:0:0:
64,192,17173,128,0,17342:0:0:0:0:
192,192,17173,128,0,17342:0:0:0:0:
448,192,17342,1,0,0:0:0:0:
320,192,17342,1,0,0:0:0:0:
320,192,17512,1,0,0:0:0:0:
448,192,17512,1,0,0:0:0:0:
448,192,17681,1,0,0:0:0:0:
320,192,17681,1,0,0:0:0:0:
64,192,17681,1,0,0:0:0:0:
192,192,17681,1,0,0:0:0:0:
64,192,17851,1,0,0:0:0:0:
320,192,17851,1,0,0:0:0:0:
448,192,18020,1,0,0:0:0:0:
320,192,18020,1,0,0:0:0:0:
192,192,18020,1,0,0:0:0:0:
64,192,18020,1,0,0:0:0:0:
192,192,18190,1,0,0:0:0:0:
448,192,18190,1,0,0:0:0:0:
64,192,18359,1,0,0:0:0:0:
192,192,18359,1,0,0:0:0:0:
320,192,18359,1,0,0:0:0:0:
448,192,18359,1,0,0:0:0:0:
320,192,18529,1,0,0:0:0:0:
192,192,18529,1,0,0:0:0:0:
448,192,18698,1,0,0:0:0:0:
320,192,18698,1,0,0:0:0:0:
192,192,18698,1,0,0:0:0:0:
64,192,18698,1,0,0:0:0:0:
64,192,18868,1,0,0:0:0:0:
320,192,18868,1,0,0:0:0:0:
448,192,19037,1,0,0:0:0:0:
64,192,19037,1,0,0:0:0:0:
320,192,19037,1,0,0:0:0:0:
192,192,19037,1,0,0:0:0:0:
192,192,19207,1,0,0:0:0:0:
448,192,19207,1,0,0:0:0:0:
320,192,19376,1,0,0:0:0:0:
192,192,19376,1,0,0:0:0:0:
448,192,19376,1,0,0:0:0:0:
64,192,19376,1,0,0:0:0:0:
320,192,19546,1,0,0:0:0:0:
448,192,19546,1,0,0:0:0:0:
320,192,19715,1,0,0:0:0:0:
64,192,19715,1,0,0:0:0:0:
448,192,19715,1,0,0:0:0:0:
192,192,19715,1,0,0:0:0:0:
448,192,19885,1,0,0:0:0:0:
64,192,19885,1,0,0:0:0:0:
64,192,20054,1,0,0:0:0:0:
320,192,20054,1,0,0:0:0:0:
192,192,20054,1,0,0:0:0:0:
448,192,20054,1,0,0:0:0:0:
192,192,20223,1,0,0:0:0:0:
320,192,20223,1,0,0:0:0:0:
320,192,20393,1,0,0:0:0:0:
192,192,20393,1,0,0:0:0:0:
448,192,20393,1,0,0:0:0:0:
64,192,20393,1,0,0:0:0:0:
64,192,20562,1,0,0:0:0:0:
192,192,20562,1,0,0:0:0:0:
448,192,20732,1,0,0:0:0:0:
64,192,20732,1,0,0:0:0:0:
320,192,20732,1,0,0:0:0:0:
192,192,20732,1,0,0:0:0:0:
192,192,20901,1,0,0:0:0:0:
448,192,20901,1,0,0:0:0:0:
448,192,21071,1,0,0:0:0:0:
320,192,21071,1,0,0:0:0:0:
192,192,21071,1,0,0:0:0:0:
64,192,21071,1,0,0:0:0:0:
320,192,21240,1,0,0:0:0:0:
64,192,21240,1,0,0:0:0:0:
448,192,21410,1,0,0:0:0:0:
192,192,21410,1,0,0:0:0:0:
64,192,21410,1,0,0:0:0:0:
320,192,21410,1,0,0:0:0:0:
64,192,21579,1,0,0:0:0:0:
448,192,21579,1,0,0:0:0:0:
192,192,21749,1,0,0:0:0:0:
64,192,21749,1,0,0:0:0:0:
448,192,21749,1,0,0:0:0:0:
320,192,21749,1,0,0:0:0:0:
192,192,21918,1,0,0:0:0:0:
320,192,21918,1,0,0:0:0:0:
448,192,22088,1,0,0:0:0:0:
64,192,22088,1,0,0:0:0:0:
320,192,22088,1,0,0:0:0:0:
192,192,22088,1,0,0:0:0:0:
320,192,22257,1,0,0:0:0:0:
448,192,22257,1,0,0:0:0:0:
320,192,22427,1,0,0:0:0:0:
192,192,22427,1,0,0:0:0:0:
448,192,22427,1,0,0:0:0:0:
64,192,22427,1,0,0:0:0:0:
64,192,22596,1,0,0:0:0:0:
192,192,22596,1,0,0:0:0:0:
192,192,22766,1,0,0:0:0:0:
64,192,22766,1,0,0:0:0:0:
448,192,22766,1,0,0:0:0:0:
320,192,22766,1,0,0:0:0:0:
192,192,22935,1,0,0:0:0:0:
448,192,22935,1,0,0:0:0:0:
64,192,23105,1,0,0:0:0:0:
320,192,23105,1,0,0:0:0:0:
448,192,23105,1,0,0:0:0:0:
192,192,23105,1,0,0:0:0:0:
64,192,23274,1,0,0:0:0:0:
320,192,23274,1,0,0:0:0:0:
448,192,23444,1,0,0:0:0:0:
320,192,23444,1,0,0:0:0:0:
192,192,23444,1,0,0:0:0:0:
64,192,23444,1,0,0:0:0:0:
192,192,23613,1,0,0:0:0:0:
448,192,23613,1,0,0:0:0:0:
320,192,23783,1,0,0:0:0:0:
192,192,23783,1,0,0:0:0:0:
448,192,23783,1,0,0:0:0:0:
64,192,23783,1,0,0:0:0:0:
320,192,23952,1,0,0:0:0:0:
192,192,23952,1,0,0:0:0:0:
448,192,24122,1,0,0:0:0:0:
64,192,24122,1,0,0:0:0:0:
320,192,24122,1,0,0:0:0:0:
192,192,24122,1,0,0:0:0:0:
320,192,24291,1,0,0:0:0:0:
64,192,24291,1,0,0:0:0:0:
448,192,24461,1,0,0:0:0:0:
320,192,24461,1,0,0:0:0:0:
192,192,24461,1,0,0:0:0:0:
64,192,24461,1,0,0:0:0:0:
192,192,24630,1,0,0:0:0:0:
448,192,24630,1,0,0:0:0:0:
448,192,24800,1,0,0:0:0:0:
192,192,24800,1,0,0:0:0:0:
64,192,24800,1,0,0:0:0:0:
320,192,24800,1,0,0:0:0:0:
320,192,24969,1,0,0:0:0:0:
64,192,24969,128,0,25223:0:0:0:0:
192,192,24969,128,0,25223:0:0:0:0:
448,192,24969,128,0,25223:0:0:0:0:
448,192,25308,1,0,0:0:0:0:
320,192,25308,1,0,0:0:0:0:
192,192,25308,1,0,0:0:0:0:
64,192,25308,1,0,0:0:0:0:
64,192,25478,1,0,0:0:0:0:
192,192,25478,1,0,0:0:0:0:
320,192,25478,1,0,0:0:0:0:
448,192,25478,1,0,0:0:0:0:
320,192,25647,1,0,0:0:0:0:
448,192,25647,1,0,0:0:0:0:
448,192,25817,1,0,0:0:0:0:
64,192,25817,1,0,0:0:0:0:
320,192,25817,1,0,0:0:0:0:
192,192,25817,1,0,0:0:0:0:
192,192,25986,1,0,0:0:0:0:
320,192,25986,1,0,0:0:0:0:
320,192,26156,1,0,0:0:0:0:
192,192,26156,1,0,0:0:0:0:
448,192,26156,1,0,0:0:0:0:
64,192,26156,1,0,0:0:0:0:
64,192,26325,1,0,0:0:0:0:
320,192,26325,1,0,0:0:0:0:
192,192,26495,1,0,0:0:0:0:
64,192,26495,1,0,0:0:0:0:
448,192,26495,1,0,0:0:0:0:
320,192,26495,1,0,0:0:0:0:
192,192,26664,1,0,0:0:0:0:
448,192,26664,1,0,0:0:0:0:
64,192,26834,1,0,0:0:0:0:
320,192,26834,1,0,0:0:0:0:
448,192,26834,1,0,0:0:0:0:
192,192,26834,1,0,0:0:0:0:
64,192,27003,1,0,0:0:0:0:
192,192,27003,1,0,0:0:0:0:
448,192,27173,1,0,0:0:0:0:
320,192,27173,1,0,0:0:0:0:
192,192,27173,1,0,0:0:0:0:
64,192,27173,1,0,0:0:0:0:
192,192,27342,1,0,0:0:0:0:
448,192,27342,1,0,0:0:0:0:
320,192,27512,1,0,0:0:0:0:
192,192,27512,1,0,0:0:0:0:
448,192,27512,1,0,0:0:0:0:
64,192,27512,1,0,0:0:0:0:
320,192,27681,1,0,0:0:0:0:
192,192,27681,1,0,0:0:0:0:
448,192,27851,1,0,0:0:0:0:
64,192,27851,1,0,0:0:0:0:
320,192,27851,1,0,0:0:0:0:
192,192,27851,1,0,0:0:0:0:
448,192,28020,1,0,0:0:0:0:
64,192,28020,1,0,0:0:0:0:
448,192,28190,1,0,0:0:0:0:
320,192,28190,1,0,0:0:0:0:
192,192,28190,1,0,0:0:0:0:
64,192,28190,1,0,0:0:0:0:
192,192,28359,1,0,0:0:0:0:
448,192,28359,1,0,0:0:0:0:
448,192,28529,1,0,0:0:0:0:
192,192,28529,1,0,0:0:0:0:
64,192,28529,1,0,0:0:0:0:
320,192,28529,1,0,0:0:0:0:
320,192,28698,1,0,0:0:0:0:
64,192,28698,1,0,0:0:0:0:
192,192,28868,1,0,0:0:0:0:
64,192,28868,1,0,0:0:0:0:
448,192,28868,1,0,0:0:0:0:
320,192,28868,1,0,0:0:0:0:
192,192,29037,1,0,0:0:0:0:
320,192,29037,1,0,0:0:0:0:
448,192,29207,1,0,0:0:0:0:
64,192,29207,1,0,0:0:0:0:
320,192,29207,1,0,0:0:0:0:
192,192,29207,1,0,0:0:0:0:
320,192,29376,1,0,0:0:0:0:
448,192,29376,1,0,0:0:0:0:
320,192,29546,1,0,0:0:0:0:
192,192,29546,1,0,0:0:0:0:
448,192,29546,1,0,0:0:0:0:
64,192,29546,1,0,0:0:0:0:
192,192,29715,1,0,0:0:0:0:
64,192,29715,1,0,0:0:0:0:
192,192,29885,1,0,0:0:0:0:
64,192,29885,1,0,0:0:0:0:
448,192,29885,1,0,0:0:0:0:
320,192,29885,1,0,0:0:0:0:
192,192,30054,1,0,0:0:0:0:
448,192,30054,1,0,0:0:0:0:
64,192,30223,1,0,0:0:0:0:
320,192,30223,1,0,0:0:0:0:
448,192,30223,1,0,0:0:0:0:
192,192,30223,1,0,0:0:0:0:
320,192,30393,1,0,0:0:0:0:
64,192,30393,1,0,0:0:0:0:
448,192,30562,1,0,0:0:0:0:
320,192,30562,1,0,0:0:0:0:
192,192,30562,1,0,0:0:0:0:
64,192,30562,1,0,0:0:0:0:
448,192,30732,1,0,0:0:0:0:
320,192,30732,1,0,0:0:0:0:
192,192,30732,1,0,0:0:0:0:
64,192,30732,1,0,0:0:0:0:
64,192,30901,128,0,31325:0:0:0:0:
320,192,30901,1,0,0:0:0:0:
192,192,30901,128,0,31325:0:0:0:0:
448,192,30901,128,0,31325:0:0:0:0:
320,192,31071,1,0,0:0:0:0:
320,192,31240,1,0,0:0:0:0:
64,192,31410,1,0,0:0:0:0:
192,192,31410,1,0,0:0:0:0:
320,192,31410,1,0,0:0:0:0:
448,192,31410,1,0,0:0:0:0:
192,192,31579,128,0,32003:0:0:0:0:
320,192,31579,128,0,32003:0:0:0:0:
448,192,31579,128,0,32003:0:0:0:0:
64,192,31579,1,0,0:0:0:0:
64,192,31749,1,0,0:0:0:0:
64,192,31918,1,0,0:0:0:0:
64,192,32088,1,0,0:0:0:0:
192,192,32088,1,0,0:0:0:0:
320,192,32088,1,0,0:0:0:0:
448,192,32088,1,0,0:0:0:0:
320,192,32257,128,0,32681:0:0:0:0:
448,192,32257,128,0,32681:0:0:0:0:
64,192,32257,128,0,32681:0:0:0:0:
192,192,32257,1,0,0:0:0:0:
192,192,32427,1,0,0:0:0:0:
192,192,32596,1,0,0:0:0:0:
64,192,32766,1,0,0:0:0:0:
192,192,32766,1,0,0:0:0:0:
320,192,32766,1,0,0:0:0:0:
448,192,32766,1,0,0:0:0:0:
64,192,32935,128,0,33359:0:0:0:0:
192,192,32935,128,0,33359:0:0:0:0:
320,192,32935,128,0,33359:0:0:0:0:
448,192,32935,1,0,0:0:0:0:
448,192,33105,1,0,0:0:0:0:
448,192,33274,1,0,0:0:0:0:
448,192,33444,1,0,0:0:0:0:
320,192,33444,1,0,0:0:0:0:
192,192,33444,1,0,0:0:0:0:
64,192,33444,1,0,0:0:0:0:
64,192,33613,1,0,0:0:0:0:
192,192,33613,1,0,0:0:0:0:
320,192,33613,1,0,0:0:0:0:
448,192,33613,1,0,0:0:0:0:
192,192,33783,1,0,0:0:0:0:
64,192,33783,1,0,0:0:0:0:
64,192,33952,1,0,0:0:0:0:
192,192,33952,1,0,0:0:0:0:
448,192,33952,1,0,0:0:0:0:
320,192,33952,1,0,0:0:0:0:
320,192,34122,1,0,0:0:0:0:
448,192,34122,1,0,0:0:0:0:
192,192,34291,1,0,0:0:0:0:
64,192,34291,1,0,0:0:0:0:
192,192,34376,1,0,0:0:0:0:
64,192,34376,1,0,0:0:0:0:
192,192,34461,1,0,0:0:0:0:
64,192,34461,1,0,0:0:0:0:
192,192,34546,1,0,0:0:0:0:
64,192,34546,1,0,0:0:0:0:
320,192,34630,1,0,0:0:0:0:
448,192,34630,1,0,0:0:0:0:
192,192,34630,1,0,0:0:0:0:
64,192,34630,1,0,0:0:0:0:
320,192,34715,1,0,0:0:0:0:
448,192,34715,1,0,0:0:0:0:
320,192,34800,1,0,0:0:0:0:
448,192,34800,1,0,0:0:0:0:
320,192,34885,1,0,0:0:0:0:
448,192,34885,1,0,0:0:0:0:
64,192,34969,1,0,0:0:0:0:
192,192,34969,1,0,0:0:0:0:
320,192,34969,1,0,0:0:0:0:
448,192,34969,1,0,0:0:0:0:
64,192,35139,1,0,0:0:0:0:
192,192,35139,1,0,0:0:0:0:
448,192,35139,1,0,0:0:0:0:
320,192,35139,1,0,0:0:0:0:
64,192,35308,128,0,35647:0:0:0:0:
320,192,35308,128,0,35647:0:0:0:0:
448,192,35308,128,0,35647:0:0:0:0:
192,192,35308,1,0,0:0:0:0:
192,192,35647,1,0,0:0:0:0:
192,192,35732,1,0,0:0:0:0:
192,192,35817,1,0,0:0:0:0:
448,192,35817,1,0,0:0:0:0:
320,192,35901,1,0,0:0:0:0:
192,192,35986,128,0,36240:0:0:0:0:
64,192,35986,128,0,36240:0:0:0:0:
448,192,35986,1,0,0:0:0:0:
448,192,36325,1,0,0:0:0:0:
320,192,36325,1,0,0:0:0:0:
192,192,36353,1,0,0:0:0:0:
64,192,36382,1,0,0:0:0:0:
448,192,36410,1,0,0:0:0:0:
320,192,36438,1,0,0:0:0:0:
192,192,36466,1,0,0:0:0:0:
64,192,36495,1,0,0:0:0:0:
448,192,36523,1,0,0:0:0:0:
320,192,36551,1,0,0:0:0:0:
192,192,36579,1,0,0:0:0:0:
64,192,36608,1,0,0:0:0:0:
448,192,36636,1,0,0:0:0:0:
320,192,36664,1,0,0:0:0:0:
192,192,36692,1,0,0:0:0:0:
64,192,36721,1,0,0:0:0:0:
448,192,36749,1,0,0:0:0:0:
320,192,36777,1,0,0:0:0:0:
192,192,36805,1,0,0:0:0:0:
64,192,36834,1,0,0:0:0:0:
448,192,36862,1,0,0:0:0:0:
320,192,36890,1,0,0:0:0:0:
192,192,36918,1,0,0:0:0:0:
64,192,36947,1,0,0:0:0:0:
448,192,36975,1,0,0:0:0:0:
320,192,37003,1,0,0:0:0:0:
192,192,37031,1,0,0:0:0:0:
64,192,37060,1,0,0:0:0:0:
448,192,37088,1,0,0:0:0:0:
320,192,37116,1,0,0:0:0:0:
192,192,37144,1,0,0:0:0:0:
64,192,37173,1,0,0:0:0:0:
448,192,37201,1,0,0:0:0:0:
320,192,37229,1,0,0:0:0:0:
192,192,37257,1,0,0:0:0:0:
64,192,37286,1,0,0:0:0:0:
448,192,37314,1,0,0:0:0:0:
320,192,37342,1,0,0:0:0:0:
192,192,37370,1,0,0:0:0:0:
64,192,37399,1,0,0:0:0:0:
448,192,37427,1,0,0:0:0:0:
320,192,37455,1,0,0:0:0:0:
64,192,37483,1,0,0:0:0:0:
192,192,37512,1,0,0:0:0:0:
448,192,37540,1,0,0:0:0:0:
320,192,37568,1,0,0:0:0:0:
64,192,37596,1,0,0:0:0:0:
192,192,37625,1,0,0:0:0:0:
448,192,37653,1,0,0:0:0:0:
320,192,37681,1,0,0:0:0:0:
64,192,37709,1,0,0:0:0:0:
192,192,37738,1,0,0:0:0:0:
448,192,37766,1,0,0:0:0:0:
320,192,37794,1,0,0:0:0:0:
64,192,37822,1,0,0:0:0:0:
192,192,37851,1,0,0:0:0:0:
320,192,37879,1,0,0:0:0:0:
448,192,37907,1,0,0:0:0:0:
64,192,37935,1,0,0:0:0:0:
192,192,37964,1,0,0:0:0:0:
320,192,37992,1,0,0:0:0:0:
448,192,38020,1,0,0:0:0:0:
64,192,38048,1,0,0:0:0:0:
192,192,38077,1,0,0:0:0:0:
320,192,38105,1,0,0:0:0:0:
448,192,38133,1,0,0:0:0:0:
64,192,38161,1,0,0:0:0:0:
192,192,38190,1,0,0:0:0:0:
320,192,38218,1,0,0:0:0:0:
448,192,38246,1,0,0:0:0:0:
64,192,38274,1,0,0:0:0:0:
192,192,38303,1,0,0:0:0:0:
320,192,38331,1,0,0:0:0:0:
448,192,38359,1,0,0:0:0:0:
64,192,38387,1,0,0:0:0:0:
192,192,38416,1,0,0:0:0:0:
320,192,38444,1,0,0:0:0:0:
448,192,38472,1,0,0:0:0:0:
64,192,38529,1,0,0:0:0:0:
192,192,38529,1,0,0:0:0:0:
320,192,38698,1,0,0:0:0:0:
448,192,38698,1,0,0:0:0:0:
192,192,38698,1,0,0:0:0:0:
64,192,38868,1,0,0:0:0:0:
192,192,38868,1,0,0:0:0:0:
320,192,38868,1,0,0:0:0:0:
64,192,39037,1,0,0:0:0:0:
192,192,39037,1,0,0:0:0:0:
448,192,39037,1,0,0:0:0:0:
320,192,39037,1,0,0:0:0:0:
192,192,39207,1,0,0:0:0:0:
320,192,39207,1,0,0:0:0:0:
448,192,39207,1,0,0:0:0:0:
448,192,39376,1,0,0:0:0:0:
320,192,39376,1,0,0:0:0:0:
64,192,39376,1,0,0:0:0:0:
192,192,39376,1,0,0:0:0:0:
192,192,39546,1,0,0:0:0:0:
64,192,39546,1,0,0:0:0:0:
448,192,39546,1,0,0:0:0:0:
64,192,39715,1,0,0:0:0:0:
192,192,39715,1,0,0:0:0:0:
320,192,39715,1,0,0:0:0:0:
448,192,39715,1,0,0:0:0:0:
192,192,39885,1,0,0:0:0:0:
64,192,39885,1,0,0:0:0:0:
448,192,39885,1,0,0:0:0:0:
448,192,40054,1,0,0:0:0:0:
320,192,40054,1,0,0:0:0:0:
192,192,40054,1,0,0:0:0:0:
64,192,40054,1,0,0:0:0:0:
320,192,40223,1,0,0:0:0:0:
448,192,40223,1,0,0:0:0:0:
192,192,40223,1,0,0:0:0:0:
64,192,40393,1,0,0:0:0:0:
192,192,40393,1,0,0:0:0:0:
320,192,40393,1,0,0:0:0:0:
448,192,40393,1,0,0:0:0:0:
64,192,40562,1,0,0:0:0:0:
192,192,40562,1,0,0:0:0:0:
320,192,40562,1,0,0:0:0:0:
448,192,40732,1,0,0:0:0:0:
320,192,40732,1,0,0:0:0:0:
192,192,40732,1,0,0:0:0:0:
64,192,40732,1,0,0:0:0:0:
64,192,40901,1,0,0:0:0:0:
320,192,40901,1,0,0:0:0:0:
448,192,40901,1,0,0:0:0:0:
64,192,41071,1,0,0:0:0:0:
192,192,41071,1,0,0:0:0:0:
320,192,41071,1,0,0:0:0:0:
448,192,41071,1,0,0:0:0:0:
64,192,41240,1,0,0:0:0:0:
192,192,41240,1,0,0:0:0:0:
448,192,41240,1,0,0:0:0:0:
448,192,41410,1,0,0:0:0:0:
320,192,41410,1,0,0:0:0:0:
192,192,41410,1,0,0:0:0:0:
64,192,41410,1,0,0:0:0:0:
192,192,41579,1,0,0:0:0:0:
320,192,41579,1,0,0:0:0:0:
448,192,41579,1,0,0:0:0:0:
64,192,41749,1,0,0:0:0:0:
192,192,41749,1,0,0:0:0:0:
320,192,41777,1,0,0:0:0:0:
448,192,41805,1,0,0:0:0:0:
64,192,41834,1,0,0:0:0:0:
192,192,41862,1,0,0:0:0:0:
320,192,41890,1,0,0:0:0:0:
448,192,41918,1,0,0:0:0:0:
64,192,41947,1,0,0:0:0:0:
192,192,41975,1,0,0:0:0:0:
320,192,42003,1,0,0:0:0:0:
448,192,42031,1,0,0:0:0:0:
64,192,42060,1,0,0:0:0:0:
192,192,42088,1,0,0:0:0:0:
320,192,42116,1,0,0:0:0:0:
448,192,42144,1,0,0:0:0:0:
64,192,42173,1,0,0:0:0:0:
192,192,42201,1,0,0:0:0:0:
320,192,42229,1,0,0:0:0:0:
448,192,42257,1,0,0:0:0:0:
64,192,42286,1,0,0:0:0:0:
192,192,42314,1,0,0:0:0:0:
320,192,42342,1,0,0:0:0:0:
448,192,42370,1,0,0:0:0:0:
64,192,42399,1,0,0:0:0:0:
192,192,42427,1,0,0:0:0:0:
320,192,42455,1,0,0:0:0:0:
448,192,42483,1,0,0:0:0:0:
64,192,42512,1,0,0:0:0:0:
192,192,42540,1,0,0:0:0:0:
320,192,42568,1,0,0:0:0:0:
448,192,42596,1,0,0:0:0:0:
64,192,42625,1,0,0:0:0:0:
192,192,42653,1,0,0:0:0:0:
320,192,42681,1,0,0:0:0:0:
448,192,42709,1,0,0:0:0:0:
64,192,42738,1,0,0:0:0:0:
192,192,42766,1,0,0:0:0:0:
320,192,42794,1,0,0:0:0:0:
448,192,42822,1,0,0:0:0:0:
64,192,42851,1,0,0:0:0:0:
192,192,42879,1,0,0:0:0:0:
448,192,42907,1,0,0:0:0:0:
320,192,42935,1,0,0:0:0:0:
64,192,42964,1,0,0:0:0:0:
192,192,42992,1,0,0:0:0:0:
448,192,43020,1,0,0:0:0:0:
320,192,43048,1,0,0:0:0:0:
64,192,43077,1,0,0:0:0:0:
192,192,43105,1,0,0:0:0:0:
448,192,43133,1,0,0:0:0:0:
320,192,43161,1,0,0:0:0:0:
64,192,43190,1,0,0:0:0:0:
192,192,43218,1,0,0:0:0:0:
448,192,43246,1,0,0:0:0:0:
320,192,43274,1,0,0:0:0:0:
192,192,43303,1,0,0:0:0:0:
64,192,43331,1,0,0:0:0:0:
448,192,43359,1,0,0:0:0:0:
320,192,43387,1,0,0:0:0:0:
192,192,43416,1,0,0:0:0:0:
64,192,43444,1,0,0:0:0:0:
448,192,43472,1,0,0:0:0:0:
320,192,43500,1,0,0:0:0:0:
192,192,43529,1,0,0:0:0:0:
64,192,43557,1,0,0:0:0:0:
448,192,43585,1,0,0:0:0:0:
320,192,43613,1,0,0:0:0:0:
192,192,43642,1,0,0:0:0:0:
64,192,43670,1,0,0:0:0:0:
448,192,43698,1,0,0:0:0:0:
320,192,43726,1,0,0:0:0:0:
192,192,43755,1,0,0:0:0:0:
64,192,43783,1,0,0:0:0:0:
448,192,43811,1,0,0:0:0:0:
320,192,43839,1,0,0:0:0:0:
192,192,43868,1,0,0:0:0:0:
64,192,43896,1,0,0:0:0:0:
448,192,43924,1,0,0:0:0:0:
320,192,43952,1,0,0:0:0:0:
192,192,43952,1,0,0:0:0:0:
192,192,44122,1,0,0:0:0:0:
64,192,44122,1,0,0:0:0:0:
320,192,44122,1,0,0:0:0:0:
320,192,44291,1,0,0:0:0:0:
448,192,44291,1,0,0:0:0:0:
192,192,44291,1,0,0:0:0:0:
448,192,44461,1,0,0:0:0:0:
320,192,44461,1,0,0:0:0:0:
192,192,44461,1,0,0:0:0:0:
64,192,44461,1,0,0:0:0:0:
448,192,44630,1,0,0:0:0:0:
192,192,44630,1,0,0:0:0:0:
64,192,44630,1,0,0:0:0:0:
64,192,44800,1,0,0:0:0:0:
192,192,44800,1,0,0:0:0:0:
320,192,44800,1,0,0:0:0:0:
448,192,44800,1,0,0:0:0:0:
64,192,44969,1,0,0:0:0:0:
192,192,44969,1,0,0:0:0:0:
320,192,44969,1,0,0:0:0:0:
448,192,45139,1,0,0:0:0:0:
320,192,45139,1,0,0:0:0:0:
192,192,45139,1,0,0:0:0:0:
64,192,45139,1,0,0:0:0:0:
192,192,45308,1,0,0:0:0:0:
320,192,45308,1,0,0:0:0:0:
448,192,45308,1,0,0:0:0:0:
64,192,45478,1,0,0:0:0:0:
192,192,45478,1,0,0:0:0:0:
320,192,45478,1,0,0:0:0:0:
448,192,45478,1,0,0:0:0:0:
64,192,45647,1,0,0:0:0:0:
320,192,45647,1,0,0:0:0:0:
448,192,45647,1,0,0:0:0:0:
448,192,45817,1,0,0:0:0:0:
320,192,45817,1,0,0:0:0:0:
192,192,45817,1,0,0:0:0:0:
64,192,45817,1,0,0:0:0:0:
64,192,45986,1,0,0:0:0:0:
192,192,45986,1,0,0:0:0:0:
448,192,45986,1,0,0:0:0:0:
448,192,46156,1,0,0:0:0:0:
320,192,46156,1,0,0:0:0:0:
64,192,46156,1,0,0:0:0:0:
192,192,46156,1,0,0:0:0:0:
192,192,46325,1,0,0:0:0:0:
64,192,46325,1,0,0:0:0:0:
320,192,46325,1,0,0:0:0:0:
448,192,46495,1,0,0:0:0:0:
320,192,46495,1,0,0:0:0:0:
192,192,46495,1,0,0:0:0:0:
64,192,46495,1,0,0:0:0:0:
64,192,46664,1,0,0:0:0:0:
192,192,46664,1,0,0:0:0:0:
320,192,46664,1,0,0:0:0:0:
448,192,46664,1,0,0:0:0:0:
448,192,46834,1,0,0:0:0:0:
320,192,46834,1,0,0:0:0:0:
192,192,46834,1,0,0:0:0:0:
64,192,46834,1,0,0:0:0:0:
448,192,47003,1,0,0:0:0:0:
320,192,47003,1,0,0:0:0:0:
192,192,47003,1,0,0:0:0:0:
64,192,47003,1,0,0:0:0:0:
64,192,47088,1,0,0:0:0:0:
192,192,47088,1,0,0:0:0:0:
320,192,47088,1,0,0:0:0:0:
448,192,47088,1,0,0:0:0:0:
448,192,47173,1,0,0:0:0:0:
320,192,47173,1,0,0:0:0:0:
192,192,47173,1,0,0:0:0:0:
64,192,47173,1,0,0:0:0:0:
320,192,47257,1,0,0:0:0:0:
192,192,47342,1,0,0:0:0:0:
64,192,47342,1,0,0:0:0:0:
192,192,47427,1,0,0:0:0:0:
320,192,47512,1,0,0:0:0:0:
448,192,47512,1,0,0:0:0:0:
448,192,47596,1,0,0:0:0:0:
192,192,47681,1,0,0:0:0:0:
64,192,47681,1,0,0:0:0:0:
64,192,47766,1,0,0:0:0:0:
448,192,47851,1,0,0:0:0:0:
320,192,47851,1,0,0:0:0:0:
192,192,47851,1,0,0:0:0:0:
320,192,47935,1,0,0:0:0:0:
192,192,48020,1,0,0:0:0:0:
64,192,48020,1,0,0:0:0:0:
192,192,48105,1,0,0:0:0:0:
448,192,48190,1,0,0:0:0:0:
320,192,48190,1,0,0:0:0:0:
320,192,48274,1,0,0:0:0:0:
192,192,48359,1,0,0:0:0:0:
64,192,48359,1,0,0:0:0:0:
64,192,48444,1,0,0:0:0:0:
192,192,48529,1,0,0:0:0:0:
320,192,48529,1,0,0:0:0:0:
448,192,48529,1,0,0:0:0:0:
64,192,48529,1,0,0:0:0:0:
448,192,48613,1,0,0:0:0:0:
192,192,48698,1,0,0:0:0:0:
320,192,48698,1,0,0:0:0:0:
192,192,48783,1,0,0:0:0:0:
448,192,48868,1,0,0:0:0:0:
64,192,48868,1,0,0:0:0:0:
64,192,48952,1,0,0:0:0:0:
192,192,49037,1,0,0:0:0:0:
448,192,49037,1,0,0:0:0:0:
448,192,49122,1,0,0:0:0:0:
320,192,49207,1,0,0:0:0:0:
64,192,49207,1,0,0:0:0:0:
192,192,49207,1,0,0:0:0:0:
320,192,49291,1,0,0:0:0:0:
192,192,49376,1,0,0:0:0:0:
64,192,49376,1,0,0:0:0:0:
192,192,49461,1,0,0:0:0:0:
448,192,49546,1,0,0:0:0:0:
320,192,49546,1,0,0:0:0:0:
448,192,49630,1,0,0:0:0:0:
448,192,49715,1,0,0:0:0:0:
448,192,49800,1,0,0:0:0:0:
448,192,49885,1,0,0:0:0:0:
192,192,49885,1,0,0:0:0:0:
320,192,49885,1,0,0:0:0:0:
64,192,49885,1,0,0:0:0:0:
64,192,49969,1,0,0:0:0:0:
192,192,50054,1,0,0:0:0:0:
448,192,50054,1,0,0:0:0:0:
192,192,50139,1,0,0:0:0:0:
320,192,50223,1,0,0:0:0:0:
448,192,50223,1,0,0:0:0:0:
320,192,50308,1,0,0:0:0:0:
448,192,50393,1,0,0:0:0:0:
64,192,50393,1,0,0:0:0:0:
448,192,50478,1,0,0:0:0:0:
320,192,50562,1,0,0:0:0:0:
192,192,50562,1,0,0:0:0:0:
64,192,50562,1,0,0:0:0:0:
320,192,50647,1,0,0:0:0:0:
192,192,50732,1,0,0:0:0:0:
448,192,50732,1,0,0:0:0:0:
192,192,50817,1,0,0:0:0:0:
64,192,50901,1,0,0:0:0:0:
320,192,50901,1,0,0:0:0:0:
64,192,50986,1,0,0:0:0:0:
192,192,51071,1,0,0:0:0:0:
448,192,51071,1,0,0:0:0:0:
448,192,51156,1,0,0:0:0:0:
320,192,51240,1,0,0:0:0:0:
192,192,51240,1,0,0:0:0:0:
64,192,51240,1,0,0:0:0:0:
448,192,51240,1,0,0:0:0:0:
64,192,51325,1,0,0:0:0:0:
192,192,51410,1,0,0:0:0:0:
448,192,51410,1,0,0:0:0:0:
448,192,51495,1,0,0:0:0:0:
320,192,51579,1,0,0:0:0:0:
192,192,51579,1,0,0:0:0:0:
320,192,51664,1,0,0:0:0:0:
64,192,51749,1,0,0:0:0:0:
448,192,51749,1,0,0:0:0:0:
64,192,51834,1,0,0:0:0:0:
192,192,51918,1,0,0:0:0:0:
320,192,51918,1,0,0:0:0:0:
448,192,51918,1,0,0:0:0:0:
192,192,52003,1,0,0:0:0:0:
320,192,52088,1,0,0:0:0:0:
448,192,52088,1,0,0:0:0:0:
448,192,52173,1,0,0:0:0:0:
64,192,52257,1,0,0:0:0:0:
192,192,52257,1,0,0:0:0:0:
64,192,52342,1,0,0:0:0:0:
64,192,52427,1,0,0:0:0:0:
64,192,52512,1,0,0:0:0:0:
64,192,52596,1,0,0:0:0:0:
192,192,52596,1,0,0:0:0:0:
320,192,52596,1,0,0:0:0:0:
448,192,52596,1,0,0:0:0:0:
448,192,52681,1,0,0:0:0:0:
320,192,52766,1,0,0:0:0:0:
192,192,52766,1,0,0:0:0:0:
192,192,52851,1,0,0:0:0:0:
64,192,52935,1,0,0:0:0:0:
448,192,52935,1,0,0:0:0:0:
320,192,52935,1,0,0:0:0:0:
64,192,53020,1,0,0:0:0:0:
192,192,53105,1,0,0:0:0:0:
320,192,53105,1,0,0:0:0:0:
320,192,53190,1,0,0:0:0:0:
192,192,53274,1,0,0:0:0:0:
64,192,53274,1,0,0:0:0:0:
448,192,53274,1,0,0:0:0:0:
64,192,53359,1,0,0:0:0:0:
192,192,53444,1,0,0:0:0:0:
448,192,53444,1,0,0:0:0:0:
448,192,53529,1,0,0:0:0:0:
320,192,53613,1,0,0:0:0:0:
192,192,53613,1,0,0:0:0:0:
64,192,53613,1,0,0:0:0:0:
64,192,53698,1,0,0:0:0:0:
320,192,53783,1,0,0:0:0:0:
448,192,53783,1,0,0:0:0:0:
448,192,53868,1,0,0:0:0:0:
320,192,53952,1,0,0:0:0:0:
192,192,53952,1,0,0:0:0:0:
64,192,53952,1,0,0:0:0:0:
448,192,53952,1,0,0:0:0:0:
64,192,54037,1,0,0:0:0:0:
192,192,54122,1,0,0:0:0:0:
320,192,54122,1,0,0:0:0:0:
192,192,54207,1,0,0:0:0:0:
320,192,54291,1,0,0:0:0:0:
448,192,54291,1,0,0:0:0:0:
64,192,54291,1,0,0:0:0:0:
320,192,54376,1,0,0:0:0:0:
448,192,54461,1,0,0:0:0:0:
192,192,54461,1,0,0:0:0:0:
448,192,54546,1,0,0:0:0:0:
320,192,54630,1,0,0:0:0:0:
192,192,54630,1,0,0:0:0:0:
64,192,54630,1,0,0:0:0:0:
64,192,54715,1,0,0:0:0:0:
192,192,54800,1,0,0:0:0:0:
448,192,54800,1,0,0:0:0:0:
192,192,54885,1,0,0:0:0:0:
448,192,54969,1,0,0:0:0:0:
320,192,54969,1,0,0:0:0:0:
64,192,54969,1,0,0:0:0:0:
448,192,55054,1,0,0:0:0:0:
320,192,55139,1,0,0:0:0:0:
192,192,55139,1,0,0:0:0:0:
192,192,55223,1,0,0:0:0:0:
64,192,55308,1,0,0:0:0:0:
192,192,55308,1,0,0:0:0:0:
320,192,55308,1,0,0:0:0:0:
448,192,55308,1,0,0:0:0:0:
320,192,55393,1,0,0:0:0:0:
448,192,55393,1,0,0:0:0:0:
192,192,55478,1,0,0:0:0:0:
64,192,55478,1,0,0:0:0:0:
192,192,55562,1,0,0:0:0:0:
64,192,55562,1,0,0:0:0:0:
320,192,55647,1,0,0:0:0:0:
448,192,55647,1,0,0:0:0:0:
192,192,55647,1,0,0:0:0:0:
320,192,55732,1,0,0:0:0:0:
448,192,55732,1,0,0:0:0:0:
192,192,55817,1,0,0:0:0:0:
64,192,55817,1,0,0:0:0:0:
192,192,55901,1,0,0:0:0:0:
64,192,55901,1,0,0:0:0:0:
192,192,55986,1,0,0:0:0:0:
320,192,55986,1,0,0:0:0:0:
448,192,55986,1,0,0:0:0:0:
320,192,56071,1,0,0:0:0:0:
448,192,56071,1,0,0:0:0:0:
64,192,56240,1,0,0:0:0:0:
192,192,56240,1,0,0:0:0:0:
64,192,56325,1,0,0:0:0:0:
320,192,56325,1,0,0:0:0:0:
448,192,56325,1,0,0:0:0:0:
64,192,56495,1,0,0:0:0:0:
192,192,56495,1,0,0:0:0:0:
448,192,56495,1,0,0:0:0:0:
448,192,56664,1,0,0:0:0:0:
320,192,56664,128,0,57596:0:0:0:0:
192,192,56664,128,0,57512:0:0:0:0:
64,192,56664,128,0,57427:0:0:0:0:
448,192,56834,128,0,56918:0:0:0:0:
448,192,57173,128,0,57257:0:0:0:0:
448,192,57512,128,0,57596:0:0:0:0:
320,192,57681,1,0,0:0:0:0:
192,192,57681,1,0,0:0:0:0:
64,192,57681,1,0,0:0:0:0:
192,192,58020,128,0,60223:0:0:0:0:
320,192,58020,128,0,60308:0:0:0:0:
448,192,58020,128,0,59291:0:0:0:0:
64,192,58020,128,0,59376:0:0:0:0:
448,192,59376,1,0,0:0:0:0:
64,192,59461,1,0,0:0:0:0:
448,192,59546,1,0,0:0:0:0:
64,192,59630,1,0,0:0:0:0:
448,192,59715,1,0,0:0:0:0:
448,192,59800,1,0,0:0:0:0:
64,192,59885,1,0,0:0:0:0:
64,192,59969,1,0,0:0:0:0:
448,192,60054,1,0,0:0:0:0:
448,192,60139,1,0,0:0:0:0:
64,192,60223,1,0,0:0:0:0:
448,192,60308,1,0,0:0:0:0:
192,192,60393,1,0,0:0:0:0:
64,192,60393,1,0,0:0:0:0:
320,192,60393,1,0,0:0:0:0:
192,192,60478,1,0,0:0:0:0:
448,192,60562,1,0,0:0:0:0:
320,192,60562,1,0,0:0:0:0:
448,192,60647,1,0,0:0:0:0:
320,192,60647,1,0,0:0:0:0:
192,192,60732,128,0,60901:0:0:0:0:
320,192,60732,1,0,0:0:0:0:
64,192,60732,128,0,60901:0:0:0:0:
448,192,60732,128,0,60901:0:0:0:0:
192,192,60986,128,0,61156:0:0:0:0:
320,192,60986,128,0,61156:0:0:0:0:
448,192,60986,128,0,61156:0:0:0:0:
64,192,60986,1,0,0:0:0:0:
64,192,61240,128,0,61410:0:0:0:0:
320,192,61240,128,0,61410:0:0:0:0:
448,192,61240,128,0,61410:0:0:0:0:
192,192,61240,1,0,0:0:0:0:
448,192,61495,1,0,0:0:0:0:
320,192,61495,128,0,61664:0:0:0:0:
192,192,61495,128,0,61664:0:0:0:0:
64,192,61495,128,0,61664:0:0:0:0:
448,192,61749,1,0,0:0:0:0:
320,192,61749,1,0,0:0:0:0:
192,192,61791,1,0,0:0:0:0:
64,192,61791,1,0,0:0:0:0:
320,192,61834,1,0,0:0:0:0:
448,192,61834,1,0,0:0:0:0:
192,192,61876,1,0,0:0:0:0:
64,192,61876,1,0,0:0:0:0:
320,192,61918,1,0,0:0:0:0:
448,192,61918,1,0,0:0:0:0:
64,192,62003,1,0,0:0:0:0:
192,192,62003,1,0,0:0:0:0:
64,192,62088,1,0,0:0:0:0:
192,192,62088,1,0,0:0:0:0:
64,192,62173,1,0,0:0:0:0:
192,192,62173,1,0,0:0:0:0:
64,192,62257,1,0,0:0:0:0:
192,192,62257,1,0,0:0:0:0:
64,192,62427,1,0,0:0:0:0:
192,192,62427,128,0,62512:0:0:0:0:
320,192,62427,128,0,62512:0:0:0:0:
448,192,62427,128,0,62512:0:0:0:0:
320,192,62596,1,0,0:0:0:0:
192,192,62596,128,0,62681:0:0:0:0:
64,192,62596,128,0,62681:0:0:0:0:
448,192,62596,128,0,62681:0:0:0:0:
320,192,62766,1,0,0:0:0:0:
192,192,62766,128,0,62935:0:0:0:0:
64,192,62766,128,0,62935:0:0:0:0:
448,192,62766,128,0,62935:0:0:0:0:
448,192,63020,1,0,0:0:0:0:
320,192,63048,1,0,0:0:0:0:
192,192,63077,1,0,0:0:0:0:
64,192,63105,1,0,0:0:0:0:
448,192,63133,1,0,0:0:0:0:
320,192,63161,1,0,0:0:0:0:
192,192,63190,1,0,0:0:0:0:
64,192,63218,1,0,0:0:0:0:
448,192,63246,1,0,0:0:0:0:
320,192,63274,1,0,0:0:0:0:
192,192,63303,1,0,0:0:0:0:
64,192,63331,1,0,0:0:0:0:
448,192,63359,1,0,0:0:0:0:
320,192,63387,1,0,0:0:0:0:
192,192,63416,1,0,0:0:0:0:
64,192,63444,1,0,0:0:0:0:
192,192,63529,1,0,0:0:0:0:
320,192,63613,1,0,0:0:0:0:
448,192,63613,1,0,0:0:0:0:
448,192,63698,1,0,0:0:0:0:
192,192,63783,1,0,0:0:0:0:
64,192,63783,1,0,0:0:0:0:
64,192,63868,1,0,0:0:0:0:
320,192,63952,1,0,0:0:0:0:
448,192,63952,1,0,0:0:0:0:
320,192,64037,1,0,0:0:0:0:
64,192,64122,1,0,0:0:0:0:
448,192,64122,1,0,0:0:0:0:
64,192,64207,1,0,0:0:0:0:
320,192,64291,1,0,0:0:0:0:
192,192,64291,1,0,0:0:0:0:
320,192,64376,1,0,0:0:0:0:
448,192,64461,1,0,0:0:0:0:
192,192,64461,1,0,0:0:0:0:
448,192,64546,1,0,0:0:0:0:
320,192,64630,1,0,0:0:0:0:
64,192,64630,1,0,0:0:0:0:
64,192,64715,1,0,0:0:0:0:
448,192,64800,1,0,0:0:0:0:
320,192,64800,1,0,0:0:0:0:
192,192,64800,1,0,0:0:0:0:
448,192,64885,1,0,0:0:0:0:
320,192,64969,1,0,0:0:0:0:
64,192,64969,1,0,0:0:0:0:
320,192,65054,1,0,0:0:0:0:
192,192,65139,1,0,0:0:0:0:
448,192,65139,1,0,0:0:0:0:
192,192,65223,1,0,0:0:0:0:
320,192,65308,1,0,0:0:0:0:
448,192,65308,1,0,0:0:0:0:
448,192,65393,1,0,0:0:0:0:
64,192,65478,1,0,0:0:0:0:
320,192,65478,1,0,0:0:0:0:
64,192,65562,1,0,0:0:0:0:
192,192,65647,1,0,0:0:0:0:
448,192,65647,1,0,0:0:0:0:
192,192,65732,1,0,0:0:0:0:
64,192,65817,1,0,0:0:0:0:
448,192,65817,1,0,0:0:0:0:
64,192,65901,1,0,0:0:0:0:
192,192,65986,1,0,0:0:0:0:
320,192,65986,1,0,0:0:0:0:
320,192,66071,1,0,0:0:0:0:
64,192,66156,1,0,0:0:0:0:
448,192,66156,1,0,0:0:0:0:
192,192,66156,1,0,0:0:0:0:
448,192,66240,1,0,0:0:0:0:
64,192,66325,1,0,0:0:0:0:
320,192,66325,1,0,0:0:0:0:
320,192,66410,1,0,0:0:0:0:
192,192,66495,1,0,0:0:0:0:
448,192,66495,1,0,0:0:0:0:
192,192,66579,1,0,0:0:0:0:
64,192,66664,1,0,0:0:0:0:
320,192,66664,1,0,0:0:0:0:
64,192,66749,1,0,0:0:0:0:
192,192,66834,1,0,0:0:0:0:
448,192,66834,1,0,0:0:0:0:
192,192,66918,1,0,0:0:0:0:
320,192,67003,1,0,0:0:0:0:
448,192,67003,1,0,0:0:0:0:
320,192,67088,1,0,0:0:0:0:
448,192,67173,1,0,0:0:0:0:
192,192,67173,1,0,0:0:0:0:
448,192,67257,1,0,0:0:0:0:
320,192,67342,1,0,0:0:0:0:
192,192,67342,1,0,0:0:0:0:
192,192,67427,1,0,0:0:0:0:
64,192,67512,1,0,0:0:0:0:
320,192,67512,128,0,68105:0:0:0:0:
448,192,67512,128,0,68190:0:0:0:0:
192,192,67596,1,0,0:0:0:0:
64,192,67681,5,0,0:0:0:0:
192,192,67766,1,0,0:0:0:0:
64,192,67851,1,0,0:0:0:0:
192,192,67935,1,0,0:0:0:0:
64,192,68020,1,0,0:0:0:0:
192,192,68105,1,0,0:0:0:0:
320,192,68190,1,0,0:0:0:0:
448,192,68274,1,0,0:0:0:0:
192,192,68274,1,0,0:0:0:0:
320,192,68359,1,0,0:0:0:0:
64,192,68359,1,0,0:0:0:0:
192,192,68444,1,0,0:0:0:0:
448,192,68444,1,0,0:0:0:0:
320,192,68529,128,0,68783:0:0:0:0:
64,192,68529,128,0,68783:0:0:0:0:
320,192,68868,5,0,0:0:0:0:
448,192,68868,1,0,0:0:0:0:
192,192,68868,1,0,0:0:0:0:
64,192,68868,1,0,0:0:0:0:
448,192,68952,1,0,0:0:0:0:
320,192,69037,1,0,0:0:0:0:
192,192,69037,1,0,0:0:0:0:
64,192,69122,1,0,0:0:0:0:
448,192,69207,1,0,0:0:0:0:
320,192,69207,1,0,0:0:0:0:
64,192,69207,1,0,0:0:0:0:
192,192,69207,1,0,0:0:0:0:
192,192,69291,1,0,0:0:0:0:
320,192,69376,1,0,0:0:0:0:
448,192,69376,1,0,0:0:0:0:
64,192,69461,1,0,0:0:0:0:
64,192,69546,1,0,0:0:0:0:
320,192,69546,1,0,0:0:0:0:
448,192,69546,1,0,0:0:0:0:
192,192,69546,1,0,0:0:0:0:
320,192,69630,1,0,0:0:0:0:
192,192,69715,1,0,0:0:0:0:
64,192,69715,1,0,0:0:0:0:
448,192,69800,1,0,0:0:0:0:
448,192,69885,1,0,0:0:0:0:
320,192,69885,1,0,0:0:0:0:
192,192,69885,1,0,0:0:0:0:
64,192,69885,1,0,0:0:0:0:
64,192,69969,1,0,0:0:0:0:
192,192,70054,1,0,0:0:0:0:
320,192,70054,1,0,0:0:0:0:
448,192,70139,1,0,0:0:0:0:
64,192,70223,1,0,0:0:0:0:
320,192,70223,1,0,0:0:0:0:
448,192,70223,1,0,0:0:0:0:
192,192,70223,1,0,0:0:0:0:
320,192,70308,1,0,0:0:0:0:
192,192,70393,1,0,0:0:0:0:
448,192,70393,1,0,0:0:0:0:
64,192,70478,1,0,0:0:0:0:
448,192,70562,1,0,0:0:0:0:
320,192,70562,1,0,0:0:0:0:
192,192,70562,1,0,0:0:0:0:
64,192,70562,1,0,0:0:0:0:
192,192,70647,1,0,0:0:0:0:
320,192,70732,1,0,0:0:0:0:
64,192,70732,1,0,0:0:0:0:
448,192,70817,1,0,0:0:0:0:
64,192,70901,1,0,0:0:0:0:
192,192,70901,1,0,0:0:0:0:
448,192,70901,1,0,0:0:0:0:
320,192,70901,1,0,0:0:0:0:
320,192,70986,1,0,0:0:0:0:
448,192,71071,1,0,0:0:0:0:
192,192,71071,1,0,0:0:0:0:
64,192,71156,1,0,0:0:0:0:
448,192,71240,1,0,0:0:0:0:
320,192,71240,1,0,0:0:0:0:
64,192,71240,1,0,0:0:0:0:
192,192,71240,1,0,0:0:0:0:
448,192,71325,1,0,0:0:0:0:
320,192,71410,1,0,0:0:0:0:
64,192,71410,1,0,0:0:0:0:
192,192,71495,1,0,0:0:0:0:
64,192,71579,1,0,0:0:0:0:
192,192,71579,1,0,0:0:0:0:
448,192,71579,1,0,0:0:0:0:
320,192,71579,1,0,0:0:0:0:
320,192,71664,1,0,0:0:0:0:
448,192,71749,1,0,0:0:0:0:
64,192,71749,1,0,0:0:0:0:
192,192,71834,1,0,0:0:0:0:
448,192,71918,1,0,0:0:0:0:
320,192,71918,1,0,0:0:0:0:
192,192,71918,1,0,0:0:0:0:
64,192,71918,1,0,0:0:0:0:
64,192,72003,1,0,0:0:0:0:
192,192,72088,1,0,0:0:0:0:
320,192,72088,1,0,0:0:0:0:
448,192,72173,1,0,0:0:0:0:
64,192,72257,1,0,0:0:0:0:
192,192,72257,1,0,0:0:0:0:
320,192,72257,1,0,0:0:0:0:
448,192,72257,1,0,0:0:0:0:
320,192,72342,1,0,0:0:0:0:
64,192,72427,1,0,0:0:0:0:
448,192,72427,1,0,0:0:0:0:
192,192,72512,1,0,0:0:0:0:
192,192,72596,1,0,0:0:0:0:
64,192,72596,1,0,0:0:0:0:
320,192,72596,1,0,0:0:0:0:
448,192,72596,1,0,0:0:0:0:
64,192,72681,1,0,0:0:0:0:
320,192,72766,1,0,0:0:0:0:
448,192,72766,1,0,0:0:0:0:
192,192,72851,1,0,0:0:0:0:
448,192,72935,1,0,0:0:0:0:
320,192,72935,1,0,0:0:0:0:
64,192,72935,1,0,0:0:0:0:
192,192,72935,1,0,0:0:0:0:
64,192,73020,1,0,0:0:0:0:
320,192,73105,1,0,0:0:0:0:
448,192,73105,1,0,0:0:0:0:
192,192,73190,1,0,0:0:0:0:
64,192,73274,1,0,0:0:0:0:
192,192,73274,1,0,0:0:0:0:
448,192,73274,1,0,0:0:0:0:
320,192,73274,1,0,0:0:0:0:
448,192,73359,1,0,0:0:0:0:
192,192,73444,1,0,0:0:0:0:
64,192,73444,1,0,0:0:0:0:
320,192,73529,1,0,0:0:0:0:
448,192,73613,1,0,0:0:0:0:
320,192,73613,1,0,0:0:0:0:
64,192,73613,1,0,0:0:0:0:
192,192,73613,1,0,0:0:0:0:
64,192,73698,1,0,0:0:0:0:
192,192,73783,1,0,0:0:0:0:
320,192,73783,1,0,0:0:0:0:
448,192,73868,1,0,0:0:0:0:
192,192,73952,1,0,0:0:0:0:
320,192,73952,1,0,0:0:0:0:
448,192,73952,1,0,0:0:0:0:
64,192,73952,1,0,0:0:0:0:
192,192,74037,1,0,0:0:0:0:
320,192,74122,1,0,0:0:0:0:
448,192,74122,1,0,0:0:0:0:
192,192,74122,1,0,0:0:0:0:
64,192,74122,1,0,0:0:0:0:
320,192,74207,1,0,0:0:0:0:
448,192,74291,1,0,0:0:0:0:
320,192,74291,1,0,0:0:0:0:
64,192,74291,1,0,0:0:0:0:
192,192,74291,1,0,0:0:0:0:
192,192,74461,1,0,0:0:0:0:
320,192,74461,1,0,0:0:0:0:
448,192,74546,1,0,0:0:0:0:
64,192,74630,1,0,0:0:0:0:
192,192,74630,1,0,0:0:0:0:
320,192,74630,1,0,0:0:0:0:
448,192,74630,1,0,0:0:0:0:
192,192,74715,1,0,0:0:0:0:
448,192,74800,1,0,0:0:0:0:
64,192,74800,1,0,0:0:0:0:
320,192,74885,1,0,0:0:0:0:
448,192,74969,1,0,0:0:0:0:
320,192,74969,1,0,0:0:0:0:
192,192,74969,1,0,0:0:0:0:
64,192,74969,1,0,0:0:0:0:
64,192,75054,1,0,0:0:0:0:
192,192,75139,1,0,0:0:0:0:
448,192,75139,1,0,0:0:0:0:
320,192,75223,1,0,0:0:0:0:
64,192,75308,1,0,0:0:0:0:
192,192,75308,1,0,0:0:0:0:
448,192,75308,1,0,0:0:0:0:
320,192,75308,1,0,0:0:0:0:
192,192,75393,1,0,0:0:0:0:
320,192,75478,1,0,0:0:0:0:
448,192,75478,1,0,0:0:0:0:
64,192,75562,1,0,0:0:0:0:
448,192,75647,1,0,0:0:0:0:
320,192,75647,1,0,0:0:0:0:
192,192,75647,1,0,0:0:0:0:
64,192,75647,1,0,0:0:0:0:
448,192,75732,1,0,0:0:0:0:
192,192,75817,1,0,0:0:0:0:
64,192,75817,1,0,0:0:0:0:
320,192,75901,1,0,0:0:0:0:
64,192,75986,1,0,0:0:0:0:
192,192,75986,1,0,0:0:0:0:
320,192,75986,1,0,0:0:0:0:
448,192,75986,1,0,0:0:0:0:
64,192,76071,1,0,0:0:0:0:
192,192,76156,1,0,0:0:0:0:
448,192,76156,1,0,0:0:0:0:
320,192,76240,1,0,0:0:0:0:
448,192,76325,1,0,0:0:0:0:
320,192,76325,1,0,0:0:0:0:
192,192,76325,1,0,0:0:0:0:
64,192,76325,1,0,0:0:0:0:
192,192,76410,1,0,0:0:0:0:
320,192,76495,1,0,0:0:0:0:
64,192,76495,1,0,0:0:0:0:
448,192,76579,1,0,0:0:0:0:
64,192,76664,1,0,0:0:0:0:
192,192,76664,1,0,0:0:0:0:
320,192,76664,1,0,0:0:0:0:
448,192,76664,1,0,0:0:0:0:
64,192,76749,1,0,0:0:0:0:
192,192,76834,1,0,0:0:0:0:
320,192,76834,1,0,0:0:0:0:
448,192,76918,1,0,0:0:0:0:
448,192,77003,1,0,0:0:0:0:
320,192,77003,1,0,0:0:0:0:
192,192,77003,1,0,0:0:0:0:
64,192,77003,1,0,0:0:0:0:
192,192,77088,1,0,0:0:0:0:
320,192,77173,1,0,0:0:0:0:
448,192,77173,1,0,0:0:0:0:
64,192,77257,1,0,0:0:0:0:
448,192,77342,1,0,0:0:0:0:
320,192,77342,1,0,0:0:0:0:
192,192,77342,1,0,0:0:0:0:
64,192,77342,1,0,0:0:0:0:
192,192,77427,1,0,0:0:0:0:
64,192,77512,1,0,0:0:0:0:
320,192,77512,1,0,0:0:0:0:
448,192,77596,1,0,0:0:0:0:
64,192,77681,1,0,0:0:0:0:
192,192,77681,1,0,0:0:0:0:
320,192,77681,1,0,0:0:0:0:
448,192,77681,1,0,0:0:0:0:
192,192,77766,1,0,0:0:0:0:
64,192,77851,1,0,0:0:0:0:
448,192,77851,1,0,0:0:0:0:
320,192,77935,1,0,0:0:0:0:
448,192,78020,1,0,0:0:0:0:
320,192,78020,1,0,0:0:0:0:
192,192,78020,1,0,0:0:0:0:
64,192,78020,1,0,0:0:0:0:
64,192,78105,1,0,0:0:0:0:
448,192,78190,1,0,0:0:0:0:
320,192,78190,1,0,0:0:0:0:
192,192,78274,1,0,0:0:0:0:
448,192,78359,1,0,0:0:0:0:
320,192,78359,1,0,0:0:0:0:
192,192,78359,1,0,0:0:0:0:
64,192,78359,1,0,0:0:0:0:
448,192,78529,1,0,0:0:0:0:
320,192,78529,1,0,0:0:0:0:
192,192,78529,1,0,0:0:0:0:
64,192,78529,1,0,0:0:0:0:
320,192,78698,1,0,0:0:0:0:
192,192,78698,128,0,78952:0:0:0:0:
64,192,78698,128,0,78952:0:0:0:0:
448,192,78698,128,0,78952:0:0:0:0:
448,192,79037,1,0,0:0:0:0:
320,192,79037,1,0,0:0:0:0:
320,192,79122,1,0,0:0:0:0:
448,192,79122,1,0,0:0:0:0:
192,192,79207,1,0,0:0:0:0:
64,192,79207,1,0,0:0:0:0:
192,192,79291,1,0,0:0:0:0:
64,192,79291,1,0,0:0:0:0:
448,192,79376,128,0,79630:0:0:0:0:
320,192,79376,128,0,79630:0:0:0:0:
448,192,79715,1,0,0:0:0:0:
320,192,79715,1,0,0:0:0:0:
192,192,79715,1,0,0:0:0:0:
64,192,79715,1,0,0:0:0:0:
64,192,79885,128,0,80647:0:0:0:0:
320,192,79885,128,0,80647:0:0:0:0:
448,192,79885,128,0,80647:0:0:0:0:
192,192,79885,1,0,0:0:0:0:
192,192,80732,1,0,0:0:0:0:
320,192,80732,1,0,0:0:0:0:
448,192,80732,1,0,0:0:0:0:
64,192,80732,1,0,0:0:0:0:
192,192,80901,128,0,82342:0:0:0:0:
64,192,80901,128,0,82342:0:0:0:0:
448,192,80901,1,0,0:0:0:0:
320,192,80901,1,0,0:0:0:0:
448,192,81071,1,0,0:0:0:0:
448,192,81240,1,0,0:0:0:0:
320,192,81410,1,0,0:0:0:0:
448,192,81579,1,0,0:0:0:0:
448,192,81749,1,0,0:0:0:0:
320,192,81918,1,0,0:0:0:0:
320,192,82088,128,0,82342:0:0:0:0:
448,192,82088,1,0,0:0:0:0:
448,192,82257,1,0,0:0:0:0:
448,192,82427,1,0,0:0:0:0:
320,192,82427,1,0,0:0:0:0:
192,192,82427,1,0,0:0:0:0:
64,192,82427,1,0,0:0:0:0:
64,192,82596,128,0,82851:0:0:0:0:
448,192,82596,128,0,82851:0:0:0:0:
192,192,82596,128,0,82851:0:0:0:0:
320,192,82596,1,0,0:0:0:0:
64,192,82935,1,0,0:0:0:0:
320,192,82935,1,0,0:0:0:0:
448,192,82935,1,0,0:0:0:0:
64,192,83105,128,0,83359:0:0:0:0:
192,192,83105,128,0,83359:0:0:0:0:
448,192,83105,128,0,83359:0:0:0:0:
320,192,83105,1,0,0:0:0:0:
320,192,83444,1,0,0:0:0:0:
448,192,83444,1,0,0:0:0:0:
192,192,83444,1,0,0:0:0:0:
64,192,83613,1,0,0:0:0:0:
192,192,83613,1,0,0:0:0:0:
320,192,83613,1,0,0:0:0:0:
448,192,83783,1,0,0:0:0:0:
192,192,83783,128,0,84291:0:0:0:0:
64,192,83783,128,0,84461:0:0:0:0:
320,192,83868,1,0,0:0:0:0:
448,192,83952,1,0,0:0:0:0:
320,192,84037,1,0,0:0:0:0:
448,192,84122,1,0,0:0:0:0:
320,192,84207,1,0,0:0:0:0:
448,192,84291,1,0,0:0:0:0:
320,192,84376,1,0,0:0:0:0:
192,192,84461,1,0,0:0:0:0:
192,192,84546,1,0,0:0:0:0:
448,192,84630,1,0,0:0:0:0:
64,192,84630,1,0,0:0:0:0:
64,192,84715,1,0,0:0:0:0:
320,192,84800,128,0,85054:0:0:0:0:
448,192,84800,128,0,85054:0:0:0:0:
192,192,84800,1,0,0:0:0:0:
448,192,85139,1,0,0:0:0:0:
320,192,85139,1,0,0:0:0:0:
192,192,85139,1,0,0:0:0:0:
64,192,85139,1,0,0:0:0:0:
64,192,85308,128,0,86071:0:0:0:0:
192,192,85308,128,0,86071:0:0:0:0:
448,192,85308,128,0,86071:0:0:0:0:
320,192,85308,1,0,0:0:0:0:
64,192,86156,1,0,0:0:0:0:
192,192,86156,1,0,0:0:0:0:
320,192,86156,1,0,0:0:0:0:
448,192,86156,1,0,0:0:0:0:
192,192,86325,128,0,87427:0:0:0:0:
448,192,86325,128,0,87766:0:0:0:0:
64,192,86325,1,0,0:0:0:0:
320,192,86325,1,0,0:0:0:0:
320,192,86495,1,0,0:0:0:0:
64,192,86495,1,0,0:0:0:0:
64,192,86664,1,0,0:0:0:0:
64,192,86749,1,0,0:0:0:0:
320,192,86834,1,0,0:0:0:0:
64,192,87003,1,0,0:0:0:0:
320,192,87088,1,0,0:0:0:0:
64,192,87173,1,0,0:0:0:0:
320,192,87257,1,0,0:0:0:0:
64,192,87342,1,0,0:0:0:0:
320,192,87427,1,0,0:0:0:0:
64,192,87512,128,0,87766:0:0:0:0:
192,192,87512,1,0,0:0:0:0:
320,192,87596,1,0,0:0:0:0:
192,192,87681,1,0,0:0:0:0:
320,192,87766,1,0,0:0:0:0:
448,192,87851,1,0,0:0:0:0:
320,192,87851,1,0,0:0:0:0:
192,192,87851,1,0,0:0:0:0:
64,192,87851,1,0,0:0:0:0:
448,192,88020,1,0,0:0:0:0:
320,192,88020,128,0,88274:0:0:0:0:
192,192,88020,128,0,88274:0:0:0:0:
64,192,88020,128,0,88274:0:0:0:0:
192,192,88359,1,0,0:0:0:0:
320,192,88359,1,0,0:0:0:0:
448,192,88359,1,0,0:0:0:0:
64,192,88529,128,0,88783:0:0:0:0:
192,192,88529,128,0,88783:0:0:0:0:
448,192,88529,128,0,88783:0:0:0:0:
320,192,88529,1,0,0:0:0:0:
448,192,88868,1,0,0:0:0:0:
320,192,88868,1,0,0:0:0:0:
192,192,88868,1,0,0:0:0:0:
64,192,89037,1,0,0:0:0:0:
192,192,89037,1,0,0:0:0:0:
448,192,89037,1,0,0:0:0:0:
64,192,89207,1,0,0:0:0:0:
192,192,89207,1,0,0:0:0:0:
320,192,89207,1,0,0:0:0:0:
448,192,89207,1,0,0:0:0:0:
448,192,89376,1,0,0:0:0:0:
320,192,89376,1,0,0:0:0:0:
192,192,89376,1,0,0:0:0:0:
64,192,89546,1,0,0:0:0:0:
192,192,89546,1,0,0:0:0:0:
320,192,89546,1,0,0:0:0:0:
448,192,89715,1,0,0:0:0:0:
320,192,89715,1,0,0:0:0:0:
192,192,89715,1,0,0:0:0:0:
64,192,89885,1,0,0:0:0:0:
192,192,89885,1,0,0:0:0:0:
320,192,89885,1,0,0:0:0:0:
320,192,89969,1,0,0:0:0:0:
192,192,89969,1,0,0:0:0:0:
64,192,89969,1,0,0:0:0:0:
320,192,90054,1,0,0:0:0:0:
192,192,90054,1,0,0:0:0:0:
64,192,90054,1,0,0:0:0:0:
320,192,90139,1,0,0:0:0:0:
192,192,90139,1,0,0:0:0:0:
64,192,90139,1,0,0:0:0:0:
64,192,90223,128,0,90478:0:0:0:0:
192,192,90223,128,0,90478:0:0:0:0:
320,192,90223,128,0,90478:0:0:0:0:
448,192,90562,1,0,0:0:0:0:
320,192,90562,1,0,0:0:0:0:
192,192,90562,1,0,0:0:0:0:
64,192,90562,1,0,0:0:0:0:
448,192,90647,1,0,0:0:0:0:
320,192,90732,1,0,0:0:0:0:
192,192,90732,1,0,0:0:0:0:
192,192,90817,1,0,0:0:0:0:
64,192,90901,1,0,0:0:0:0:
320,192,90901,1,0,0:0:0:0:
64,192,90986,1,0,0:0:0:0:
192,192,91071,1,0,0:0:0:0:
448,192,91071,1,0,0:0:0:0:
192,192,91156,1,0,0:0:0:0:
320,192,91240,1,0,0:0:0:0:
64,192,91240,1,0,0:0:0:0:
320,192,91325,1,0,0:0:0:0:
448,192,91410,1,0,0:0:0:0:
64,192,91410,1,0,0:0:0:0:
448,192,91495,1,0,0:0:0:0:
192,192,91579,1,0,0:0:0:0:
320,192,91579,1,0,0:0:0:0:
320,192,91664,1,0,0:0:0:0:
192,192,91749,1,0,0:0:0:0:
448,192,91749,1,0,0:0:0:0:
448,192,91834,1,0,0:0:0:0:
320,192,91918,1,0,0:0:0:0:
192,192,91918,1,0,0:0:0:0:
64,192,91918,1,0,0:0:0:0:
448,192,91918,1,0,0:0:0:0:
64,192,92003,1,0,0:0:0:0:
192,192,92088,1,0,0:0:0:0:
448,192,92088,1,0,0:0:0:0:
192,192,92173,1,0,0:0:0:0:
320,192,92257,1,0,0:0:0:0:
448,192,92257,1,0,0:0:0:0:
448,192,92342,1,0,0:0:0:0:
64,192,92427,1,0,0:0:0:0:
192,192,92427,1,0,0:0:0:0:
192,192,92512,1,0,0:0:0:0:
320,192,92596,1,0,0:0:0:0:
64,192,92596,1,0,0:0:0:0:
320,192,92681,1,0,0:0:0:0:
192,192,92766,1,0,0:0:0:0:
448,192,92766,1,0,0:0:0:0:
448,192,92851,1,0,0:0:0:0:
64,192,92935,1,0,0:0:0:0:
320,192,92935,1,0,0:0:0:0:
64,192,93020,1,0,0:0:0:0:
64,192,93105,1,0,0:0:0:0:
64,192,93190,1,0,0:0:0:0:
64,192,93274,1,0,0:0:0:0:
192,192,93274,1,0,0:0:0:0:
320,192,93274,1,0,0:0:0:0:
448,192,93274,1,0,0:0:0:0:
320,192,93359,1,0,0:0:0:0:
192,192,93444,1,0,0:0:0:0:
448,192,93444,1,0,0:0:0:0:
448,192,93529,1,0,0:0:0:0:
320,192,93613,1,0,0:0:0:0:
64,192,93613,1,0,0:0:0:0:
320,192,93698,1,0,0:0:0:0:
192,192,93783,1,0,0:0:0:0:
448,192,93783,1,0,0:0:0:0:
192,192,93868,1,0,0:0:0:0:
64,192,93952,1,0,0:0:0:0:
320,192,93952,1,0,0:0:0:0:
64,192,94037,1,0,0:0:0:0:
192,192,94122,1,0,0:0:0:0:
320,192,94122,1,0,0:0:0:0:
192,192,94207,1,0,0:0:0:0:
320,192,94291,1,0,0:0:0:0:
448,192,94291,1,0,0:0:0:0:
320,192,94376,1,0,0:0:0:0:
64,192,94461,1,0,0:0:0:0:
192,192,94461,1,0,0:0:0:0:
64,192,94546,1,0,0:0:0:0:
320,192,94630,1,0,0:0:0:0:
192,192,94630,1,0,0:0:0:0:
64,192,94630,1,0,0:0:0:0:
448,192,94630,1,0,0:0:0:0:
192,192,94715,1,0,0:0:0:0:
320,192,94800,1,0,0:0:0:0:
448,192,94800,1,0,0:0:0:0:
448,192,94885,1,0,0:0:0:0:
320,192,94969,1,0,0:0:0:0:
64,192,94969,1,0,0:0:0:0:
320,192,95054,1,0,0:0:0:0:
192,192,95139,1,0,0:0:0:0:
448,192,95139,1,0,0:0:0:0:
448,192,95223,1,0,0:0:0:0:
64,192,95308,1,0,0:0:0:0:
192,192,95308,1,0,0:0:0:0:
64,192,95393,1,0,0:0:0:0:
192,192,95478,1,0,0:0:0:0:
448,192,95478,1,0,0:0:0:0:
192,192,95562,1,0,0:0:0:0:
448,192,95647,1,0,0:0:0:0:
320,192,95647,1,0,0:0:0:0:
320,192,95732,1,0,0:0:0:0:
320,192,95817,1,0,0:0:0:0:
320,192,95901,1,0,0:0:0:0:
320,192,95986,1,0,0:0:0:0:
448,192,95986,1,0,0:0:0:0:
192,192,95986,1,0,0:0:0:0:
64,192,95986,1,0,0:0:0:0:
64,192,96071,1,0,0:0:0:0:
448,192,96156,1,0,0:0:0:0:
192,192,96156,1,0,0:0:0:0:
448,192,96240,1,0,0:0:0:0:
320,192,96325,1,0,0:0:0:0:
64,192,96325,1,0,0:0:0:0:
192,192,96325,1,0,0:0:0:0:
320,192,96410,1,0,0:0:0:0:
192,192,96495,1,0,0:0:0:0:
64,192,96495,1,0,0:0:0:0:
64,192,96579,1,0,0:0:0:0:
192,192,96664,1,0,0:0:0:0:
320,192,96664,1,0,0:0:0:0:
448,192,96664,1,0,0:0:0:0:
192,192,96749,1,0,0:0:0:0:
448,192,96834,1,0,0:0:0:0:
320,192,96834,1,0,0:0:0:0:
320,192,96918,1,0,0:0:0:0:
64,192,97003,1,0,0:0:0:0:
192,192,97003,1,0,0:0:0:0:
448,192,97003,1,0,0:0:0:0:
448,192,97088,1,0,0:0:0:0:
320,192,97173,1,0,0:0:0:0:
192,192,97173,1,0,0:0:0:0:
192,192,97257,1,0,0:0:0:0:
64,192,97342,1,0,0:0:0:0:
192,192,97342,1,0,0:0:0:0:
320,192,97342,1,0,0:0:0:0:
448,192,97342,1,0,0:0:0:0:
64,192,97427,1,0,0:0:0:0:
448,192,97512,1,0,0:0:0:0:
320,192,97512,1,0,0:0:0:0:
448,192,97596,1,0,0:0:0:0:
320,192,97681,1,0,0:0:0:0:
192,192,97681,1,0,0:0:0:0:
64,192,97681,1,0,0:0:0:0:
192,192,97766,1,0,0:0:0:0:
320,192,97851,1,0,0:0:0:0:
64,192,97851,1,0,0:0:0:0:
320,192,97935,1,0,0:0:0:0:
192,192,98020,1,0,0:0:0:0:
448,192,98020,1,0,0:0:0:0:
64,192,98020,1,0,0:0:0:0:
448,192,98105,1,0,0:0:0:0:
320,192,98190,1,0,0:0:0:0:
192,192,98190,1,0,0:0:0:0:
192,192,98274,1,0,0:0:0:0:
320,192,98359,1,0,0:0:0:0:
448,192,98359,1,0,0:0:0:0:
64,192,98359,1,0,0:0:0:0:
320,192,98444,1,0,0:0:0:0:
448,192,98529,1,0,0:0:0:0:
192,192,98529,1,0,0:0:0:0:
448,192,98613,1,0,0:0:0:0:
320,192,98698,1,0,0:0:0:0:
192,192,98698,1,0,0:0:0:0:
64,192,98698,1,0,0:0:0:0:
448,192,98698,1,0,0:0:0:0:
192,192,98783,1,0,0:0:0:0:
64,192,98783,1,0,0:0:0:0:
320,192,98868,1,0,0:0:0:0:
448,192,98868,1,0,0:0:0:0:
192,192,98868,1,0,0:0:0:0:
320,192,98952,1,0,0:0:0:0:
448,192,98952,1,0,0:0:0:0:
320,192,99037,1,0,0:0:0:0:
192,192,99037,1,0,0:0:0:0:
64,192,99037,1,0,0:0:0:0:
192,192,99122,1,0,0:0:0:0:
64,192,99122,1,0,0:0:0:0:
192,192,99207,1,0,0:0:0:0:
320,192,99207,1,0,0:0:0:0:
448,192,99207,1,0,0:0:0:0:
320,192,99291,1,0,0:0:0:0:
448,192,99291,1,0,0:0:0:0:
320,192,99376,1,0,0:0:0:0:
192,192,99376,1,0,0:0:0:0:
64,192,99376,1,0,0:0:0:0:
192,192,99461,1,0,0:0:0:0:
64,192,99461,1,0,0:0:0:0:
320,192,99630,1,0,0:0:0:0:
448,192,99630,1,0,0:0:0:0:
192,192,99630,1,0,0:0:0:0:
64,192,99715,1,0,0:0:0:0:
192,192,99715,1,0,0:0:0:0:
320,192,99715,1,0,0:0:0:0:
64,192,99885,1,0,0:0:0:0:
192,192,99885,1,0,0:0:0:0:
320,192,99885,1,0,0:0:0:0:
192,192,99969,1,0,0:0:0:0:
320,192,99969,1,0,0:0:0:0:
448,192,99969,1,0,0:0:0:0:
320,192,100054,1,0,0:0:0:0:
192,192,100054,128,0,100901:0:0:0:0:
64,192,100054,128,0,100817:0:0:0:0:
448,192,100054,128,0,101071:0:0:0:0:
320,192,100223,128,0,100308:0:0:0:0:
320,192,100562,128,0,100647:0:0:0:0:
320,192,100901,128,0,100986:0:0:0:0:
320,192,101071,128,0,101325:0:0:0:0:
192,192,101071,128,0,101325:0:0:0:0:
64,192,101071,128,0,101325:0:0:0:0:
448,192,101410,1,0,0:0:0:0:
320,192,101410,1,0,0:0:0:0:
192,192,101410,1,0,0:0:0:0:
64,192,101410,1,0,0:0:0:0:
448,192,101579,1,0,0:0:0:0:
448,192,101664,1,0,0:0:0:0:
448,192,101749,1,0,0:0:0:0:
320,192,101749,1,0,0:0:0:0:
192,192,101749,1,0,0:0:0:0:
64,192,101749,1,0,0:0:0:0:
64,192,101918,1,0,0:0:0:0:
64,192,102003,1,0,0:0:0:0:
64,192,102088,1,0,0:0:0:0:
192,192,102088,1,0,0:0:0:0:
320,192,102088,1,0,0:0:0:0:
448,192,102088,1,0,0:0:0:0:
448,192,102257,1,0,0:0:0:0:
448,192,102342,1,0,0:0:0:0:
448,192,102427,1,0,0:0:0:0:
320,192,102427,1,0,0:0:0:0:
64,192,102427,1,0,0:0:0:0:
192,192,102427,1,0,0:0:0:0:
192,192,102596,1,0,0:0:0:0:
192,192,102681,1,0,0:0:0:0:
64,192,102766,1,0,0:0:0:0:
320,192,102766,1,0,0:0:0:0:
448,192,102766,1,0,0:0:0:0:
192,192,102766,1,0,0:0:0:0:
320,192,102935,1,0,0:0:0:0:
320,192,103020,1,0,0:0:0:0:
64,192,103105,1,0,0:0:0:0:
192,192,103105,1,0,0:0:0:0:
320,192,103105,1,0,0:0:0:0:
448,192,103105,1,0,0:0:0:0:
64,192,103274,1,0,0:0:0:0:
64,192,103359,1,0,0:0:0:0:
448,192,103444,1,0,0:0:0:0:
320,192,103444,1,0,0:0:0:0:
192,192,103444,1,0,0:0:0:0:
64,192,103444,1,0,0:0:0:0:
192,192,103613,1,0,0:0:0:0:
192,192,103698,1,0,0:0:0:0:
64,192,103783,1,0,0:0:0:0:
192,192,103783,1,0,0:0:0:0:
448,192,103783,1,0,0:0:0:0:
320,192,103783,1,0,0:0:0:0:
320,192,103952,1,0,0:0:0:0:
320,192,104037,1,0,0:0:0:0:
448,192,104122,1,0,0:0:0:0:
320,192,104122,1,0,0:0:0:0:
64,192,104122,1,0,0:0:0:0:
192,192,104122,1,0,0:0:0:0:
448,192,104291,1,0,0:0:0:0:
448,192,104376,1,0,0:0:0:0:
448,192,104461,1,0,0:0:0:0:
320,192,104461,1,0,0:0:0:0:
64,192,104461,1,0,0:0:0:0:
192,192,104461,1,0,0:0:0:0:
64,192,104630,1,0,0:0:0:0:
64,192,104715,1,0,0:0:0:0:
64,192,104800,1,0,0:0:0:0:
192,192,104800,1,0,0:0:0:0:
448,192,104800,1,0,0:0:0:0:
320,192,104800,1,0,0:0:0:0:
320,192,104969,1,0,0:0:0:0:
320,192,105054,1,0,0:0:0:0:
448,192,105139,1,0,0:0:0:0:
320,192,105139,1,0,0:0:0:0:
192,192,105139,1,0,0:0:0:0:
64,192,105139,1,0,0:0:0:0:
448,192,105308,1,0,0:0:0:0:
320,192,105308,1,0,0:0:0:0:
64,192,105308,1,0,0:0:0:0:
192,192,105308,1,0,0:0:0:0:
192,192,105478,1,0,0:0:0:0:
64,192,105478,1,0,0:0:0:0:
320,192,105478,1,0,0:0:0:0:
448,192,105478,1,0,0:0:0:0:
320,192,105647,1,0,0:0:0:0:
192,192,105647,128,0,105901:0:0:0:0:
64,192,105647,128,0,105901:0:0:0:0:
448,192,105647,128,0,105901:0:0:0:0:
320,192,105986,128,0,106240:0:0:0:0:
448,192,105986,128,0,106240:0:0:0:0:
64,192,105986,128,0,106240:0:0:0:0:
192,192,105986,1,0,0:0:0:0:
448,192,106325,1,0,0:0:0:0:
192,192,106325,128,0,106410:0:0:0:0:
64,192,106325,128,0,106410:0:0:0:0:
320,192,106325,128,0,106452:0:0:0:0:
64,192,106495,1,0,0:0:0:0:
192,192,106523,1,0,0:0:0:0:
320,192,106551,1,0,0:0:0:0:
448,192,106579,1,0,0:0:0:0:
64,192,106608,1,0,0:0:0:0:
192,192,106636,1,0,0:0:0:0:
320,192,106664,1,0,0:0:0:0:
448,192,106692,1,0,0:0:0:0:
64,192,106721,1,0,0:0:0:0:
192,192,106749,1,0,0:0:0:0:
320,192,106777,1,0,0:0:0:0:
448,192,106805,1,0,0:0:0:0:
192,192,106834,1,0,0:0:0:0:
64,192,106834,1,0,0:0:0:0:
320,192,107003,1,0,0:0:0:0:
320,192,107088,1,0,0:0:0:0:
448,192,107173,1,0,0:0:0:0:
320,192,107173,1,0,0:0:0:0:
64,192,107173,1,0,0:0:0:0:
192,192,107173,1,0,0:0:0:0:
64,192,107342,1,0,0:0:0:0:
64,192,107427,1,0,0:0:0:0:
64,192,107512,1,0,0:0:0:0:
192,192,107512,1,0,0:0:0:0:
448,192,107512,1,0,0:0:0:0:
320,192,107512,1,0,0:0:0:0:
448,192,107681,1,0,0:0:0:0:
448,192,107766,1,0,0:0:0:0:
448,192,107851,1,0,0:0:0:0:
320,192,107851,1,0,0:0:0:0:
64,192,107851,1,0,0:0:0:0:
192,192,107851,1,0,0:0:0:0:
192,192,108020,1,0,0:0:0:0:
192,192,108105,1,0,0:0:0:0:
64,192,108190,1,0,0:0:0:0:
192,192,108190,1,0,0:0:0:0:
448,192,108190,1,0,0:0:0:0:
320,192,108190,1,0,0:0:0:0:
448,192,108359,1,0,0:0:0:0:
448,192,108444,1,0,0:0:0:0:
64,192,108529,1,0,0:0:0:0:
192,192,108529,1,0,0:0:0:0:
320,192,108529,1,0,0:0:0:0:
448,192,108529,1,0,0:0:0:0:
320,192,108698,1,0,0:0:0:0:
320,192,108783,1,0,0:0:0:0:
448,192,108868,1,0,0:0:0:0:
320,192,108868,1,0,0:0:0:0:
64,192,108868,1,0,0:0:0:0:
192,192,108868,1,0,0:0:0:0:
192,192,109037,1,0,0:0:0:0:
192,192,109122,1,0,0:0:0:0:
64,192,109207,1,0,0:0:0:0:
192,192,109207,1,0,0:0:0:0:
320,192,109207,1,0,0:0:0:0:
448,192,109207,1,0,0:0:0:0:
64,192,109376,1,0,0:0:0:0:
64,192,109461,1,0,0:0:0:0:
448,192,109546,1,0,0:0:0:0:
320,192,109546,1,0,0:0:0:0:
192,192,109546,1,0,0:0:0:0:
64,192,109546,1,0,0:0:0:0:
192,192,109715,1,0,0:0:0:0:
64,192,109715,1,0,0:0:0:0:
448,192,109715,1,0,0:0:0:0:
448,192,109885,1,0,0:0:0:0:
320,192,109885,1,0,0:0:0:0:
64,192,109885,1,0,0:0:0:0:
192,192,109885,1,0,0:0:0:0:
192,192,110054,1,0,0:0:0:0:
320,192,110054,1,0,0:0:0:0:
448,192,110054,1,0,0:0:0:0:
192,192,110223,1,0,0:0:0:0:
64,192,110223,1,0,0:0:0:0:
320,192,110223,1,0,0:0:0:0:
448,192,110223,1,0,0:0:0:0:
192,192,110308,1,0,0:0:0:0:
64,192,110308,1,0,0:0:0:0:
192,192,110393,1,0,0:0:0:0:
64,192,110393,1,0,0:0:0:0:
192,192,110478,1,0,0:0:0:0:
64,192,110478,1,0,0:0:0:0:
192,192,110562,1,0,0:0:0:0:
64,192,110562,1,0,0:0:0:0:
320,192,110562,1,0,0:0:0:0:
448,192,110562,1,0,0:0:0:0:
320,192,110647,1,0,0:0:0:0:
448,192,110647,1,0,0:0:0:0:
320,192,110732,1,0,0:0:0:0:
448,192,110732,1,0,0:0:0:0:
320,192,110817,1,0,0:0:0:0:
448,192,110817,1,0,0:0:0:0:
320,192,110901,1,0,0:0:0:0:
448,192,110901,1,0,0:0:0:0:
192,192,110901,1,0,0:0:0:0:
64,192,110901,1,0,0:0:0:0:
192,192,111071,128,0,111325:0:0:0:0:
64,192,111071,128,0,111325:0:0:0:0:
448,192,111071,128,0,111325:0:0:0:0:
320,192,111071,1,0,0:0:0:0:
192,192,111410,128,0,111664:0:0:0:0:
320,192,111410,128,0,111664:0:0:0:0:
448,192,111410,128,0,111664:0:0:0:0:
64,192,111410,1,0,0:0:0:0:
64,192,111749,128,0,111876:0:0:0:0:
320,192,111749,128,0,111834:0:0:0:0:
448,192,111749,128,0,111834:0:0:0:0:
448,192,111918,1,0,0:0:0:0:
320,192,111947,1,0,0:0:0:0:
192,192,111975,1,0,0:0:0:0:
64,192,112003,1,0,0:0:0:0:
448,192,112031,1,0,0:0:0:0:
320,192,112060,1,0,0:0:0:0:
192,192,112088,1,0,0:0:0:0:
64,192,112116,1,0,0:0:0:0:
448,192,112144,1,0,0:0:0:0:
320,192,112173,1,0,0:0:0:0:
192,192,112201,1,0,0:0:0:0:
64,192,112229,1,0,0:0:0:0:
448,192,112257,128,0,112512:0:0:0:0:
320,192,112257,128,0,112427:0:0:0:0:
192,192,112342,128,0,112596:0:0:0:0:
64,192,112427,128,0,112512:0:0:0:0:
320,192,112512,128,0,112681:0:0:0:0:
64,192,112596,128,0,112851:0:0:0:0:
448,192,112596,128,0,112766:0:0:0:0:
192,192,112681,128,0,112935:0:0:0:0:
320,192,112766,128,0,113020:0:0:0:0:
448,192,112851,128,0,113105:0:0:0:0:
64,192,112935,128,0,113190:0:0:0:0:
192,192,113020,128,0,113274:0:0:0:0:
320,192,113105,128,0,113359:0:0:0:0:
448,192,113190,128,0,113444:0:0:0:0:
64,192,113274,128,0,113359:0:0:0:0:
64,192,113444,128,0,114122:0:0:0:0:
