osu file format v14

[General]
AudioFilename: audio.mp3
AudioLeadIn: 0
PreviewTime: 6379
Countdown: 0
SampleSet: Soft
StackLeniency: 0.7
Mode: 3
LetterboxInBreaks: 0
SpecialStyle: 1
WidescreenStoryboard: 0

[Editor]
DistanceSpacing: 0.8
BeatDivisor: 4
GridSize: 16
TimelineZoom: 2.799999

[Metadata]
Title:Pen-Pineapple-Apple-Pen
TitleUnicode:ペンパイナッポーアッポーペン
Artist:PIKO-TARO
ArtistUnicode:ピコ太郎
Creator:ajeemaniz
Version:8K // Hard Pen
Source:
Tags:PPAP @pikotaro_ppap
BeatmapID:1090597
BeatmapSetID:513244

[Difficulty]
HPDrainRate:8.8
CircleSize:8
OverallDifficulty:8.8
ApproachRate:5
SliderMultiplier:1.4
SliderTickRate:1

[Events]
//Background and Video events
Video,0,"video.mp4"
0,0,"maxresdefault.jpg",0,0
//Break Periods
//Storyboard Layer 0 (Background)
//Storyboard Layer 1 (Fail)
//Storyboard Layer 2 (Pass)
//Storyboard Layer 3 (Foreground)
//Storyboard Sound Samples

[TimingPoints]
10129,441.176470588235,4,2,0,100,1,0

[HitObjects]
416,192,6599,5,0,0:0:0:0:
288,192,6820,1,0,0:0:0:0:
224,192,7040,1,0,0:0:0:0:
96,192,7261,1,0,0:0:0:0:
480,192,7481,1,0,0:0:0:0:
352,192,7702,1,0,0:0:0:0:
224,192,7923,1,0,0:0:0:0:
96,192,8143,1,0,0:0:0:0:
32,192,8364,128,0,9136:0:0:0:0:
32,192,9246,1,0,0:0:0:0:
32,192,9467,1,0,0:0:0:0:
32,192,9687,1,0,0:0:0:0:
32,192,9908,1,0,0:0:0:0:
96,192,10129,1,0,0:0:0:0:
352,192,10349,1,0,0:0:0:0:
224,192,10349,1,0,0:0:0:0:
416,192,10570,1,0,0:0:0:0:
480,192,10570,1,0,0:0:0:0:
352,192,10790,1,0,0:0:0:0:
224,192,10790,1,0,0:0:0:0:
96,192,11011,1,0,0:0:0:0:
352,192,11231,1,0,0:0:0:0:
224,192,11231,1,0,0:0:0:0:
416,192,11452,1,0,0:0:0:0:
480,192,11452,1,0,0:0:0:0:
352,192,11673,1,0,0:0:0:0:
224,192,11673,1,0,0:0:0:0:
96,192,11893,1,0,0:0:0:0:
224,192,12114,1,0,0:0:0:0:
352,192,12114,1,0,0:0:0:0:
480,192,12334,1,0,0:0:0:0:
416,192,12334,1,0,0:0:0:0:
224,192,12555,1,0,0:0:0:0:
352,192,12555,1,0,0:0:0:0:
288,192,12996,1,0,0:0:0:0:
160,192,12996,1,0,0:0:0:0:
352,192,13217,1,0,0:0:0:0:
416,192,13217,1,0,0:0:0:0:
288,192,13437,1,0,0:0:0:0:
160,192,13437,1,0,0:0:0:0:
96,192,13658,1,0,0:0:0:0:
224,192,13879,1,0,0:0:0:0:
352,192,13879,1,0,0:0:0:0:
416,192,14099,1,0,0:0:0:0:
288,192,14099,1,0,0:0:0:0:
224,192,14320,1,0,0:0:0:0:
352,192,14320,1,0,0:0:0:0:
96,192,14540,1,0,0:0:0:0:
416,192,14761,1,0,0:0:0:0:
288,192,14761,1,0,0:0:0:0:
352,192,14981,1,0,0:0:0:0:
480,192,14981,1,0,0:0:0:0:
160,192,15202,1,0,0:0:0:0:
288,192,15202,1,0,0:0:0:0:
96,192,15423,1,0,0:0:0:0:
352,192,15643,1,0,0:0:0:0:
224,192,15643,1,0,0:0:0:0:
288,192,15864,1,0,0:0:0:0:
416,192,15864,1,0,0:0:0:0:
352,192,16084,128,0,16526:0:0:0:0:
480,192,16084,128,0,16526:0:0:0:0:
96,192,17187,1,0,0:0:0:0:
160,192,17408,1,0,0:0:0:0:
480,192,17408,1,0,0:0:0:0:
224,192,17628,1,0,0:0:0:0:
352,192,17628,1,0,0:0:0:0:
480,192,17849,1,0,0:0:0:0:
160,192,17849,1,0,0:0:0:0:
32,192,18070,128,0,18511:0:0:0:0:
96,192,18070,1,0,0:0:0:0:
224,192,18511,1,0,0:0:0:0:
352,192,18511,1,0,0:0:0:0:
480,192,18731,1,0,0:0:0:0:
160,192,18731,1,0,0:0:0:0:
96,192,18952,1,0,0:0:0:0:
160,192,19173,1,0,0:0:0:0:
480,192,19173,1,0,0:0:0:0:
224,192,19393,1,0,0:0:0:0:
352,192,19393,1,0,0:0:0:0:
160,192,19614,1,0,0:0:0:0:
480,192,19614,1,0,0:0:0:0:
32,192,19834,1,0,0:0:0:0:
32,192,20055,128,0,20496:0:0:0:0:
480,192,20055,1,0,0:0:0:0:
416,192,20276,1,0,0:0:0:0:
224,192,20276,1,0,0:0:0:0:
480,192,20496,1,0,0:0:0:0:
352,192,20496,1,0,0:0:0:0:
160,192,20496,1,0,0:0:0:0:
96,192,20717,1,0,0:0:0:0:
160,192,20937,1,0,0:0:0:0:
480,192,20937,1,0,0:0:0:0:
224,192,21158,1,0,0:0:0:0:
352,192,21158,1,0,0:0:0:0:
160,192,21378,1,0,0:0:0:0:
480,192,21378,1,0,0:0:0:0:
32,192,21599,1,0,0:0:0:0:
352,192,21599,128,0,22040:0:0:0:0:
416,192,22040,1,0,0:0:0:0:
160,192,22040,1,0,0:0:0:0:
480,192,22040,1,0,0:0:0:0:
96,192,22261,1,0,0:0:0:0:
32,192,22481,1,0,0:0:0:0:
480,192,22481,1,0,0:0:0:0:
352,192,22481,1,0,0:0:0:0:
32,192,22702,1,0,0:0:0:0:
288,192,22702,1,0,0:0:0:0:
416,192,22702,1,0,0:0:0:0:
224,192,22923,1,0,0:0:0:0:
96,192,22923,1,0,0:0:0:0:
32,192,23143,128,0,23584:0:0:0:0:
288,192,23143,1,0,0:0:0:0:
416,192,23143,1,0,0:0:0:0:
288,192,23584,1,0,0:0:0:0:
416,192,23584,1,0,0:0:0:0:
352,192,23805,1,0,0:0:0:0:
480,192,23805,1,0,0:0:0:0:
416,192,24026,1,0,0:0:0:0:
288,192,24026,1,0,0:0:0:0:
96,192,24246,1,0,0:0:0:0:
224,192,24467,1,0,0:0:0:0:
480,192,24467,1,0,0:0:0:0:
96,192,24687,1,0,0:0:0:0:
352,192,24687,1,0,0:0:0:0:
480,192,24908,1,0,0:0:0:0:
160,192,24908,1,0,0:0:0:0:
32,192,25128,128,0,25570:0:0:0:0:
224,192,25128,1,0,0:0:0:0:
480,192,25349,1,0,0:0:0:0:
288,192,25349,1,0,0:0:0:0:
160,192,25570,1,0,0:0:0:0:
416,192,25570,1,0,0:0:0:0:
352,192,25790,1,0,0:0:0:0:
224,192,25790,1,0,0:0:0:0:
96,192,26011,1,0,0:0:0:0:
160,192,26231,1,0,0:0:0:0:
480,192,26231,1,0,0:0:0:0:
224,192,26452,1,0,0:0:0:0:
352,192,26452,1,0,0:0:0:0:
160,192,26673,1,0,0:0:0:0:
480,192,26673,1,0,0:0:0:0:
32,192,26673,1,0,0:0:0:0:
32,192,26893,1,0,0:0:0:0:
416,192,26893,1,0,0:0:0:0:
32,192,27114,128,0,27555:0:0:0:0:
288,192,27114,1,0,0:0:0:0:
480,192,27114,1,0,0:0:0:0:
416,192,27334,1,0,0:0:0:0:
224,192,27334,1,0,0:0:0:0:
160,192,27334,1,0,0:0:0:0:
352,192,27555,1,0,0:0:0:0:
96,192,27555,1,0,0:0:0:0:
352,192,27996,1,0,0:0:0:0:
224,192,27996,1,0,0:0:0:0:
480,192,28217,1,0,0:0:0:0:
96,192,28217,1,0,0:0:0:0:
288,192,28437,1,0,0:0:0:0:
160,192,28437,1,0,0:0:0:0:
480,192,28658,128,0,29099:0:0:0:0:
32,192,28658,1,0,0:0:0:0:
352,192,28878,1,0,0:0:0:0:
224,192,28878,1,0,0:0:0:0:
96,192,29099,1,0,0:0:0:0:
160,192,29320,1,0,0:0:0:0:
288,192,29320,1,0,0:0:0:0:
32,192,29540,1,0,0:0:0:0:
480,192,29540,1,0,0:0:0:0:
352,192,29540,1,0,0:0:0:0:
32,192,29761,1,0,0:0:0:0:
352,192,29761,1,0,0:0:0:0:
480,192,29761,1,0,0:0:0:0:
224,192,29981,1,0,0:0:0:0:
416,192,29981,1,0,0:0:0:0:
96,192,29981,1,0,0:0:0:0:
32,192,30202,128,0,30643:0:0:0:0:
352,192,30202,1,0,0:0:0:0:
480,192,30202,1,0,0:0:0:0:
288,192,30643,1,0,0:0:0:0:
416,192,30643,1,0,0:0:0:0:
352,192,30864,1,0,0:0:0:0:
480,192,30864,1,0,0:0:0:0:
416,192,31084,1,0,0:0:0:0:
288,192,31084,1,0,0:0:0:0:
32,192,31305,1,0,0:0:0:0:
160,192,31305,1,0,0:0:0:0:
352,192,31305,1,0,0:0:0:0:
32,192,31746,1,0,0:0:0:0:
352,192,31746,1,0,0:0:0:0:
160,192,31746,1,0,0:0:0:0:
32,192,32187,1,0,0:0:0:0:
160,192,32187,1,0,0:0:0:0:
352,192,32187,1,0,0:0:0:0:
480,192,32628,128,0,32739:0:0:0:0:
288,192,32628,128,0,32739:0:0:0:0:
32,192,33070,1,0,0:0:0:0:
160,192,33070,1,0,0:0:0:0:
416,192,33070,1,0,0:0:0:0:
32,192,33290,1,0,0:0:0:0:
32,192,33511,1,0,0:0:0:0:
160,192,33511,1,0,0:0:0:0:
416,192,33511,1,0,0:0:0:0:
32,192,33731,1,0,0:0:0:0:
32,192,33952,1,0,0:0:0:0:
160,192,33952,1,0,0:0:0:0:
416,192,33952,1,0,0:0:0:0:
480,192,34393,128,0,34503:0:0:0:0:
352,192,34393,128,0,34503:0:0:0:0:
96,192,34834,1,0,0:0:0:0:
224,192,34834,1,0,0:0:0:0:
352,192,35276,1,0,0:0:0:0:
480,192,35276,1,0,0:0:0:0:
288,192,35717,1,0,0:0:0:0:
32,192,35717,1,0,0:0:0:0:
160,192,35717,1,0,0:0:0:0:
416,192,35717,1,0,0:0:0:0:
32,192,36599,1,0,0:0:0:0:
32,192,36820,1,0,0:0:0:0:
32,192,37040,1,0,0:0:0:0:
32,192,37261,1,0,0:0:0:0:
32,192,37537,1,0,0:0:0:0:
32,192,37757,1,0,0:0:0:0:
32,192,37978,1,0,0:0:0:0:
96,192,38364,1,0,0:0:0:0:
416,192,38584,1,0,0:0:0:0:
288,192,38584,1,0,0:0:0:0:
224,192,38805,1,0,0:0:0:0:
480,192,38805,1,0,0:0:0:0:
288,192,39026,1,0,0:0:0:0:
160,192,39026,1,0,0:0:0:0:
96,192,39246,1,0,0:0:0:0:
480,192,39467,1,0,0:0:0:0:
288,192,39467,1,0,0:0:0:0:
224,192,39687,1,0,0:0:0:0:
416,192,39687,1,0,0:0:0:0:
480,192,39908,1,0,0:0:0:0:
160,192,39908,1,0,0:0:0:0:
96,192,40128,1,0,0:0:0:0:
288,192,40349,1,0,0:0:0:0:
416,192,40349,1,0,0:0:0:0:
96,192,40570,1,0,0:0:0:0:
288,192,40790,1,0,0:0:0:0:
416,192,40790,1,0,0:0:0:0:
480,192,41231,1,0,0:0:0:0:
224,192,41231,1,0,0:0:0:0:
160,192,41452,1,0,0:0:0:0:
416,192,41452,1,0,0:0:0:0:
352,192,41673,1,0,0:0:0:0:
96,192,41673,1,0,0:0:0:0:
288,192,41893,1,0,0:0:0:0:
480,192,42114,1,0,0:0:0:0:
96,192,42114,1,0,0:0:0:0:
416,192,42334,1,0,0:0:0:0:
224,192,42334,1,0,0:0:0:0:
96,192,42555,1,0,0:0:0:0:
352,192,42555,1,0,0:0:0:0:
288,192,42776,1,0,0:0:0:0:
480,192,42996,1,0,0:0:0:0:
96,192,42996,1,0,0:0:0:0:
160,192,43217,1,0,0:0:0:0:
32,192,43217,1,0,0:0:0:0:
480,192,43217,1,0,0:0:0:0:
32,192,43658,1,0,0:0:0:0:
32,192,43878,1,0,0:0:0:0:
32,192,44099,1,0,0:0:0:0:
32,192,44320,1,0,0:0:0:0:
32,192,44595,1,0,0:0:0:0:
32,192,44816,1,0,0:0:0:0:
32,192,45037,1,0,0:0:0:0:
160,192,45423,128,0,48952:0:0:0:0:
32,192,45423,128,0,48952:0:0:0:0:
416,192,45423,128,0,48952:0:0:0:0:
288,192,45423,128,0,48952:0:0:0:0:
