osu file format v14

[General]
AudioFilename: audio.mp3
AudioLeadIn: 0
PreviewTime: 6379
Countdown: 0
SampleSet: Soft
StackLeniency: 0.7
Mode: 3
LetterboxInBreaks: 0
SpecialStyle: 1
WidescreenStoryboard: 1

[Editor]
Bookmarks: 10792,24909
DistanceSpacing: 0.8
BeatDivisor: 8
GridSize: 16
TimelineZoom: 3.2

[Metadata]
Title:Pen-Pineapple-Apple-Pen
TitleUnicode:ペンパイナッポーアッポーペン
Artist:PIKO-TARO
ArtistUnicode:ピコ太郎
Creator:ajeemaniz
Version:7K // Extra Power
Source:
Tags:PPAP @pikotaro_ppap
BeatmapID:1092585
BeatmapSetID:513244

[Difficulty]
HPDrainRate:10
CircleSize:7
OverallDifficulty:10
ApproachRate:5
SliderMultiplier:1.4
SliderTickRate:1

[Events]
//Background and Video events
Video,0,"video.mp4"
0,0,"maxresdefault.jpg",0,0
//Break Periods
//Storyboard Layer 0 (Background)
//Storyboard Layer 1 (Fail)
//Storyboard Layer 2 (Pass)
//Storyboard Layer 3 (Foreground)
//Storyboard Sound Samples

[TimingPoints]
10129,441.176470588235,4,2,0,25,1,0
31305,-50,4,2,0,25,0,0
31415,-200,4,2,0,25,0,0
31746,-50,4,2,0,25,0,0
31856,-200,4,2,0,25,0,0
32187,-50,4,2,0,25,0,0
32298,-200,4,2,0,25,0,0
32628,-100,4,2,0,25,0,0
33070,-50,4,2,0,25,0,0
33180,-200,4,2,0,25,0,0
33511,-50,4,2,0,25,0,0
33621,-200,4,2,0,25,0,0
33952,-50,4,2,0,25,0,0
34062,-200,4,2,0,25,0,0
34393,-100,4,2,0,25,0,0
34834,-50,4,2,0,25,0,0
34945,-200,4,2,0,25,0,0
35276,-50,4,2,0,25,0,0
35717,-100,4,2,0,25,0,0

[HitObjects]
475,192,6599,5,0,0:0:0:0:
402,192,6820,1,0,0:0:0:0:
329,192,7040,1,0,0:0:0:0:
109,192,7261,1,0,0:0:0:0:
402,192,7481,1,0,0:0:0:0:
329,192,7702,1,0,0:0:0:0:
256,192,7923,1,0,0:0:0:0:
109,192,8143,1,0,0:0:0:0:
36,192,8364,1,0,0:0:0:0:
182,192,8419,1,0,0:0:0:0:
329,192,8474,1,0,0:0:0:0:
475,192,8529,1,0,0:0:0:0:
109,192,8584,1,0,0:0:0:0:
256,192,8640,1,0,0:0:0:0:
402,192,8695,1,0,0:0:0:0:
36,192,8750,1,0,0:0:0:0:
182,192,8805,1,0,0:0:0:0:
329,192,8860,1,0,0:0:0:0:
109,192,8915,1,0,0:0:0:0:
256,192,8970,1,0,0:0:0:0:
402,192,9026,1,0,0:0:0:0:
36,192,9081,1,0,0:0:0:0:
182,192,9136,1,0,0:0:0:0:
329,192,9191,1,0,0:0:0:0:
475,192,9246,1,0,0:0:0:0:
475,192,9467,1,0,0:0:0:0:
256,192,9687,1,0,0:0:0:0:
475,192,9908,1,0,0:0:0:0:
36,192,10129,1,0,0:0:0:0:
109,192,10349,1,0,0:0:0:0:
256,192,10349,1,0,0:0:0:0:
402,192,10570,128,0,11011:0:0:0:0:
475,192,10570,1,0,0:0:0:0:
256,192,10790,1,0,0:0:0:0:
109,192,10790,1,0,0:0:0:0:
36,192,11011,1,0,0:0:0:0:
109,192,11231,1,0,0:0:0:0:
256,192,11231,1,0,0:0:0:0:
402,192,11452,128,0,11893:0:0:0:0:
475,192,11452,1,0,0:0:0:0:
109,192,11673,1,0,0:0:0:0:
256,192,11673,1,0,0:0:0:0:
36,192,11893,1,0,0:0:0:0:
256,192,12114,1,0,0:0:0:0:
109,192,12114,1,0,0:0:0:0:
402,192,12334,128,0,12776:0:0:0:0:
475,192,12334,1,0,0:0:0:0:
256,192,12555,128,0,12776:0:0:0:0:
36,192,12555,1,0,0:0:0:0:
402,192,12996,128,0,13217:0:0:0:0:
256,192,12996,128,0,13217:0:0:0:0:
182,192,13217,1,0,0:0:0:0:
109,192,13217,1,0,0:0:0:0:
256,192,13437,1,0,0:0:0:0:
36,192,13658,1,0,0:0:0:0:
109,192,13879,1,0,0:0:0:0:
256,192,13879,1,0,0:0:0:0:
402,192,14099,1,0,0:0:0:0:
475,192,14099,1,0,0:0:0:0:
256,192,14320,1,0,0:0:0:0:
109,192,14320,1,0,0:0:0:0:
36,192,14540,1,0,0:0:0:0:
109,192,14761,1,0,0:0:0:0:
256,192,14761,1,0,0:0:0:0:
402,192,14981,1,0,0:0:0:0:
475,192,14981,1,0,0:0:0:0:
109,192,15202,1,0,0:0:0:0:
256,192,15202,1,0,0:0:0:0:
36,192,15423,1,0,0:0:0:0:
256,192,15643,1,0,0:0:0:0:
109,192,15643,1,0,0:0:0:0:
402,192,15864,1,0,0:0:0:0:
475,192,15864,1,0,0:0:0:0:
475,192,16084,128,0,16526:0:0:0:0:
256,192,16084,128,0,16526:0:0:0:0:
36,192,16084,1,0,0:0:0:0:
36,192,17187,1,0,0:0:0:0:
402,192,17408,128,0,17628:0:0:0:0:
109,192,17408,1,0,0:0:0:0:
475,192,17628,128,0,17849:0:0:0:0:
36,192,17628,1,0,0:0:0:0:
256,192,17628,1,0,0:0:0:0:
329,192,17849,128,0,18511:0:0:0:0:
109,192,17849,1,0,0:0:0:0:
182,192,18070,128,0,18511:0:0:0:0:
36,192,18070,1,0,0:0:0:0:
256,192,18290,1,0,0:0:0:0:
475,192,18511,1,0,0:0:0:0:
36,192,18511,1,0,0:0:0:0:
109,192,18731,1,0,0:0:0:0:
402,192,18731,1,0,0:0:0:0:
36,192,18952,1,0,0:0:0:0:
329,192,19173,128,0,19393:0:0:0:0:
109,192,19173,1,0,0:0:0:0:
402,192,19393,128,0,19614:0:0:0:0:
36,192,19393,1,0,0:0:0:0:
182,192,19393,1,0,0:0:0:0:
256,192,19614,128,0,19834:0:0:0:0:
36,192,19614,1,0,0:0:0:0:
475,192,19834,128,0,20496:0:0:0:0:
329,192,19834,1,0,0:0:0:0:
36,192,20055,1,0,0:0:0:0:
182,192,20055,128,0,20496:0:0:0:0:
329,192,20276,1,0,0:0:0:0:
36,192,20276,1,0,0:0:0:0:
329,192,20496,1,0,0:0:0:0:
182,192,20717,1,0,0:0:0:0:
36,192,20717,1,0,0:0:0:0:
256,192,20937,1,0,0:0:0:0:
475,192,21158,1,0,0:0:0:0:
329,192,21158,1,0,0:0:0:0:
256,192,21378,1,0,0:0:0:0:
475,192,21599,128,0,22040:0:0:0:0:
329,192,21599,128,0,22040:0:0:0:0:
182,192,21599,128,0,22040:0:0:0:0:
36,192,21599,128,0,22040:0:0:0:0:
256,192,22040,1,0,0:0:0:0:
182,192,22261,1,0,0:0:0:0:
36,192,22481,128,0,22923:0:0:0:0:
475,192,22481,1,0,0:0:0:0:
329,192,22481,1,0,0:0:0:0:
109,192,22702,128,0,22923:0:0:0:0:
329,192,22702,1,0,0:0:0:0:
475,192,22702,1,0,0:0:0:0:
256,192,22923,1,0,0:0:0:0:
36,192,23143,128,0,23584:0:0:0:0:
109,192,23143,128,0,23584:0:0:0:0:
329,192,23143,1,0,0:0:0:0:
475,192,23143,1,0,0:0:0:0:
402,192,23584,1,0,0:0:0:0:
256,192,23584,1,0,0:0:0:0:
475,192,23805,1,0,0:0:0:0:
182,192,23805,1,0,0:0:0:0:
329,192,23805,1,0,0:0:0:0:
256,192,24026,1,0,0:0:0:0:
109,192,24026,1,0,0:0:0:0:
475,192,24246,1,0,0:0:0:0:
36,192,24246,1,0,0:0:0:0:
402,192,24467,1,0,0:0:0:0:
109,192,24467,128,0,24687:0:0:0:0:
256,192,24687,1,0,0:0:0:0:
475,192,24687,1,0,0:0:0:0:
36,192,24687,128,0,24908:0:0:0:0:
402,192,24908,1,0,0:0:0:0:
182,192,24908,128,0,25570:0:0:0:0:
475,192,25128,1,0,0:0:0:0:
329,192,25128,128,0,25570:0:0:0:0:
256,192,25349,1,0,0:0:0:0:
475,192,25570,1,0,0:0:0:0:
36,192,25570,1,0,0:0:0:0:
109,192,25790,1,0,0:0:0:0:
402,192,25790,1,0,0:0:0:0:
475,192,26011,1,0,0:0:0:0:
402,192,26231,1,0,0:0:0:0:
182,192,26231,128,0,26452:0:0:0:0:
329,192,26452,1,0,0:0:0:0:
475,192,26452,1,0,0:0:0:0:
109,192,26452,128,0,26673:0:0:0:0:
475,192,26673,1,0,0:0:0:0:
182,192,26673,128,0,27334:0:0:0:0:
256,192,26893,1,0,0:0:0:0:
36,192,26893,128,0,27334:0:0:0:0:
329,192,27114,128,0,27334:0:0:0:0:
475,192,27114,1,0,0:0:0:0:
256,192,27334,1,0,0:0:0:0:
475,192,27334,1,0,0:0:0:0:
182,192,27555,1,0,0:0:0:0:
36,192,27555,1,0,0:0:0:0:
475,192,27776,1,0,0:0:0:0:
329,192,27776,1,0,0:0:0:0:
256,192,27996,1,0,0:0:0:0:
182,192,28217,1,0,0:0:0:0:
36,192,28217,1,0,0:0:0:0:
256,192,28437,1,0,0:0:0:0:
329,192,28658,128,0,29099:0:0:0:0:
475,192,28658,128,0,29099:0:0:0:0:
36,192,28658,128,0,29099:0:0:0:0:
182,192,28658,128,0,29099:0:0:0:0:
256,192,29099,1,0,0:0:0:0:
329,192,29320,1,0,0:0:0:0:
182,192,29540,1,0,0:0:0:0:
36,192,29540,1,0,0:0:0:0:
475,192,29540,128,0,29981:0:0:0:0:
36,192,29761,1,0,0:0:0:0:
182,192,29761,1,0,0:0:0:0:
402,192,29761,128,0,29981:0:0:0:0:
329,192,29981,128,0,30643:0:0:0:0:
256,192,29981,1,0,0:0:0:0:
182,192,30202,1,0,0:0:0:0:
36,192,30202,1,0,0:0:0:0:
475,192,30202,128,0,30643:0:0:0:0:
402,192,30202,128,0,30643:0:0:0:0:
256,192,30643,1,0,0:0:0:0:
109,192,30643,1,0,0:0:0:0:
182,192,30864,1,0,0:0:0:0:
329,192,30864,1,0,0:0:0:0:
36,192,30864,1,0,0:0:0:0:
402,192,31084,1,0,0:0:0:0:
256,192,31084,1,0,0:0:0:0:
36,192,31305,1,0,0:0:0:0:
182,192,31305,1,0,0:0:0:0:
475,192,31305,1,0,0:0:0:0:
329,192,31305,1,0,0:0:0:0:
256,192,31746,1,0,0:0:0:0:
402,192,31746,1,0,0:0:0:0:
36,192,31746,1,0,0:0:0:0:
182,192,31746,1,0,0:0:0:0:
329,192,32187,1,0,0:0:0:0:
475,192,32187,1,0,0:0:0:0:
109,192,32187,1,0,0:0:0:0:
256,192,32187,1,0,0:0:0:0:
109,192,32628,128,0,32739:0:0:0:0:
402,192,32628,128,0,32739:0:0:0:0:
329,192,33070,1,0,0:0:0:0:
256,192,33070,1,0,0:0:0:0:
475,192,33070,1,0,0:0:0:0:
36,192,33070,1,0,0:0:0:0:
182,192,33070,1,0,0:0:0:0:
475,192,33511,1,0,0:0:0:0:
329,192,33511,1,0,0:0:0:0:
256,192,33511,1,0,0:0:0:0:
36,192,33511,1,0,0:0:0:0:
182,192,33511,1,0,0:0:0:0:
402,192,33952,1,0,0:0:0:0:
329,192,33952,1,0,0:0:0:0:
109,192,33952,1,0,0:0:0:0:
182,192,33952,1,0,0:0:0:0:
36,192,34393,128,0,34503:0:0:0:0:
475,192,34393,128,0,34503:0:0:0:0:
182,192,34834,1,0,0:0:0:0:
329,192,34834,1,0,0:0:0:0:
109,192,35276,1,0,0:0:0:0:
256,192,35276,1,0,0:0:0:0:
402,192,35276,1,0,0:0:0:0:
36,192,35717,1,0,0:0:0:0:
109,192,35717,1,0,0:0:0:0:
182,192,35717,1,0,0:0:0:0:
329,192,35717,1,0,0:0:0:0:
475,192,35717,1,0,0:0:0:0:
402,192,35717,1,0,0:0:0:0:
256,192,36599,1,0,0:0:0:0:
256,192,36820,1,0,0:0:0:0:
256,192,37040,1,0,0:0:0:0:
256,192,37261,1,0,0:0:0:0:
256,192,37537,1,0,0:0:0:0:
256,192,37757,1,0,0:0:0:0:
256,192,37978,1,0,0:0:0:0:
329,192,38364,1,0,0:0:0:0:
475,192,38364,1,0,0:0:0:0:
36,192,38364,128,0,38805:0:0:0:0:
182,192,38584,128,0,38805:0:0:0:0:
256,192,38805,1,0,0:0:0:0:
402,192,38805,1,0,0:0:0:0:
182,192,39026,128,0,39136:0:0:0:0:
36,192,39026,128,0,39136:0:0:0:0:
36,192,39246,1,0,0:0:0:0:
182,192,39246,1,0,0:0:0:0:
475,192,39246,128,0,39687:0:0:0:0:
329,192,39467,128,0,39687:0:0:0:0:
256,192,39687,1,0,0:0:0:0:
109,192,39687,1,0,0:0:0:0:
475,192,39908,128,0,40018:0:0:0:0:
329,192,39908,128,0,40018:0:0:0:0:
36,192,40128,128,0,40459:0:0:0:0:
329,192,40128,1,0,0:0:0:0:
475,192,40128,1,0,0:0:0:0:
182,192,40349,128,0,40459:0:0:0:0:
402,192,40570,1,0,0:0:0:0:
182,192,40570,1,0,0:0:0:0:
36,192,40570,1,0,0:0:0:0:
329,192,40790,1,0,0:0:0:0:
182,192,40790,128,0,41452:0:0:0:0:
36,192,40790,128,0,41452:0:0:0:0:
402,192,41231,128,0,41783:0:0:0:0:
256,192,41452,128,0,41783:0:0:0:0:
109,192,41673,128,0,41783:0:0:0:0:
329,192,41893,1,0,0:0:0:0:
475,192,41893,1,0,0:0:0:0:
36,192,41893,128,0,42334:0:0:0:0:
182,192,42114,128,0,42334:0:0:0:0:
256,192,42334,1,0,0:0:0:0:
402,192,42334,1,0,0:0:0:0:
182,192,42555,128,0,42665:0:0:0:0:
36,192,42555,128,0,42665:0:0:0:0:
36,192,42776,1,0,0:0:0:0:
182,192,42776,1,0,0:0:0:0:
475,192,42776,128,0,43217:0:0:0:0:
329,192,42996,128,0,43217:0:0:0:0:
182,192,43217,128,0,43327:0:0:0:0:
256,192,43217,128,0,43327:0:0:0:0:
36,192,43217,128,0,43327:0:0:0:0:
109,192,43217,128,0,43327:0:0:0:0:
256,192,43658,128,0,43768:0:0:0:0:
475,192,43878,128,0,43989:0:0:0:0:
402,192,44099,128,0,44209:0:0:0:0:
329,192,44320,128,0,44430:0:0:0:0:
36,192,44595,128,0,44706:0:0:0:0:
109,192,44816,128,0,44926:0:0:0:0:
182,192,45037,128,0,45147:0:0:0:0:
402,192,45423,1,0,0:0:0:0:
256,192,45423,128,0,48952:0:0:0:0:
109,192,45423,1,0,0:0:0:0:
475,192,45423,1,0,0:0:0:0:
36,192,45423,1,0,0:0:0:0:
