osu file format v14

[General]
AudioFilename: audio.mp3
AudioLeadIn: 0
PreviewTime: 36556
Countdown: 0
SampleSet: Soft
StackLeniency: 0.7
Mode: 0
LetterboxInBreaks: 0
WidescreenStoryboard: 0

[Editor]
DistanceSpacing: 1
BeatDivisor: 8
GridSize: 4
TimelineZoom: 1.8

[Metadata]
Title:Pen Pineapple Apple Pen
TitleUnicode:Pen Pineapple Apple Pen
Artist:PIKO-TARO
ArtistUnicode:PIKO-TARO
Creator:BoatKrab
Version:Apple Pen
Source:
Tags:PPAP
BeatmapID:1090560
BeatmapSetID:513221

[Difficulty]
HPDrainRate:7
CircleSize:4
OverallDifficulty:6
ApproachRate:8
SliderMultiplier:1.7
SliderTickRate:1

[Events]
//Background and Video events
0,0,"BG.jpg",0,0
//Break Periods
//Storyboard Layer 0 (Background)
//Storyboard Layer 1 (Fail)
//Storyboard Layer 2 (Pass)
//Storyboard Layer 3 (Foreground)
//Storyboard Sound Samples

[TimingPoints]
6645,441.501103752759,4,2,0,40,1,0
9294,-100,4,2,1,40,0,0
16137,-200,4,2,1,40,0,0
17241,-100,4,2,1,40,0,0
32252,-200,4,2,1,40,0,0
33135,-100,4,2,1,40,0,0
34459,-200,4,2,1,40,0,0
34901,-100,4,2,1,40,0,0
38433,-100,4,2,1,40,0,1
43289,-100,4,2,1,40,0,0

[HitObjects]
278,98,6644,6,0,P|320:97|360:112,1,85,2|0,0:0|0:0,0:0:0:0:
337,257,7086,2,0,P|315:221|308:180,1,85,2|0,0:0|0:0,0:0:0:0:
444,123,7528,2,0,P|424:160|392:188,1,85,2|0,0:0|0:0,0:0:0:0:
412,44,7969,1,2,0:0:0:0:
412,44,8189,1,0,0:0:0:0:
256,192,8411,12,2,9294,0:0:0:0:
192,304,10177,6,0,P|149:307|112:327,2,85,2|0|0,0:0|0:0|0:0,0:0:0:0:
256,248,10839,1,0,0:0:0:0:
336,348,11060,2,0,P|373:368|415:371,2,85,2|0|0,0:0|0:0|0:0,0:0:0:0:
396,288,11722,1,0,0:0:0:0:
256,248,11943,6,0,L|171:255,1,85,2|0,0:0|0:0,0:0:0:0:
100,208,12384,1,0,0:0:0:0:
291,171,12605,2,0,P|336:240|303:315,1,170,2|0,0:0|0:0,0:0:0:0:
223,323,13267,2,0,P|230:281|255:248,1,85
396,288,13709,5,2,0:0:0:0:
392,280,13929,1,0,0:0:0:0:
440,208,14150,1,0,0:0:0:0:
444,200,14370,1,0,0:0:0:0:
320,84,14592,5,2,0:0:0:0:
312,88,14812,1,0,0:0:0:0:
232,36,15033,1,0,0:0:0:0:
240,40,15253,1,0,0:0:0:0:
232,212,15475,5,2,0:0:0:0:
235,127,15695,1,0,0:0:0:0:
308,175,15916,1,0,0:0:0:0:
156,249,16137,6,0,L|29:236,1,127.5
29,236,17241,6,0,P|28:280|40:324,1,85,2|0,0:0|0:0,0:0:0:0:
116,352,17682,1,0,0:0:0:0:
140,264,17903,1,0,0:0:0:0:
96,144,18124,2,0,L|11:151,1,85,2|0,0:0|0:0,0:0:0:0:
172,184,18565,2,0,L|260:192,1,85
312,124,19007,5,2,0:0:0:0:
304,264,19227,1,0,0:0:0:0:
356,196,19448,1,0,0:0:0:0:
228,104,19669,1,0,0:0:0:0:
288,40,19890,1,2,0:0:0:0:
312,124,20110,2,0,P|302:208|296:293,1,170
448,296,20773,6,0,P|440:254|426:214,1,85,2|0,0:0|0:0,0:0:0:0:
295,293,21214,1,0,0:0:0:0:
295,293,21435,1,0,0:0:0:0:
388,360,21656,6,0,P|428:373|469:381,1,85,2|0,0:0|0:0,0:0:0:0:
466,227,22097,1,0,0:0:0:0:
466,227,22318,1,0,0:0:0:0:
190,340,22539,2,0,P|148:330|106:327,1,85,2|0,0:0|0:0,0:0:0:0:
256,244,22980,1,0,0:0:0:0:
152,80,23201,2,0,L|163:249,1,170,2|0,0:0|0:0,0:0:0:0:
324,372,23863,2,0,L|336:284,1,85
352,160,24305,5,2,0:0:0:0:
456,264,24525,1,0,0:0:0:0:
412,100,24746,1,0,0:0:0:0:
396,324,24967,1,0,0:0:0:0:
246,68,25188,2,0,L|331:79,1,85,2|0,0:0|0:0,0:0:0:0:
265,315,25629,2,0,L|181:305,1,85
372,244,26071,5,2,0:0:0:0:
372,244,26292,1,0,0:0:0:0:
272,164,26512,1,0,0:0:0:0:
411,100,26733,2,0,P|454:99|494:112,1,85,2|0,0:0|0:0,0:0:0:0:
265,322,27174,2,0,P|242:242|272:164,1,170,2|0,0:0|0:0,0:0:0:0:
324,96,27837,5,2,0:0:0:0:
244,68,28057,1,0,0:0:0:0:
157,240,28278,1,0,0:0:0:0:
237,212,28498,1,0,0:0:0:0:
76,228,28720,1,2,0:0:0:0:
104,308,28940,1,0,0:0:0:0:
268,360,29161,1,0,0:0:0:0:
296,280,29381,1,0,0:0:0:0:
157,239,29603,6,0,P|118:224|76:228,1,85,2|0,0:0|0:0,0:0:0:0:
104,308,30044,1,0,0:0:0:0:
268,360,30265,2,0,L|260:188,1,170,2|0,0:0|0:0,0:0:0:0:
300,116,30927,2,0,P|348:128|384:124,1,85
451,247,31369,6,0,P|382:224|311:242,1,148.75,0|0,1:0|0:0,0:0:0:0:
292,252,31810,2,0,P|221:270|151:246,1,148.75,0|0,1:0|0:0,0:0:0:0:
136,232,32252,6,0,B|140:260|140:260|136:288|136:288|139:316,1,85,0|2,1:0|0:0,0:0:0:0:
139,316,33135,5,0,1:0:0:0:
188,108,33355,1,0,0:0:0:0:
64,352,33576,1,0,1:0:0:0:
113,144,33797,1,0,0:0:0:0:
207,361,34018,2,0,P|266:320|337:336,1,148.75,0|0,1:0|0:0,0:0:0:0:
352,352,34459,6,0,L|359:277,1,74.375,2|0,0:0|0:0,0:0:0:0:
372,260,34901,6,0,P|328:212|248:220,1,148.75,0|0,1:0|0:0,0:0:0:0:
231,232,35342,2,0,P|179:281|109:268,1,148.75,0|0,1:0|0:0,0:0:0:0:
156,200,35784,6,0,B|128:144|172:64|172:64|188:96,1,170
300,192,36667,5,2,0:0:0:0:
224,236,36887,1,0,0:0:0:0:
224,148,37108,1,2,0:0:0:0:
401,85,37329,5,0,0:0:0:0:
256,336,37550,1,2,0:0:0:0:
110,85,37770,1,0,0:0:0:0:
256,192,37991,1,2,0:0:0:0:
176,364,38433,6,0,L|84:352,1,85,0|0,1:0|0:0,0:0:0:0:
128,232,38874,2,0,L|43:242,1,85,0|0,1:0|0:0,0:0:0:0:
192,120,39316,2,0,L|107:109,1,85,0|0,1:0|0:0,0:0:0:0:
43,242,39757,1,0,1:0:0:0:
43,242,39978,1,0,0:0:0:0:
200,280,40199,2,0,P|211:239|204:197,1,85,0|0,1:0|0:0,0:0:0:0:
128,232,40640,1,0,0:0:0:0:
251,352,40861,2,0,P|335:339|420:342,1,170,0|0,1:0|0:0,0:0:0:0:
500,372,41523,1,0,0:0:0:0:
488,288,41744,1,0,0:0:0:0:
384,215,41965,6,0,P|342:223|299:223,1,85,0|0,1:0|0:0,0:0:0:0:
288,76,42406,2,0,P|315:108|337:144,1,85,0|0,1:0|0:0,0:0:0:0:
215,227,42848,2,0,P|230:188|251:151,1,85,0|0,1:0|0:0,0:0:0:0:
264,295,43289,1,4,1:2:0:0:
264,295,43731,5,0,0:0:0:0:
328,116,43951,1,0,0:0:0:0:
412,352,44172,5,0,0:0:0:0:
335,133,44392,1,0,0:0:0:0:
271,312,44614,5,0,0:0:0:0:
342,150,44834,1,0,0:0:0:0:
332,364,45055,1,0,0:0:0:0:
256,192,45497,12,0,47263,0:0:0:0:
