osu file format v14

[General]
AudioFilename: PPAP.mp3
AudioLeadIn: 0
PreviewTime: 156
Countdown: 0
SampleSet: Normal
StackLeniency: 0.7
Mode: 0
LetterboxInBreaks: 1
WidescreenStoryboard: 1

[Editor]
Bookmarks: 8097
DistanceSpacing: 1.5
BeatDivisor: 4
GridSize: 16
TimelineZoom: 1.4

[Metadata]
Title:PPAP (Pen Pineapple Apple Pen)
TitleUnicode:PPAP (Pen Pineapple Apple Pen)
Artist:PIKO-TARO
ArtistUnicode:PIKO-TARO
Creator:Artymis
Version:Insane
Source:
Tags:PPAP penpineappleapplepen pen apple pineapple applepen pineapplepen pikotaro cbcc playwithdt
BeatmapID:2450716
BeatmapSetID:694623

[Difficulty]
HPDrainRate:7
CircleSize:4
OverallDifficulty:7
ApproachRate:8.4
SliderMultiplier:1.10000000596046
SliderTickRate:1

[Events]
//Background and Video events
0,0,"pls kill me.png",0,0
//Break Periods
//Storyboard Layer 0 (Background)
//Storyboard Layer 1 (Fail)
//Storyboard Layer 2 (Pass)
//Storyboard Layer 3 (Foreground)
//Storyboard Layer 4 (Overlay)
//Storyboard Sound Samples

[TimingPoints]
156,441.176470588235,4,1,0,100,1,0
31920,-100,4,1,0,100,0,1
36773,-100,4,1,0,100,0,0
36883,-100,4,1,0,100,0,1
36994,-100,4,1,0,100,0,0

[HitObjects]
96,64,156,5,0,0:0:0:0:
96,224,376,1,0,0:0:0:0:
288,128,597,1,0,0:0:0:0:
32,128,817,1,0,0:0:0:0:
224,288,1038,5,0,0:0:0:0:
224,64,1258,1,0,0:0:0:0:
128,224,1479,1,0,0:0:0:0:
128,224,1589,1,0,0:0:0:0:
128,224,1700,1,0,0:0:0:0:
384,128,1920,5,0,0:0:0:0:
256,192,2030,12,0,2803,0:0:0:0:
64,64,3685,5,0,0:0:0:0:
224,128,3905,1,0,0:0:0:0:
96,224,4126,1,0,0:0:0:0:
160,48,4347,1,0,0:0:0:0:
224,256,4567,5,0,0:0:0:0:
336,160,4788,1,0,0:0:0:0:
160,160,5009,1,0,0:0:0:0:
352,256,5229,1,0,0:0:0:0:
224,64,5450,5,0,0:0:0:0:
320,192,5670,1,0,0:0:0:0:
352,96,5891,1,0,0:0:0:0:
192,304,6111,5,0,0:0:0:0:
240,96,6553,1,0,0:0:0:0:
80,320,6773,1,0,0:0:0:0:
80,320,6883,1,0,0:0:0:0:
80,320,6994,1,0,0:0:0:0:
384,304,7214,5,0,0:0:0:0:
336,208,7435,1,0,0:0:0:0:
224,288,7655,1,0,0:0:0:0:
272,64,7876,1,0,0:0:0:0:
144,176,8097,5,0,0:0:0:0:
384,128,8317,1,0,0:0:0:0:
224,112,8538,1,0,0:0:0:0:
464,240,8758,1,0,0:0:0:0:
256,288,8979,5,0,0:0:0:0:
277,35,9200,1,0,0:0:0:0:
112,224,9420,1,0,0:0:0:0:
368,144,9641,1,0,0:0:0:0:
122,76,9861,5,0,0:0:0:0:
416,352,10744,6,0,L|409:298,1,55.000000298023
272,240,11185,2,0,L|282:294,1,55.000000298023
421,161,11626,1,0,0:0:0:0:
352,272,11847,1,0,0:0:0:0:
352,128,12067,1,0,0:0:0:0:
480,272,12288,1,0,0:0:0:0:
384,16,12508,1,0,0:0:0:0:
256,144,12729,6,0,L|253:198,1,55.000000298023
144,304,13170,2,0,L|140:249,1,55.000000298023
176,64,13611,1,0,0:0:0:0:
176,64,13722,1,0,0:0:0:0:
176,64,13832,1,0,0:0:0:0:
96,304,14053,1,0,0:0:0:0:
368,160,14273,6,0,L|313:160,1,55.000000298023
368,304,14714,2,0,L|432:304,1,55.000000298023
208,224,15155,6,0,L|207:333,1,110.000000596046
416,96,16038,5,0,0:0:0:0:
241,121,16258,2,0,L|282:145,2,27.5000001490115
464,160,16700,2,0,P|426:194|399:263,1,110.000000596046
240,112,17361,1,0,0:0:0:0:
448,208,17582,1,0,0:0:0:0:
368,112,17803,1,0,0:0:0:0:
208,336,18023,5,0,0:0:0:0:
240,240,18244,1,0,0:0:0:0:
304,304,18464,1,0,0:0:0:0:
288,112,18685,1,0,0:0:0:0:
144,176,18905,5,0,0:0:0:0:
208,32,19126,1,0,0:0:0:0:
96,96,19347,1,0,0:0:0:0:
336,128,19567,1,0,0:0:0:0:
112,336,19788,5,0,0:0:0:0:
128,224,20008,1,0,0:0:0:0:
224,288,20229,1,0,0:0:0:0:
128,112,20450,1,0,0:0:0:0:
288,176,20670,1,0,0:0:0:0:
288,176,20780,1,0,0:0:0:0:
288,176,20891,1,0,0:0:0:0:
160,64,21111,5,0,0:0:0:0:
208,208,21332,1,0,0:0:0:0:
256,96,21553,1,0,0:0:0:0:
112,144,21773,1,0,0:0:0:0:
384,176,21994,1,0,0:0:0:0:
16,112,22214,5,0,0:0:0:0:
112,192,22435,1,0,0:0:0:0:
128,64,22655,1,0,0:0:0:0:
48,160,22876,1,0,0:0:0:0:
384,96,23097,5,0,0:0:0:0:
192,144,23317,1,0,0:0:0:0:
304,48,23538,1,0,0:0:0:0:
288,160,23758,1,0,0:0:0:0:
288,336,23979,5,0,0:0:0:0:
336,192,24200,1,0,0:0:0:0:
240,256,24420,1,0,0:0:0:0:
400,272,24641,1,0,0:0:0:0:
32,192,24861,6,0,L|24:262,1,55.000000298023
96,288,25303,2,0,L|131:342,1,55.000000298023
208,288,25744,2,0,L|265:311,1,55.000000298023
256,208,26185,2,0,L|321:200,1,55.000000298023
448,64,26626,6,0,L|431:99,3,27.5000001490115
387,101,27067,2,0,L|358:128,3,27.5000001490115
332,79,27508,2,0,L|307:88,3,27.5000001490115
304,35,27950,2,0,L|272:16,3,27.5000001490115
96,192,28391,6,0,L|110:242,1,27.5000001490115
272,192,28611,2,0,L|264:165,1,27.5000001490115
368,240,28832,2,0,L|375:266,1,27.5000001490115
16,304,29053,2,0,L|8:277,1,27.5000001490115
192,272,29273,5,0,0:0:0:0:
64,48,31920,5,0,0:0:0:0:
128,160,32141,1,0,0:0:0:0:
207,42,32361,1,0,0:0:0:0:
192,256,32582,1,0,0:0:0:0:
288,96,32803,5,0,0:0:0:0:
208,160,33023,1,0,0:0:0:0:
400,128,33244,1,0,0:0:0:0:
320,288,33464,1,0,0:0:0:0:
112,112,33685,1,0,0:0:0:0:
112,112,33795,1,0,0:0:0:0:
112,112,33905,2,0,L|182:115,1,55.000000298023
336,144,34347,5,0,0:0:0:0:
176,192,34567,1,0,0:0:0:0:
400,224,34788,1,0,0:0:0:0:
96,112,35008,1,0,0:0:0:0:
448,144,35229,1,0,0:0:0:0:
328,113,35450,5,0,0:0:0:0:
128,192,35670,1,0,0:0:0:0:
368,240,35891,5,0,0:0:0:0:
112,80,36111,1,0,0:0:0:0:
448,96,36332,5,0,0:0:0:0:
32,224,36553,1,0,0:0:0:0:
464,304,36773,5,0,0:0:0:0:
256,192,36883,12,0,38979,0:0:0:0:
