osu file format v14

[General]
AudioFilename: audio.mp3
AudioLeadIn: 0
PreviewTime: 105844
Countdown: 0
SampleSet: None
StackLeniency: 0.3
Mode: 0
LetterboxInBreaks: 0
WidescreenStoryboard: 0

[Editor]
Bookmarks: 1117,5480,9844,14208,18571,19117,22935,27299,31662,33844,35208,35480,35617,36026,36844,37390,38208,39026,39571,39844,39980,40390,40935,41344,41753,42026,42162,42571,43390,43935,44208,44344,44753,45571,46117,46935,47753,48299,48571,48708,49117,49662,50071,50480,50753,50890,51299,52117,52662,52935,53071,53480,54299,54844,55662,56208,57026,57299,57435,57844,58390,58799,59208,59480,59617,60026,60844,61390,61662,61799,62208,63026,63571,64390,64935,65753,66026,66162,66571,67390,67935,68208,68344,68753,69571,70117,70390,70526,70935,75299,79662,84026,88390,92753,97117,101480,105844,108026,109390,109662,109799,110208,111026,111571,111844,112390,112935,113753,114026,114162,114571,115390,115935,116208,116344,116753,117571,118117,118390,118526,118935,119753,120299,121117,121662,122480,122753,122890,123299,124117,124662,124935,125071,125480,126299,126844,127117,127253,127662,128480,129026,129299,129844,130390,131208,131480,131617,132026,132844,133390,133662,133799,134208,135026,135571,135844,135980,136390,137208,137753,138026,138571,139117,139935,140208,140344,140753,141571,142117,142390,142526,142935,143344,143753,144299,144571,144708,145117,145526,145935,146480,146753,146890,147299,147708,148117,148662,148935,149071,149480,149890,150299,150844,151117,151253,151662,152071,152480,153026,153299,153435,153844,154253,154662,155208,155480,155617,156026,156435,156844,157390,157662,157799,158208,158617,159026,159571,159844,159980,160390,160799,161208,161753,162026,162162,162571,162980,163390,163935,164208,164344,164753,165162,165571,166117,166390,166526,166935,167344,167753,168299,168571,168708,169117,169526,169935,170480,170753,170890,171299,171708,172117,172662,173071,173480,173890,174299,174844,175117,175253,175662,176071,176480,177026,177299,177435,177844,178253,178662,179208,179480,179617,179753,179890,180026
DistanceSpacing: 1
BeatDivisor: 4
GridSize: 8
TimelineZoom: 1.6

[Metadata]
Title:Rolling cup
TitleUnicode:Rolling cup
Artist:PIKASONIC
ArtistUnicode:PIKASONIC
Creator:syoutoku1
Version:Extra
Source:
Tags:Melodic Dubstep
BeatmapID:1573845
BeatmapSetID:746797

[Difficulty]
HPDrainRate:6.7
CircleSize:4.7
OverallDifficulty:7.7
ApproachRate:9.7
SliderMultiplier:2
SliderTickRate:2

[Events]
//Background and Video events
0,0,"rollingcup.jpg",0,0
//Break Periods
//Storyboard Layer 0 (Background)
//Storyboard Layer 1 (Fail)
//Storyboard Layer 2 (Pass)
//Storyboard Layer 3 (Foreground)
//Storyboard Sound Samples

[TimingPoints]
1117.29603672471,545.454545454546,4,3,1,45,1,0
1526,-100,4,3,1,5,0,0
1662,-100,4,3,1,45,0,0
3844,-133.333333333333,4,3,1,45,0,0
4253,-133.333333333333,4,3,1,5,0,0
4390,-100,4,3,1,45,0,0
5890,-100,4,3,1,5,0,0
6026,-100,4,3,1,45,0,0
8071,-100,4,3,1,5,0,0
8208,-100,4,3,1,45,0,0
8480,-133.333333333333,4,3,1,45,0,0
9026,-200,4,3,1,45,0,0
9435,-100,4,3,1,45,0,0
9844,-100,4,3,1,50,0,0
12571,-133.333333333333,4,3,1,50,0,0
13390,-200,4,3,1,50,0,0
14208,-100,4,3,1,55,0,0
14753,-133.333333333333,4,3,1,55,0,0
15571,-100,4,3,1,55,0,0
16799,-100,4,3,1,5,0,0
16935,-100,4,3,1,55,0,0
17208,-133.333333333333,4,3,1,55,0,0
17753,-200,4,3,1,55,0,0
18162,-100,4,3,1,55,0,0
18571,-80,4,3,1,85,0,0
19117,-100,4,3,1,65,0,0
31662,-66.6666666666667,4,3,1,75,0,0
33844,-50,4,3,1,75,0,0
35208,-200,4,3,1,85,0,0
35480,-66.6666666666667,4,3,1,85,0,0
36026,-80,4,3,1,85,0,0
36571,-66.6666666666667,4,3,1,85,0,0
36844,-200,4,3,1,85,0,0
37390,-100,4,3,1,85,0,0
38208,-80,4,3,1,85,0,0
39026,-66.6666666666667,4,3,1,85,0,0
39571,-100,4,3,1,85,0,0
39844,-66.6666666666667,4,3,1,85,0,0
40390,-80,4,3,1,85,0,0
40935,-66.6666666666667,4,3,1,85,0,0
41344,-100,4,3,1,85,0,0
42162,-66.6666666666667,4,3,1,85,0,0
42571,-80,4,3,1,85,0,0
43117,-66.6666666666667,4,3,1,85,0,0
43390,-200,4,3,1,85,0,0
43935,-100,4,3,1,85,0,0
44208,-66.6666666666667,4,3,1,85,0,0
44753,-80,4,3,1,85,0,0
45162,-66.6666666666667,4,3,1,85,0,0
45571,-200,4,3,1,85,0,0
46117,-100,4,3,1,85,0,0
46935,-80,4,3,1,85,0,0
48299,-100,4,3,1,85,0,0
48708,-66.6666666666667,4,3,1,85,0,0
49117,-80,4,3,1,85,0,0
49662,-66.6666666666667,4,3,1,85,0,0
50071,-100,4,3,1,85,0,0
50753,-66.6666666666667,4,3,1,85,0,0
51299,-80,4,3,1,85,0,0
51844,-66.6666666666667,4,3,1,85,0,0
52117,-200,4,3,1,85,0,0
52662,-100,4,3,1,85,0,0
53480,-80,4,3,1,85,0,0
53890,-66.6666666666667,4,3,1,85,0,0
54299,-200,4,3,1,85,0,0
54844,-100,4,3,1,85,0,0
55662,-80,4,3,1,85,0,0
56208,-100,4,3,1,85,0,0
56480,-66.6666666666667,4,3,1,85,0,0
57026,-100,4,3,1,85,0,0
57299,-66.6666666666667,4,3,1,85,0,0
57844,-80,4,3,1,85,0,0
58390,-66.6666666666667,4,3,1,85,0,0
58662,-100,4,3,1,85,0,0
59480,-66.6666666666667,4,3,1,85,0,0
60026,-80,4,3,1,85,0,0
60571,-66.6666666666667,4,3,1,85,0,0
60844,-200,4,3,1,85,0,0
61390,-100,4,3,1,85,0,0
61662,-66.6666666666667,4,3,1,85,0,0
62208,-80,4,3,1,85,0,0
62617,-66.6666666666667,4,3,1,85,0,0
63026,-200,4,3,1,85,0,0
63571,-100,4,3,1,85,0,0
64390,-80,4,3,1,85,0,0
64935,-100,4,3,1,85,0,0
65208,-66.6666666666667,4,3,1,85,0,0
65753,-100,4,3,1,85,0,0
66026,-66.6666666666667,4,3,1,85,0,0
66571,-80,4,3,1,85,0,0
67117,-66.6666666666667,4,3,1,85,0,0
67390,-100,4,3,1,85,0,0
68208,-66.6666666666667,4,3,1,85,0,0
68753,-80,4,3,1,85,0,0
69299,-66.6666666666667,4,3,1,85,0,0
69571,-200,4,3,1,85,0,0
70117,-100,4,3,1,85,0,0
70390,-66.6666666666667,4,3,1,85,0,0
70526,-100,4,3,1,85,0,0
70935,-50,4,3,1,85,0,0
71071,-50,4,3,1,5,0,0
75299,-100,4,3,1,45,0,0
79117,-133.333333333333,4,3,1,45,0,0
79526,-133.333333333333,4,3,1,5,0,0
79662,-100,4,3,1,45,0,0
81026,-200,4,3,1,45,0,0
81844,-133.333333333333,4,3,1,45,0,0
82662,-100,4,3,1,45,0,0
83890,-100,4,3,1,5,0,0
84026,-100,4,3,1,50,0,0
88390,-200,4,3,1,55,0,0
89208,-133.333333333333,4,3,1,55,0,0
89753,-200,4,3,1,55,0,0
90571,-133.333333333333,4,3,1,55,0,0
91390,-100,4,3,1,55,0,0
92617,-100,4,3,1,5,0,0
92753,-80,4,3,1,85,0,0
93162,-80,4,3,1,5,0,0
93299,-100,4,3,1,65,0,0
105844,-66.6666666666667,4,3,1,75,0,0
108026,-50,4,3,1,75,0,0
109390,-200,4,3,1,85,0,0
109662,-66.6666666666667,4,3,1,85,0,0
110208,-57.1428571428571,4,3,1,85,0,1
110617,-50,4,3,1,85,0,1
111026,-200,4,3,1,85,0,1
111571,-66.6666666666667,4,3,1,85,0,1
112390,-57.1428571428571,4,3,1,85,0,1
112935,-66.6666666666667,4,3,1,85,0,1
113208,-57.1428571428571,4,3,1,85,0,1
113753,-66.6666666666667,4,3,1,85,0,1
114026,-50,4,3,1,85,0,1
114571,-66.6666666666667,4,3,1,85,0,1
115117,-66.6666666666667,4,3,1,85,0,1
115935,-66.6666666666667,4,3,1,85,0,1
116208,-50,4,3,1,85,0,1
116753,-66.6666666666667,4,3,1,85,0,1
117299,-50,4,3,1,85,0,1
117571,-200,4,3,1,85,0,1
118117,-66.6666666666667,4,3,1,85,0,1
118390,-50,4,3,1,85,0,1
118935,-57.1428571428571,4,3,1,85,0,1
119344,-50,4,3,1,85,0,1
119753,-200,4,3,1,85,0,1
120299,-66.6666666666667,4,3,1,85,0,1
121117,-57.1428571428571,4,3,1,85,0,1
121935,-50,4,3,1,85,0,1
122480,-66.6666666666667,4,3,1,85,0,1
122753,-50,4,3,1,85,0,1
123299,-57.1428571428571,4,3,1,85,0,1
123844,-66.6666666666667,4,3,1,85,0,1
124662,-66.6666666666667,4,3,1,85,0,1
124935,-50,4,3,1,85,0,1
125480,-57.1428571428571,4,3,1,85,0,1
126026,-50,4,3,1,85,0,1
126299,-200,4,3,1,85,0,1
126844,-66.6666666666667,4,3,1,85,0,1
127253,-100,4,3,1,85,0,1
127662,-57.1428571428571,4,3,1,85,0,1
128071,-50,4,3,1,85,0,1
128480,-200,4,3,1,85,0,1
129026,-66.6666666666667,4,3,1,85,0,1
129844,-57.1428571428571,4,3,1,85,0,1
130390,-50,4,3,1,85,0,1
131208,-57.1428571428571,4,3,1,85,0,1
131480,-50,4,3,1,85,0,1
132026,-57.1428571428571,4,3,1,85,0,1
132571,-66.6666666666667,4,3,1,85,0,1
133390,-66.6666666666667,4,3,1,85,0,1
133662,-50,4,3,1,85,0,1
134208,-66.6666666666667,4,3,1,85,0,1
134753,-50,4,3,1,85,0,1
135026,-200,4,3,1,85,0,1
135571,-66.6666666666667,4,3,1,85,0,1
135844,-50,4,3,1,85,0,1
136390,-57.1428571428571,4,3,1,85,0,1
136799,-50,4,3,1,85,0,1
137208,-200,4,3,1,85,0,1
137753,-66.6666666666667,4,3,1,85,0,1
138571,-57.1428571428571,4,3,1,85,0,1
139117,-50,4,3,1,85,0,1
139935,-66.6666666666667,4,3,1,85,0,1
140208,-50,4,3,1,85,0,1
140753,-57.1428571428571,4,3,1,85,0,1
141299,-66.6666666666667,4,3,1,85,0,1
142117,-66.6666666666667,4,3,1,85,0,1
142390,-50,4,3,1,85,0,1
142935,-100,4,3,1,85,0,0
143344,-57.1428571428571,4,3,1,85,0,0
143753,-50,4,3,1,85,0,0
144299,-66.6666666666667,4,3,1,85,0,0
144708,-100,4,3,1,85,0,0
145526,-57.1428571428571,4,3,1,85,0,0
145935,-50,4,3,1,85,0,0
146480,-100,4,3,1,85,0,0
146753,-66.6666666666667,4,3,1,85,0,0
147299,-100,4,3,1,85,0,0
147708,-57.1428571428571,4,3,1,85,0,0
148117,-50,4,3,1,85,0,0
148662,-100,4,3,1,85,0,0
148935,-66.6666666666667,4,3,1,85,0,0
149480,-100,4,3,1,85,0,0
149890,-57.1428571428571,4,3,1,85,0,0
150299,-50,4,3,1,85,0,0
150844,-100,4,3,1,85,0,0
151117,-66.6666666666667,4,3,1,85,0,0
151662,-100,4,3,1,85,0,0
152071,-57.1428571428571,4,3,1,85,0,0
152480,-50,4,3,1,85,0,0
153026,-100,4,3,1,85,0,0
153299,-66.6666666666667,4,3,1,85,0,0
153844,-100,4,3,1,85,0,0
154253,-57.1428571428571,4,3,1,85,0,0
154662,-50,4,3,1,85,0,0
155208,-100,4,3,1,85,0,0
155480,-66.6666666666667,4,3,1,85,0,0
156026,-100,4,3,1,85,0,0
156435,-57.1428571428571,4,3,1,85,0,0
156844,-50,4,3,1,85,0,0
157390,-100,4,3,1,85,0,0
157662,-66.6666666666667,4,3,1,85,0,0
158208,-100,4,3,1,85,0,0
158617,-57.1428571428571,4,3,1,85,0,0
159026,-50,4,3,1,85,0,0
159571,-100,4,3,1,85,0,0
159844,-66.6666666666667,4,3,1,85,0,0
160390,-100,4,3,1,85,0,0
160799,-57.1428571428571,4,3,1,85,0,0
161208,-50,4,3,1,85,0,0
161753,-100,4,3,1,85,0,0
162026,-66.6666666666667,4,3,1,85,0,0
162571,-100,4,3,1,85,0,0
162980,-57.1428571428571,4,3,1,85,0,0
163390,-50,4,3,1,85,0,0
163935,-100,4,3,1,85,0,0
164208,-66.6666666666667,4,3,1,85,0,0
164753,-100,4,3,1,85,0,0
165162,-57.1428571428571,4,3,1,85,0,0
165571,-50,4,3,1,85,0,0
166117,-100,4,3,1,85,0,0
166390,-66.6666666666667,4,3,1,85,0,0
166935,-100,4,3,1,85,0,0
167344,-57.1428571428571,4,3,1,85,0,0
167753,-50,4,3,1,85,0,0
168299,-100,4,3,1,85,0,0
168708,-66.6666666666667,4,3,1,85,0,0
169117,-100,4,3,1,85,0,0
169526,-57.1428571428571,4,3,1,85,0,0
169935,-50,4,3,1,85,0,0
170480,-100,4,3,1,85,0,0
170753,-66.6666666666667,4,3,1,85,0,0
171299,-100,4,3,1,85,0,0
171708,-57.1428571428571,4,3,1,85,0,0
172117,-50,4,3,1,85,0,0
172662,-100,4,3,1,85,0,0
172935,-66.6666666666667,4,3,1,85,0,0
173480,-100,4,3,1,85,0,0
173890,-57.1428571428571,4,3,1,85,0,0
174299,-50,4,3,1,85,0,0
174844,-100,4,3,1,85,0,0
175117,-66.6666666666667,4,3,1,85,0,0
175662,-100,4,3,1,85,0,0
176071,-57.1428571428571,4,3,1,85,0,0
176480,-50,4,3,1,85,0,0
177026,-100,4,3,1,85,0,0
177299,-66.6666666666667,4,3,1,85,0,0
177844,-100,4,3,1,85,0,0
178253,-57.1428571428571,4,3,1,85,0,0
178662,-50,4,3,1,85,0,0
179208,-100,4,3,1,85,0,0
179480,-50,4,3,1,85,0,0

[Colours]
Combo1 : 128,128,255
Combo2 : 128,255,128
Combo3 : 62,158,255
Combo4 : 255,128,128
Combo5 : 255,168,81
SliderTrackOverride : 178,178,178

[HitObjects]
168,96,1117,6,0,B|198:88|228:88|258:103|258:103|288:118|320:117|351:102,1,150,2|0,0:2|0:0,0:0:0:0:
332,107,1662,1,2,0:2:0:0:
408,31,1935,1,0,0:0:0:0:
442,66,2207,1,2,0:2:0:0:
455,113,2480,1,0,0:0:0:0:
442,161,2753,1,2,0:2:0:0:
365,319,3299,6,0,P|353:271|368:224,1,100,2|0,0:2|0:0,0:0:0:0:
282,162,3844,2,0,P|329:175|368:226,1,112.500004291535,2|0,0:2|0:0,0:0:0:0:
450,179,4390,2,0,P|414:213|366:223,2,100,2|0|0,0:2|0:0|0:0,0:0:0:0:
368,128,5208,1,0,0:0:0:0:
272,280,5480,6,0,B|264:232|264:232|272:176|272:176|264:120,1,150,2|0,0:2|0:0,0:0:0:0:
264,116,6026,1,2,0:2:0:0:
172,58,6299,1,0,0:0:0:0:
209,25,6571,1,2,0:2:0:0:
256,11,6844,1,0,0:0:0:0:
305,19,7117,1,2,0:2:0:0:
485,70,7662,6,0,P|406:79|326:23,1,150,2|0,0:2|0:0,0:0:0:0:
334,35,8208,1,2,0:2:0:0:
392,200,8480,6,0,L|408:96,1,75.0000028610231,2|0,0:2|0:0,0:0:0:0:
312,248,9026,2,0,L|302:181,1,50,2|0,0:2|0:0,0:0:0:0:
308,133,9435,2,0,L|300:189,1,50,2|0,0:2|0:0,0:0:0:0:
232,336,9844,6,0,P|280:360|344:344,2,100,2|0|0,0:2|0:0|0:0,0:0:0:0:
45,325,10662,2,0,P|137:299|248:351,1,200,2|0,0:2|0:0,0:0:0:0:
400,192,11480,1,0,0:0:0:0:
256,24,11753,1,0,0:0:0:0:
200,112,12026,6,0,P|256:128|308:114,1,100,2|0,0:2|0:0,0:0:0:0:
368,40,12571,2,0,P|400:98|375:191,1,150.000005722046,2|0,0:2|0:0,0:0:0:0:
288,264,13390,2,0,L|337:256,2,50,2|0|0,0:2|0:0|0:0,0:0:0:0:
173,237,14208,6,0,L|272:256,1,100,2|0,0:2|0:0,0:0:0:0:
112,304,14753,2,0,P|83:261|140:154,1,150.000005722046,2|0,0:2|0:0,0:0:0:0:
200,112,15571,2,0,B|160:80|160:80|104:64,1,100,2|0,0:2|0:0,0:0:0:0:
47,75,15980,2,0,L|111:67,1,50,2|0,0:2|0:0,0:0:0:0:
240,32,16390,6,0,B|280:40|280:40|344:32|344:32|392:40,1,150,2|0,0:2|0:0,0:0:0:0:
405,43,16935,1,2,0:2:0:0:
336,192,17208,2,0,B|344:155|344:155|340:95,1,75.0000028610231,2|0,0:2|0:0,0:0:0:0:
287,263,17753,2,0,P|309:275|342:277,1,50,2|0,0:2|0:0,0:0:0:0:
424,288,18162,6,0,L|418:312,2,25,2|0|0,0:2|0:0|0:0,0:0:0:0:
416,272,18367,2,0,L|422:248,1,25,2|0,0:2|0:0,0:0:0:0:
512,192,18571,6,0,B|484:160|484:160|432:144|432:144|380:148|380:148|328:184,1,187.5,2|0,2:0|0:0,0:0:0:0:
280,368,19117,6,0,L|264:296,1,50,2|0,0:2|0:0,0:0:0:0:
192,296,19390,2,0,L|231:233,1,50
180,182,19662,2,0,L|252:166,1,50,2|0,0:2|0:0,0:0:0:0:
252,92,19935,2,0,L|314:131,1,50
366,79,20208,6,0,L|382:151,3,50,2|0|0|0,0:2|0:0|0:0|0:0,0:0:0:0:
455,150,20753,6,0,L|415:212,1,50,2|0,0:2|0:0,0:0:0:0:
467,263,21026,2,0,L|394:279,1,50
395,351,21299,2,0,L|332:311,1,50,2|0,0:2|0:0,0:0:0:0:
281,362,21571,2,0,L|265:289,1,50
256,232,21844,6,0,L|272:159,1,50,2|0,0:2|0:0,0:0:0:0:
256,104,22117,2,0,L|240:31,1,50
176,96,22390,6,0,L|113:56,3,50,2|0|0|0,0:2|0:0|0:0|0:0,0:0:0:0:
113,146,22935,6,0,L|40:162,1,50,2|0,0:2|0:0,0:0:0:0:
103,225,23208,2,0,L|63:287,1,50
151,287,23480,2,0,L|167:359,1,50,2|0,0:2|0:0,0:0:0:0:
228,296,23753,2,0,L|290:335,1,50
288,247,24026,6,0,L|360:230,1,50,2|0,0:2|0:0,0:0:0:0:
295,169,24299,2,0,L|334:106,1,50
244,108,24571,6,0,L|227:35,3,50,2|0|0|0,0:2|0:0|0:0|0:0,0:0:0:0:
130,157,25117,6,0,L|179:146,1,50,2|0,0:2|0:0,0:0:0:0:
228,259,25390,2,0,L|216:210,1,50
329,161,25662,2,0,L|280:172,1,50,2|0,0:2|0:0,0:0:0:0:
232,59,25935,2,0,L|244:108,1,50
130,157,26208,6,0,L|179:146,1,50,2|0,0:2|0:0,0:0:0:0:
228,259,26481,2,0,L|216:210,1,50
329,161,26753,2,0,L|280:172,1,50,2|0,0:2|0:0,0:0:0:0:
232,59,27026,2,0,L|244:108,1,50
408,47,27299,5,2,0:2:0:0:
367,18,27435,1,0,0:0:0:0:
318,11,27571,1,0,0:0:0:0:
271,28,27708,1,0,0:0:0:0:
232,59,27844,5,2,0:2:0:0:
187,80,27980,1,0,0:0:0:0:
137,81,28117,1,0,0:0:0:0:
91,62,28253,1,0,0:0:0:0:
76,4,28389,5,2,0:2:0:0:
76,4,28526,1,0,0:0:0:0:
76,4,28662,1,0,0:0:0:0:
76,4,28799,1,0,0:0:0:0:
160,8,28935,5,2,0:2:0:0:
143,54,29071,1,0,0:0:0:0:
103,83,29207,1,0,0:0:0:0:
54,85,29344,1,0,0:0:0:0:
13,58,29480,5,2,0:2:0:0:
13,58,29617,1,0,0:0:0:0:
13,58,29753,1,0,0:0:0:0:
13,58,29890,1,0,0:0:0:0:
32,144,30026,5,2,0:2:0:0:
41,192,30162,1,0,0:0:0:0:
29,241,30298,1,0,0:0:0:0:
17,288,30435,1,0,0:0:0:0:
25,337,30571,5,2,0:2:0:0:
17,288,30707,1,0,0:0:0:0:
41,247,30843,1,0,0:0:0:0:
87,231,30980,1,0,0:0:0:0:
133,250,31116,5,2,0:2:0:0:
155,293,31252,1,0,0:0:0:0:
143,341,31389,1,0,0:0:0:0:
103,369,31525,1,0,0:0:0:0:
54,364,31662,6,0,P|85:354|116:357,7,37.5000014305115,2|0|0|0|2|0|0|0,0:2|0:0|0:0|0:0|0:2|0:0|0:0|0:0,0:0:0:0:
144,288,32208,2,0,P|175:294|201:312,7,37.5000014305115,2|0|0|0|2|0|0|0,0:2|0:0|0:0|0:0|0:2|0:0|0:0|0:0,0:0:0:0:
259,267,32753,6,0,P|283:288|296:317,7,37.5000014305115,2|0|0|0|2|0|0|0,0:2|0:0|0:0|0:0|0:2|0:0|0:0|0:0,0:0:0:0:
369,306,33299,2,0,P|379:336|376:368,7,37.5000014305115,2|0|0|0|2|0|0|0,0:2|0:0|0:0|0:0|0:2|0:0|0:0|0:0,0:0:0:0:
336,200,33844,6,0,P|328:176|336:144,18,50,2|0|2|0|2|0|2|0|2|0|2|0|2|0|2|0|2|0|2,0:2|0:0|0:2|0:0|0:2|0:0|0:2|0:0|0:2|0:0|0:2|0:0|0:2|0:0|0:2|0:0|0:2|0:0|0:2,0:0:0:0:
304,328,35208,6,0,P|303:311|296:296,1,25,2|0,0:0|0:0,0:0:0:0:
152,200,35480,1,0,0:0:0:0:
48,248,35617,2,0,P|114:310|184:312,1,150.000005722046,2|0,0:0|0:0,0:0:0:0:
344,160,36026,6,0,B|352:200|352:200|344:248|344:248|352:296,1,125,2|0,0:0|0:0,0:0:0:0:
264,200,36435,1,0,0:0:0:0:
503,236,36571,2,0,P|471:252|423:244,1,75.0000028610231,2|0,0:0|0:0,0:0:0:0:
177,204,36844,6,0,P|210:187|247:191,1,75.0000028610231,2|0,0:0|0:0,0:0:0:0:
349,283,37390,6,0,L|360:224,1,50,2|0,0:0|0:0,0:0:0:0:
360,72,37662,5,2,0:0:0:0:
368,144,37799,1,0,0:0:0:0:
344,64,37935,1,0,0:0:0:0:
384,152,38071,1,0,0:0:0:0:
176,80,38208,6,0,P|224:120|287:125,2,125,2|0|2,0:0|0:0|0:0,0:0:0:0:
200,304,39026,5,2,3:0:0:0:
208,152,39162,2,0,P|191:192|200:248,2,75.0000028610231,2|0|0,3:0|3:0|3:0,3:0:0:0:
64,240,39571,6,0,P|87:258|120:264,1,50,2|0,0:0|0:0,0:0:0:0:
281,267,39844,1,0,3:0:0:0:
376,208,39980,2,0,P|389:298|352:352,1,150.000005722046,2|0,0:0|0:0,0:0:0:0:
376,208,40390,6,0,B|336:168|328:120|344:80|384:72|408:96|392:128|352:128,1,187.5,2|0,0:0|0:0,0:0:0:0:
248,152,40935,6,0,P|208:152|160:136,1,75.0000028610231,2|0,0:0|0:0,0:0:0:0:
72,64,41208,1,2,3:0:0:0:
73,178,41344,2,0,B|77:142|77:142|73:114|73:114|80:80,1,100,2|0,0:0|0:0,0:0:0:0:
81,194,41753,6,0,L|75:250,1,50,2|0,0:0|0:0,0:0:0:0:
88,368,42026,1,0,0:0:0:0:
83,259,42162,2,0,B|90:192|90:192|84:168|84:168|91:93,1,150.000005722046,2|0,3:0|3:0,3:0:0:0:
32,24,42571,6,0,P|104:8|192:96,1,187.5,2|0,0:0|0:0,0:0:0:0:
208,216,43117,2,0,P|216:176|240:144,1,75.0000028610231,2|0,0:0|0:0,0:0:0:0:
480,24,43390,6,0,P|441:37|401:32,1,75.0000028610231,2|0,0:0|0:0,0:0:0:0:
264,24,43935,6,0,P|294:50|308:82,1,50,2|0,0:0|0:0,0:0:0:0:
328,184,44208,1,0,0:0:0:0:
299,74,44344,2,0,P|248:24|168:16,1,150.000005722046,2|0,0:0|0:0,0:0:0:0:
200,127,44753,6,0,B|208:168|208:168|200:216|200:216|208:256,1,125,2|0,0:0|0:0,0:0:0:0:
120,168,45162,1,0,0:0:0:0:
361,197,45299,2,0,P|329:213|281:213,1,75.0000028610231,2|0,0:0|0:0,0:0:0:0:
61,99,45571,6,0,P|91:120|112:152,1,75.0000028610231,2|0,0:0|0:0,0:0:0:0:
141,384,46117,6,0,P|143:346|156:317,1,50,2|0,0:0|0:0,0:0:0:0:
272,240,46390,5,2,0:0:0:0:
200,272,46526,1,0,0:0:0:0:
288,248,46662,1,0,0:0:0:0:
184,264,46799,1,0,0:0:0:0:
480,312,46935,6,0,B|421:327|421:327|352:312,2,125,2|0|2,0:0|0:0|0:0,0:0:0:0:
408,72,47753,5,2,0:0:0:0:
432,136,47890,1,2,0:0:0:0:
352,200,48026,1,2,0:0:0:0:
480,240,48162,1,2,0:0:0:0:
288,264,48299,6,0,P|322:286|360:280,1,50,2|0,0:0|0:0,0:0:0:0:
480,240,48571,1,0,0:0:0:0:
377,291,48708,2,0,P|295:285|255:210,1,150.000005722046,2|0,0:0|0:0,0:0:0:0:
136,125,49117,6,0,P|218:131|255:230,1,187.5,2|0,0:0|0:0,0:0:0:0:
200,360,49662,6,0,B|240:372|240:372|287:370,1,75.0000028610231,2|0,0:0|0:0,0:0:0:0:
392,344,49935,1,2,0:0:0:0:
506,361,50071,2,0,B|457:348|457:348|401:352,1,100,2|0,0:0|0:0,0:0:0:0:
134,359,50480,6,0,L|184:352,1,50,2|0,0:0|0:0,0:0:0:0:
296,224,50753,1,0,0:0:0:0:
344,120,50890,2,0,P|254:116|201:161,1,150.000005722046,2|0,0:0|0:0,0:0:0:0:
120,368,51299,6,0,B|112:312|112:312|128:240|128:240|112:168,1,187.5,2|0,0:0|0:0,0:0:0:0:
72,24,51844,6,0,P|72:64|88:104,1,75.0000028610231,2|0,0:0|0:0,0:0:0:0:
200,312,52117,6,0,P|228:283|245:244,1,75.0000028610231,2|0,0:0|0:0,0:0:0:0:
272,104,52662,6,0,L|288:168,1,50,2|0,0:0|0:0,0:0:0:0:
251,236,52935,1,0,0:0:0:0:
280,88,53071,6,0,L|285:63,2,25,2|0|0,0:0|0:0|0:0,0:0:0:0:
277,47,53276,2,0,L|282:22,1,25
259,220,53480,6,0,B|296:232|296:232|348:224|348:224|391:235,1,125,2|0,0:0|0:0,0:0:0:0:
299,150,53890,1,0,0:0:0:0:
328,378,54026,2,0,P|344:346|344:298,1,75.0000028610231,2|0,0:0|0:0,0:0:0:0:
316,63,54299,6,0,P|300:95|300:143,1,75.0000028610231,2|0,0:0|0:0,0:0:0:0:
345,307,54844,6,0,P|337:279|322:261,1,50,2|0,0:0|0:0,0:0:0:0:
176,200,55117,5,2,0:0:0:0:
248,216,55253,1,0,0:0:0:0:
160,208,55390,1,0,0:0:0:0:
264,208,55526,1,0,0:0:0:0:
128,344,55662,6,0,P|169:335|192:318,1,62.5,2|0,0:0|0:0,0:0:0:0:
296,72,55935,2,0,P|255:81|232:98,1,62.5,2|0,0:0|0:0,0:0:0:0:
67,316,56208,6,0,P|87:331|112:336,1,50,2|0,0:0|0:0,0:0:0:0:
256,296,56480,1,0,0:0:0:0:
400,280,56617,2,0,P|363:265|322:270,2,75.0000028610231,2|0|0,0:0|0:0|0:0,0:0:0:0:
464,360,57026,6,0,P|484:343|494:311,1,50,2|0,0:0|0:0,0:0:0:0:
384,168,57299,1,0,0:0:0:0:
288,112,57435,2,0,P|347:60|429:64,1,150.000005722046,2|0,0:0|0:0,0:0:0:0:
288,112,57844,6,0,B|279:150|245:181|213:194|177:193|177:193|205:184|230:150,1,187.5,2|0,0:0|0:0,0:0:0:0:
96,184,58390,6,0,P|98:219|119:251,1,75.0000028610231,2|0,0:0|0:0,0:0:0:0:
304,240,58662,1,2,0:0:0:0:
119,267,58799,2,0,P|85:209|87:165,1,100,2|0,0:0|0:0,0:0:0:0:
80,24,59208,6,0,P|89:53|88:82,1,50,2|0,0:0|0:0,0:0:0:0:
8,264,59480,1,0,0:0:0:0:
84,177,59617,2,0,P|160:144|240:168,1,150.000005722046,2|0,0:0|0:0,0:0:0:0:
312,320,60026,6,0,B|320:264|320:264|304:192|304:192|312:112,1,187.5,2|0,0:0|0:0,0:0:0:0:
464,168,60571,6,0,P|424:184|376:184,1,75.0000028610231,2|0,0:0|0:0,0:0:0:0:
160,248,60844,6,0,P|200:264|248:264,1,75.0000028610231,2|0,0:0|0:0,0:0:0:0:
192,136,61390,6,0,P|208:160|208:200,1,50,2|0,0:0|0:0,0:0:0:0:
176,344,61662,1,0,0:0:0:0:
219,196,61799,2,0,P|191:123|122:119,1,150.000005722046,2|0,0:0|0:0,0:0:0:0:
48,240,62208,6,0,B|42:198|42:198|48:165|48:165|40:115,1,125,2|0,0:0|0:0,0:0:0:0:
64,24,62617,1,0,0:0:0:0:
32,132,62753,2,0,B|37:164|37:164|28:215,1,75.0000028610231,2|0,0:0|0:0,0:0:0:0:
8,384,63026,6,0,B|3:352|3:352|12:301,1,75.0000028610231,2|0,0:0|0:0,0:0:0:0:
32,132,63571,6,0,L|40:188,1,50,2|0,0:0|0:0,0:0:0:0:
128,288,63844,5,2,0:0:0:0:
64,248,63980,1,0,0:0:0:0:
144,280,64117,1,0,0:0:0:0:
48,256,64253,1,0,0:0:0:0:
144,128,64390,6,0,L|136:192,1,62.5,2|0,0:0|0:0,0:0:0:0:
232,304,64662,2,0,L|224:241,1,62.5,2|0,0:0|0:0,0:0:0:0:
136,112,64935,6,0,L|129:169,1,50,2|0,0:0|0:0,0:0:0:0:
224,320,65208,1,2,0:0:0:0:
222,150,65344,2,0,L|231:224,2,75.0000028610231,2|0|0,0:0|0:0|0:0,0:0:0:0:
320,120,65753,6,0,B|313:173|314:172,1,50,2|0,0:0|0:0,0:0:0:0:
328,264,66026,1,0,0:0:0:0:
408,56,66162,2,0,P|339:10|272:21,1,150.000005722046,2|0,0:0|0:0,0:0:0:0:
216,216,66571,6,0,B|200:176|200:128|216:80|216:80|188:105|179:158,1,187.5,2|0,0:0|0:0,0:0:0:0:
56,144,67117,6,0,P|88:168|144:168,1,75.0000028610231,2|0,0:0|0:0,0:0:0:0:
288,152,67390,1,2,0:0:0:0:
137,181,67526,2,0,P|78:174|37:136,1,100,2|0,0:0|0:0,0:0:0:0:
112,40,67935,6,0,P|118:62|117:90,1,50,2|0,0:0|0:0,0:0:0:0:
56,264,68208,1,0,0:0:0:0:
137,181,68344,2,0,P|216:184|280:240,1,150.000005722046,2|0,0:0|0:0,0:0:0:0:
336,376,68753,6,0,B|323:334|330:295|347:258|371:238|371:238|356:262|358:299,1,187.5,2|0,0:0|0:0,0:0:0:0:
472,120,69299,6,0,P|456:160|416:184,1,75.0000028610231,2|0,0:0|0:0,0:0:0:0:
184,264,69571,6,0,P|216:288|264:296,1,75,2|0,0:0|0:0,0:0:0:0:
384,264,70117,6,0,P|355:262|329:271,1,50,2|0,0:0|0:0,0:0:0:0:
176,368,70390,1,0,0:0:0:0:
256,208,70526,6,0,L|264:184,2,25,2|0|0,0:0|0:0|0:0,0:0:0:0:
255,168,70730,2,0,L|263:144,1,25
256,56,70935,6,0,P|266:-11|266:57,1,200,2|0,0:0|0:0,0:0:0:0:
256,192,73117,12,0,75026,0:0:0:0:
253,56,75299,6,0,B|272:88|272:120|248:152|248:152|224:184|224:216|248:256,1,200,2|0,0:2|0:0,0:0:0:0:
249,351,76117,2,0,P|264:297|240:249,1,100,2|0,0:2|0:0,0:0:0:0:
152,200,76662,5,2,0:2:0:0:
188,166,76935,1,2,0:2:0:0:
235,151,77207,1,0,0:0:0:0:
312,216,77480,6,0,P|330:119|259:53,1,200,2|0,0:2|0:0,0:0:0:0:
158,18,78299,2,0,P|207:52|258:50,1,100,2|0,0:2|0:0,0:0:0:0:
368,24,78844,5,2,0:2:0:0:
245,53,79117,2,0,P|211:102|226:180,1,112.500004291535,2|0,0:2|0:0,0:0:0:0:
320,192,79662,6,0,B|248:184|248:184|184:200|184:200|104:192,1,200,2|0,0:2|0:0,0:0:0:0:
6,190,80480,2,0,L|134:203,1,100,2|0,0:2|0:0,0:0:0:0:
222,183,81026,6,0,L|94:196,1,100,2|0,0:2|0:0,0:0:0:0:
296,248,81844,6,0,P|320:176|284:105,1,150.000005722046,2|0,0:2|0:0,0:0:0:0:
221,29,82662,6,0,P|236:75|292:107,1,100,2|0,0:2|0:0,0:0:0:0:
392,112,83208,1,0,0:0:0:0:
276,103,83480,2,0,B|240:88|200:104|200:104|160:120|124:103,1,150,2|0,0:2|0:0,0:0:0:0:
80,24,84026,6,0,P|36:102|97:196,1,200,2|0,0:2|0:0,0:0:0:0:
216,240,84844,2,0,B|144:256|144:256|96:280,1,100
24,288,85390,5,2,0:2:0:0:
45,332,85662,1,2,0:2:0:0:
86,360,85935,1,0,0:0:0:0:
100,78,86208,6,0,B|79:110|79:142|103:182|103:182|127:222|127:254|116:278,1,200,2|0,0:2|0:0,0:0:0:0:
176,128,87026,2,0,P|224:120|280:136,1,100,2|0,0:2|0:0,0:0:0:0:
456,168,87571,6,0,P|408:176|352:160,1,100,2|0,0:2|0:0,0:0:0:0:
304,48,88117,1,2,0:2:0:0:
358,163,88390,6,0,B|368:192|360:216|360:216|352:240|368:272,1,100,2|0,0:2|0:0,0:0:0:0:
432,336,89208,6,0,P|395:359|355:362,1,75.0000028610231,2|0,0:2|0:0,0:0:0:0:
178,373,89753,6,0,P|222:350|272:352,1,100,2|0,0:2|0:0,0:0:0:0:
376,384,90571,6,0,P|369:303|304:251,1,150.000005722046,2|0,0:2|0:0,0:0:0:0:
252,173,91390,6,0,P|276:229|316:253,1,100,2|0,0:2|0:0,0:0:0:0:
424,232,91935,1,2,0:2:0:0:
417,83,92208,2,0,B|425:131|425:131|417:187|417:187|424:238,1,150,2|0,0:2|0:0,0:0:0:0:
432,320,92753,6,0,B|376:304|376:304|304:320|304:320|248:304,1,187.5,2|0,0:2|0:0,0:0:0:0:
153,342,93299,6,0,L|144:288,1,50,2|0,0:2|0:0,0:0:0:0:
64,264,93571,2,0,L|95:219,1,50
56,145,93844,2,0,L|110:136,1,50,2|0,0:2|0:0,0:0:0:0:
134,55,94117,2,0,L|178:86,1,50
252,46,94390,6,0,L|261:100,3,50,2|0|0|0,0:2|0:0|0:0|0:0,0:0:0:0:
199,209,94935,6,0,L|208:160,1,50,2|0,0:2|0:0,0:0:0:0:
260,54,95208,2,0,L|268:103,1,50
207,217,95480,2,0,L|215:167,1,50,2|0,0:2|0:0,0:0:0:0:
268,62,95753,2,0,L|276:111,1,50
216,224,96026,6,0,L|224:174,1,50,2|0,0:2|0:0,0:0:0:0:
276,70,96299,2,0,L|284:119,1,50
224,232,96571,6,0,L|232:182,3,50,2|0|0|0,0:2|0:0|0:0|0:0,0:0:0:0:
144,292,97117,6,0,L|193:298,1,50,2|0,0:2|0:0,0:0:0:0:
253,381,97390,2,0,L|260:331,1,50
342,271,97662,2,0,L|292:264,1,50,2|0,0:2|0:0,0:0:0:0:
232,182,97935,2,0,L|224:231,1,50
245,373,98208,6,0,L|252:323,1,50,2|0,0:2|0:0,0:0:0:0:
223,173,98480,2,0,L|215:222,1,50
237,365,98753,6,0,L|244:315,3,50,2|0|0|0,0:2|0:0|0:0|0:0,0:0:0:0:
328,296,99299,6,0,L|298:255,1,50,2|0,0:2|0:0,0:0:0:0:
343,182,99571,2,0,L|293:174,1,50
272,90,99844,2,0,L|231:119,1,50,2|0,0:2|0:0,0:0:0:0:
156,75,100117,2,0,L|148:124,1,50
203,237,100390,6,0,L|196:188,1,50,2|0,0:2|0:0,0:0:0:0:
148,83,100662,2,0,L|140:132,1,50
195,245,100935,2,0,L|187:195,1,50,2|0,0:2|0:0,0:0:0:0:
148,83,101208,2,0,L|140:132,1,50
72,0,101481,5,2,0:2:0:0:
72,0,101617,1,0,0:0:0:0:
72,0,101753,1,0,0:0:0:0:
72,0,101890,1,0,0:0:0:0:
96,80,102027,5,2,0:2:0:0:
101,129,102162,1,0,0:0:0:0:
87,177,102298,1,0,0:0:0:0:
56,215,102435,1,0,0:0:0:0:
12,238,102572,5,2,0:2:0:0:
56,215,102707,1,0,0:0:0:0:
105,211,102843,1,0,0:0:0:0:
152,227,102980,1,0,0:0:0:0:
188,261,103117,5,2,0:2:0:0:
229,289,103252,1,0,0:0:0:0:
278,295,103389,1,0,0:0:0:0:
326,284,103525,1,0,0:0:0:0:
392,216,103662,5,2,0:2:0:0:
392,216,103799,1,0,0:0:0:0:
392,216,103935,1,0,0:0:0:0:
392,216,104071,1,0,0:0:0:0:
416,136,104208,5,2,0:2:0:0:
456,163,104344,1,0,0:0:0:0:
474,209,104480,1,0,0:0:0:0:
463,257,104617,1,0,0:0:0:0:
427,290,104753,5,2,0:2:0:0:
378,297,104889,1,0,0:0:0:0:
334,276,105026,1,0,0:0:0:0:
310,233,105162,1,0,0:0:0:0:
314,184,105299,5,2,0:2:0:0:
310,233,105435,1,0,0:0:0:0:
284,276,105571,1,0,0:0:0:0:
243,304,105708,1,0,0:0:0:0:
195,314,105844,6,0,P|216:305|238:273,7,37.5000014305115,2|0|0|0|2|0|0|0,0:2|0:0|0:0|0:0|0:2|0:0|0:0|0:0,0:0:0:0:
310,183,106390,2,0,P|289:192|267:224,7,37.5000014305115,2|0|0|0|2|0|0|0,0:2|0:0|0:0|0:0|0:2|0:0|0:0|0:0,0:0:0:0:
316,305,106935,6,0,P|307:284|275:262,7,37.5000014305115,2|0|0|0|2|0|0|0,0:2|0:0|0:0|0:0|0:2|0:0|0:0|0:0,0:0:0:0:
187,189,107480,2,0,P|196:210|228:232,7,37.5000014305115,2|0|0|0|2|0|0|0,0:2|0:0|0:0|0:0|0:2|0:0|0:0|0:0,0:0:0:0:
256,336,108026,6,0,P|272:368|272:416,18,50,2|0|2|0|2|0|2|0|2|0|2|0|2|0|2|0|2|0|2,0:2|0:0|0:2|0:0|0:2|0:0|0:2|0:0|0:2|0:0|0:2|0:0|0:2|0:0|0:2|0:0|0:2|0:0|0:2,0:0:0:0:
208,256,109390,6,0,P|201:241|198:227,1,25,2|0,0:0|0:0,0:0:0:0:
168,32,109662,1,0,0:0:0:0:
248,111,109799,2,0,P|182:145|110:130,1,150.000005722046,2|0,0:0|0:0,0:0:0:0:
72,72,110208,6,0,B|80:128|80:128|72:192|72:192|80:264,1,175.00000166893,2|0,0:0|0:0,0:0:0:0:
64,368,110617,1,0,0:0:0:0:
69,261,110753,2,0,B|60:196|60:196|66:146,1,100,2|0,0:0|0:0,0:0:0:0:
408,176,111026,6,0,P|376:192|328:192,1,75,2|0,0:0|0:0,0:0:0:0:
240,160,111571,6,0,L|256:256,1,75.0000028610231,2|0,0:0|0:0,0:0:0:0:
248,328,111844,5,2,0:0:0:0:
392,288,111980,1,0,0:0:0:0:
232,320,112117,1,0,0:0:0:0:
408,296,112253,1,0,0:0:0:0:
160,256,112390,6,0,P|140:295|140:345,1,87.500000834465,2|0,0:0|0:0,0:0:0:0:
352,128,112662,2,0,P|372:89|372:39,1,87.500000834465,2|0,0:0|0:0,0:0:0:0:
168,271,112935,6,0,P|155:292|160:356,1,75.0000028610231,2|0,0:0|0:0,0:0:0:0:
256,192,113208,1,2,0:0:0:0:
344,112,113344,2,0,P|360:70|352:20,2,87.500000834465,2|0|0,0:0|0:0|0:0,0:0:0:0:
264,176,113753,6,0,P|304:208|342:212,1,75.0000028610231,2|0,0:0|0:0,0:0:0:0:
448,88,114026,1,0,0:0:0:0:
334,228,114162,2,0,B|288:223|252:197|237:158|232:127|232:127|246:155|281:168,1,200,2|0,0:0|0:0,0:0:0:0:
392,160,114571,6,0,P|413:267|325:318,1,225.000008583069,2|0,0:0|0:0,0:0:0:0:
248,368,115117,6,0,L|232:288,1,75.0000028610231,2|0,0:0|0:0,0:0:0:0:
240,200,115390,5,2,0:0:0:0:
104,136,115526,1,0,0:0:0:0:
256,192,115662,1,0,0:0:0:0:
88,144,115799,1,0,0:0:0:0:
424,192,115935,6,0,P|416:240|384:272,1,75.0000028610231,2|0,0:0|0:0,0:0:0:0:
224,307,116208,1,0,0:0:0:0:
119,367,116344,2,0,P|111:261|174:196,1,200,2|0,0:0|0:0,0:0:0:0:
240,0,116753,6,0,B|256:80|256:80|240:144|240:144|256:224,1,225.000008583069,2|0,0:0|0:0,0:0:0:0:
56,88,117299,2,0,P|104:72|168:88,1,100,2|0,0:0|0:0,0:0:0:0:
416,128,117571,6,0,P|384:144|328:144,1,75,2|0,0:0|0:0,0:0:0:0:
247,118,118117,6,0,P|243:165|269:212,1,75.0000028610231,2|0,0:0|0:0,0:0:0:0:
408,224,118390,1,0,0:0:0:0:
309,54,118526,2,0,P|233:111|244:206,1,200,2|0,0:0|0:0,0:0:0:0:
368,312,118935,6,0,B|312:304|312:304|248:312|248:312|192:304,1,175.00000166893,2|0,0:0|0:0,0:0:0:0:
384,320,119344,1,0,0:0:0:0:
120,352,119480,2,0,P|105:296|126:247,1,100,2|0,0:0|0:0,0:0:0:0:
456,80,119753,6,0,P|415:120|384:127,1,75,2|0,0:0|0:0,0:0:0:0:
248,136,120299,6,0,P|288:144|336:192,1,75.0000028610231,2|0,0:0|0:0,0:0:0:0:
400,224,120571,5,2,0:0:0:0:
248,232,120708,1,0,0:0:0:0:
416,216,120844,1,0,0:0:0:0:
232,240,120980,1,0,0:0:0:0:
496,384,121117,6,0,B|408:360|408:360|328:304,2,175.00000166893,2|0|2,0:0|0:0|0:0,0:0:0:0:
248,288,121935,5,2,0:0:0:0:
56,328,122071,2,0,B|100:305|100:305|152:296,2,100,2|0|0,0:0|0:0|0:0,0:0:0:0:
232,296,122480,6,0,P|214:245|190:225,1,75.0000028610231,2|0,0:0|0:0,0:0:0:0:
72,216,122753,1,0,0:0:0:0:
296,232,122890,2,0,B|331:226|369:202|393:167|402:133|402:133|377:166|331:173,1,200,2|0,0:0|0:0,0:0:0:0:
232,296,123299,6,0,B|200:264|200:208|224:168|224:168|248:128|248:72|216:32,1,262.500002503395,2|0,0:0|0:0,0:0:0:0:
194,245,123844,6,0,P|202:281|224:312,1,75.0000028610231,2|0,0:0|0:0,0:0:0:0:
456,296,124117,5,2,0:0:0:0:
312,336,124253,1,0,0:0:0:0:
472,304,124390,1,0,0:0:0:0:
296,328,124526,1,0,0:0:0:0:
424,144,124662,6,0,P|453:181|452:230,1,75.0000028610231,2|0,0:0|0:0,0:0:0:0:
216,208,124935,1,0,0:0:0:0:
432,128,125071,2,0,P|469:185|411:299,1,200,2|0,0:0|0:0,0:0:0:0:
200,344,125480,6,0,P|168:258|241:337,1,262.500002503395,2|0,0:0|0:0,0:0:0:0:
32,280,126026,6,0,B|72:272|72:272|104:280|104:280|144:272,1,100,2|0,0:0|0:0,0:0:0:0:
491,288,126299,6,0,B|468:293|468:293|443:289|443:289|418:295,1,75,2|0,0:0|0:0,0:0:0:0:
336,360,126844,6,0,P|316:325|315:280,1,75.0000028610231,2|0,0:0|0:0,0:0:0:0:
368,192,127117,1,0,0:0:0:0:
240,352,127253,6,0,L|216:360,2,25,2|0|0,0:0|0:0|0:0,0:0:0:0:
200,351,127458,2,0,L|176:359,1,25
96,192,127662,6,0,B|80:240|80:240|96:312|96:312|80:368,1,175.00000166893,2|0,0:0|0:0,0:0:0:0:
176,248,128071,1,0,0:0:0:0:
41,113,128208,2,0,P|59:161|103:195,1,100,2|0,0:0|0:0,0:0:0:0:
440,344,128480,6,0,P|422:296|398:271,1,75,2|0,0:0|0:0,0:0:0:0:
344,160,129026,6,0,P|344:200|320:248,1,75.0000028610231,2|0,0:0|0:0,0:0:0:0:
320,320,129299,5,2,0:0:0:0:
184,256,129435,1,0,0:0:0:0:
336,312,129571,1,0,0:0:0:0:
168,264,129708,1,0,0:0:0:0:
436,287,129844,6,0,P|395:301|352:304,1,87.500000834465,2|0,0:0|0:0,0:0:0:0:
67,288,130117,2,0,P|108:274|152:272,1,87.500000834465,2|0,0:0|0:0,0:0:0:0:
256,336,130390,6,0,L|264:216,1,100,2|0,0:0|0:0,0:0:0:0:
272,144,130662,5,0,0:0:0:0:
254,220,130799,1,2,0:0:0:0:
256,64,130935,1,2,0:0:0:0:
264,352,131071,1,2,0:0:0:0:
416,176,131208,6,0,P|376:200|320:200,1,87.500000834465
192,160,131480,1,0,0:0:0:0:
474,111,131617,2,0,P|422:194|328:219,1,200,2|0,0:0|0:0,0:0:0:0:
120,88,132026,6,0,B|88:128|88:176|112:224|112:224|136:272|136:320|120:360,1,262.500002503395,2|0,0:0|0:0,0:0:0:0:
111,174,132571,6,0,P|111:137|128:104,1,75.0000028610231,2|0,0:0|0:0,0:0:0:0:
184,152,132844,5,2,0:0:0:0:
40,120,132980,1,0,0:0:0:0:
200,144,133117,1,0,0:0:0:0:
24,128,133253,1,0,0:0:0:0:
304,80,133390,6,0,P|344:80|400:112,1,75.0000028610231,2|0,0:0|0:0,0:0:0:0:
488,168,133662,1,0,0:0:0:0:
384,108,133799,2,0,P|326:90|196:152,1,200,2|0,0:0|0:0,0:0:0:0:
136,368,134208,6,0,B|120:304|120:304|128:216|128:216|112:136,1,225.000008583069,2|0,0:0|0:0,0:0:0:0:
35,97,134753,6,0,P|91:145|123:145,1,100,2|0,0:0|0:0,0:0:0:0:
456,320,135026,6,0,P|432:288|400:272,1,75,2|0,0:0|0:0,0:0:0:0:
256,200,135571,6,0,P|280:232|312:248,1,75,2|0,0:0|0:0,0:0:0:0:
496,232,135844,1,0,0:0:0:0:
318,263,135980,2,0,B|280:259|245:227|233:190|237:151|237:151|219:177|224:232,1,200,2|0,0:0|0:0,0:0:0:0:
344,352,136390,6,0,P|408:280|384:200,1,175.00000166893,2|0,0:0|0:0,0:0:0:0:
264,72,136799,1,0,0:0:0:0:
384,226,136935,2,0,P|397:269|357:328,1,100,2|0,0:0|0:0,0:0:0:0:
0,384,137208,6,0,P|32:352|80:344,1,75,2|0,0:0|0:0,0:0:0:0:
152,376,137753,6,0,P|155:327|129:278,1,75.0000028610231,2|0,0:0|0:0,0:0:0:0:
88,216,138026,5,2,0:0:0:0:
128,72,138162,1,0,0:0:0:0:
104,224,138299,1,0,0:0:0:0:
112,64,138435,1,0,0:0:0:0:
120,232,138571,6,0,P|168:240|208:224,1,87.500000834465,2|0,0:0|0:0,0:0:0:0:
392,160,138844,2,0,P|344:152|304:168,1,87.500000834465,2|0,0:0|0:0,0:0:0:0:
104,240,139117,6,0,P|155:253|215:239,1,100,2|0,0:0|0:0,0:0:0:0:
292,173,139390,5,2,0:0:0:0:
217,237,139526,1,2,0:0:0:0:
408,168,139662,1,2,0:0:0:0:
88,232,139799,1,2,0:0:0:0:
490,209,139935,6,0,P|500:168|483:121,1,75.0000028610231,2|0,0:0|0:0,0:0:0:0:
400,16,140208,1,0,0:0:0:0:
508,128,140344,2,0,P|507:216|394:263,1,200,2|0,0:0|0:0,0:0:0:0:
328,80,140753,6,0,B|344:160|344:160|320:264|320:264|336:336,1,262.500002503395,2|0,0:0|0:0,0:0:0:0:
333,169,141299,6,0,B|320:96,1,75.0000028610231,2|0,0:0|0:0,0:0:0:0:
264,24,141571,5,2,0:0:0:0:
408,72,141708,1,0,0:0:0:0:
248,32,141844,1,0,0:0:0:0:
424,64,141980,1,0,0:0:0:0:
152,0,142117,6,0,P|160:41|147:91,1,75.0000028610231,2|0,0:0|0:0,0:0:0:0:
48,256,142390,1,0,0:0:0:0:
88,168,142526,2,0,P|128:128|264:144,1,200,2|0,0:0|0:0,0:0:0:0:
376,240,142935,6,0,B|385:180|385:180|391:153|381:131,1,100,2|0,0:0|0:0,0:0:0:0:
360,264,143344,6,0,B|375:166|375:166|377:138|370:110|348:93,1,175.00000166893,2|0,0:0|0:0,0:0:0:0:
344,288,143753,6,0,B|362:168|362:168|369:121|334:66|287:47|223:57,1,300,2|0,0:0|0:0,0:0:0:0:
32,88,144299,6,0,P|64:120|104:136,1,75.0000028610231,2|0,0:0|0:0,0:0:0:0:
267,164,144571,1,0,0:0:0:0:
160,312,144708,6,0,L|168:344,2,25,2|0|0,0:0|0:0|0:0,0:0:0:0:
158,352,144912,2,0,L|166:384,1,25
104,240,145117,6,0,P|152:221|217:242,1,100,2|0,0:0|0:0,0:0:0:0:
63,164,145526,6,0,P|163:135|246:158,1,175.00000166893,2|0,0:0|0:0,0:0:0:0:
0,96,145935,6,0,P|154:46|296:86,1,300,2|0,0:0|0:0,0:0:0:0:
432,216,146480,6,0,L|440:152,1,50,2|0,0:0|0:0,0:0:0:0:
416,32,146753,1,0,0:0:0:0:
446,150,146890,2,0,L|425:305,1,150.000005722046,2|0,0:0|0:0,0:0:0:0:
344,368,147299,6,0,B|344:336|344:336|328:304|328:304|328:256,1,100,2|0,0:0|0:0,0:0:0:0:
240,344,147708,6,0,B|240:288|240:288|216:232|216:232|216:160,1,175.00000166893,2|0,0:0|0:0,0:0:0:0:
136,320,148117,6,0,B|136:232|136:232|88:120|88:120|88:24,1,300,2|0,0:0|0:0,0:0:0:0:
0,192,148662,6,0,P|29:205|57:201,1,50,2|0,0:0|0:0,0:0:0:0:
184,152,148935,1,0,0:0:0:0:
264,72,149071,2,0,P|296:137|269:224,1,150.000005722046,2|0,0:0|0:0,0:0:0:0:
168,328,149480,6,0,B|240:320|240:320|288:328,1,100,2|0,0:0|0:0,0:0:0:0:
122,247,149890,6,0,B|246:233|246:233|342:250,1,175.00000166893,2|0,0:0|0:0,0:0:0:0:
72,168,150299,6,0,B|249:146|249:146|391:172,1,300,2|0,0:0|0:0,0:0:0:0:
459,216,150844,6,0,P|471:185|470:162,1,50,2|0,0:0|0:0,0:0:0:0:
328,80,151117,1,0,0:0:0:0:
407,269,151253,2,0,P|469:230|488:160,1,150.000005722046,2|0,0:0|0:0,0:0:0:0:
312,88,151662,6,0,B|280:96|280:96|240:80|240:80|208:88,1,100,2|0,0:0|0:0,0:0:0:0:
312,88,152071,6,0,B|272:112|272:112|224:64|224:64|168:112,1,175.00000166893,2|0,0:0|0:0,0:0:0:0:
312,88,152480,6,0,B|256:144|256:144|208:32|208:32|144:144,1,300,2|0,0:0|0:0,0:0:0:0:
144,256,153026,6,0,P|144:224|128:192,1,50,2|0,0:0|0:0,0:0:0:0:
32,136,153299,1,0,0:0:0:0:
89,334,153435,2,0,P|145:287|154:215,1,150.000005722046,2|0,0:0|0:0,0:0:0:0:
40,120,153844,6,0,P|76:111|45:128,1,100,2|0,0:0|0:0,0:0:0:0:
200,72,154253,6,0,P|252:103|196:87,1,175.00000166893,2|0,0:0|0:0,0:0:0:0:
384,168,154662,6,0,P|354:263|362:171,1,300,2|0,0:0|0:0,0:0:0:0:
512,176,155208,6,0,P|488:192|448:200,1,50,2|0,0:0|0:0,0:0:0:0:
264,160,155480,1,0,0:0:0:0:
186,241,155617,2,0,P|152:176|168:104,1,150.000005722046,2|0,0:0|0:0,0:0:0:0:
344,88,156026,6,0,B|372:82|360:48|360:48|327:37|321:65,1,100,2|0,0:0|0:0,0:0:0:0:
216,96,156435,6,0,B|194:51|142:85|142:85|139:146|188:143,1,175.00000166893,2|0,0:0|0:0,0:0:0:0:
165,251,156844,6,0,B|80:245|86:350|86:350|174:408|212:332,1,300,2|0,0:0|0:0,0:0:0:0:
16,120,157390,6,0,P|20:148|36:174,1,50,2|0,0:0|0:0,0:0:0:0:
168,224,157662,1,0,0:0:0:0:
54,35,157799,2,0,P|25:103|46:174,1,150.000005722046,2|0,0:0|0:0,0:0:0:0:
168,224,158208,6,0,B|192:218|192:218|205:197|205:197|180:198|180:198|164:217,1,100,2|0,0:0|0:0,0:0:0:0:
344,288,158617,6,0,B|314:255|314:255|271:254|271:254|294:291|294:291|337:299,1,175.00000166893,2|0,0:0|0:0,0:0:0:0:
283,32,159026,6,0,B|256:103|256:103|291:167|291:167|327:103|327:103|298:31,1,300,2|0,0:0|0:0,0:0:0:0:
401,77,159571,6,0,P|405:115|393:142,1,50,2|0,0:0|0:0,0:0:0:0:
352,224,159844,1,0,0:0:0:0:
500,228,159980,2,0,B|450:222|450:222|394:230|394:230|338:222,1,150.000005722046,2|0,0:0|0:0,0:0:0:0:
232,120,160390,6,0,P|197:112|230:125,1,100,2|0,0:0|0:0,0:0:0:0:
227,121,160799,6,0,P|169:111|224:129,1,175.00000166893,2|0,0:0|0:0,0:0:0:0:
227,121,161208,6,0,P|129:98|221:134,1,300,2|0,0:0|0:0,0:0:0:0:
336,32,161753,6,0,P|304:48|264:48,1,50,2|0,0:0|0:0,0:0:0:0:
120,0,162026,1,0,0:0:0:0:
160,178,162162,2,0,B|155:210|144:233|131:256|107:273|107:273|120:255|124:216,1,150.000005722046,2|0,0:0|0:0,0:0:0:0:
152,8,162571,6,0,B|160:88|160:88|144:64,1,100,2|0,0:0|0:0,0:0:0:0:
248,24,162980,6,0,B|262:165|262:165|241:120,1,175.00000166893,2|0,0:0|0:0,0:0:0:0:
344,32,163390,6,0,B|368:273|368:273|345:208,1,300,2|0,0:0|0:0,0:0:0:0:
360,352,163935,6,0,P|388:352|432:313,1,50,2|0,0:0|0:0,0:0:0:0:
456,224,164208,1,0,0:0:0:0:
424,352,164344,2,0,P|366:366|271:306,1,150.000005722046,2|0,0:0|0:0,0:0:0:0:
232,232,164753,6,0,B|207:246|193:260|182:286|182:286|179:262|190:235,1,100,2|0,0:0|0:0,0:0:0:0:
272,144,165162,6,0,B|245:134|217:134|187:146|148:175|148:175|160:150|197:124,1,175.00000166893,2|0,0:0|0:0,0:0:0:0:
359,103,165571,6,0,B|336:69|303:51|267:41|223:39|182:48|155:61|155:61|171:47|197:32|242:27,1,300,2|0,0:0|0:0,0:0:0:0:
417,184,166117,6,0,P|455:171|477:131,1,50,2|0,0:0|0:0,0:0:0:0:
512,24,166390,1,0,0:0:0:0:
473,176,166526,2,0,P|420:196|331:162,1,150.000005722046,2|0,0:0|0:0,0:0:0:0:
208,64,166935,6,0,B|232:55|255:64|255:64|279:72|312:64,1,100,2|0,0:0|0:0,0:0:0:0:
167,159,167344,6,0,B|207:135|255:159|255:159|311:183|350:158,1,175.00000166893,2|0,0:0|0:0,0:0:0:0:
111,271,167753,6,0,B|187:223|250:270|250:270|315:319|391:271,1,300,2|0,0:0|0:0,0:0:0:0:
304,368,168299,6,0,P|279:336|270:309,1,50,2|0,0:0|0:0,0:0:0:0:
272,184,168571,1,0,0:0:0:0:
279,35,168708,2,0,B|271:83|271:83|279:131|279:131|271:187,1,150.000005722046,2|0,0:0|0:0,0:0:0:0:
208,264,169117,6,0,P|263:286|306:280,1,100,2|0,0:0|0:0,0:0:0:0:
192,272,169526,6,0,P|279:299|359:259,1,175.00000166893,2|0,0:0|0:0,0:0:0:0:
176,280,169935,6,0,P|327:301|412:167,1,300,2|0,0:0|0:0,0:0:0:0:
400,56,170480,6,0,P|397:84|404:113,1,50,2|0,0:0|0:0,0:0:0:0:
464,280,170753,1,0,0:0:0:0:
401,105,170890,2,0,P|352:48|264:24,1,150.000005722046,2|0,0:0|0:0,0:0:0:0:
160,248,171299,6,0,B|134:251|134:251|149:274|149:274|176:275|176:275|166:252,1,100,2|0,0:0|0:0,0:0:0:0:
256,312,171708,6,0,B|280:348|280:348|300:308|300:308|280:268|280:268|256:304,1,175.00000166893,0|0,0:3|0:3,0:0:0:0:
312,184,172117,6,0,B|354:122|354:122|274:127|274:127|230:194|230:194|305:188,1,300,2|0,0:0|0:0,0:0:0:0:
424,88,172662,6,0,P|432:124|415:164,1,50,2|0,0:0|0:0,0:0:0:0:
392,248,172935,1,0,0:0:0:0:
288,296,173071,2,0,P|361:359|439:353,1,150.000005722046,2|0,0:0|0:0,0:0:0:0:
224,192,173480,6,0,B|229:213|223:233|223:233|236:217|258:212|258:212|241:204|232:197,1,100,2|0,0:0|0:0,0:0:0:0:
200,104,173890,6,0,B|163:94|140:68|140:68|151:100|142:137|142:137|163:115|190:118,1,175.00000166893,2|0,0:0|0:0,0:0:0:0:
280,128,174299,6,0,B|326:81|383:70|383:70|326:58|280:12|280:12|294:61|274:88,1,300,2|0,0:0|0:0,0:0:0:0:
448,128,174844,6,0,P|416:144|371:142,1,50,2|0,0:0|0:0,0:0:0:0:
208,88,175117,1,0,0:0:0:0:
128,8,175253,2,0,P|96:80|121:157,1,150.000005722046,2|0,0:0|0:0,0:0:0:0:
160,240,175662,6,0,B|187:214|187:214|198:250|198:250|160:240,1,100,2|0,0:0|0:0,0:0:0:0:
336,192,176071,6,0,B|271:198|271:198|309:250|309:250|334:195,1,175.00000166893,2|0,0:0|0:0,0:0:0:0:
176,32,176480,6,0,B|213:132|213:132|278:50|278:50|191:34,1,300,2|0,0:0|0:0,0:0:0:0:
56,40,177026,6,0,P|44:69|46:96,1,50,2|0,0:0|0:0,0:0:0:0:
160,224,177299,1,0,0:0:0:0:
40,32,177435,2,0,P|29:72|69:174,1,150.000005722046,2|0,0:0|0:0,0:0:0:0:
160,224,177844,6,0,B|140:258|140:258|139:267|139:267|132:272|132:272|108:314,1,100,2|0,0:0|0:0,0:0:0:0:
288,192,178253,6,0,B|256:247|256:247|254:265|254:265|240:275|240:275|200:344,1,175.00000166893,2|0,0:0|0:0,0:0:0:0:
440,118,178662,6,0,B|380:221|380:221|377:257|377:257|348:277|348:277|288:381,1,300,2|0,0:0|0:0,0:0:0:0:
472,352,179208,6,0,P|464:320|448:304,1,50,2|0,0:0|0:0,0:0:0:0:
167,96,179480,5,2,0:0:0:0:
367,64,179617,1,2,0:0:0:0:
224,208,179753,1,2,0:0:0:0:
255,7,179890,1,2,0:0:0:0:
347,187,180026,5,2,0:2:0:0:
