osu file format v14

[General]
AudioFilename: audio.mp3
AudioLeadIn: 0
PreviewTime: 105844
Countdown: 0
SampleSet: None
StackLeniency: 0.7
Mode: 0
LetterboxInBreaks: 0
WidescreenStoryboard: 0

[Editor]
DistanceSpacing: 1
BeatDivisor: 4
GridSize: 8
TimelineZoom: 1.6

[Metadata]
Title:Rolling cup
TitleUnicode:Rolling cup
Artist:PIKASONIC
ArtistUnicode:PIKASONIC
Creator:syoutoku1
Version:Easy
Source:
Tags:Melodic Dubstep
BeatmapID:1582986
BeatmapSetID:746797

[Difficulty]
HPDrainRate:2
CircleSize:3
OverallDifficulty:2
ApproachRate:3
SliderMultiplier:1.1
SliderTickRate:2

[Events]
//Background and Video events
0,0,"rollingcup.jpg",0,0
//Break Periods
2,71135,73859
//Storyboard Layer 0 (Background)
//Storyboard Layer 1 (Fail)
//Storyboard Layer 2 (Pass)
//Storyboard Layer 3 (Foreground)
//Storyboard Sound Samples

[TimingPoints]
1117.29603672471,545.454545454546,4,3,1,45,1,0
18571,-100,4,3,1,65,0,0
31662,-100,4,3,1,75,0,0
36026,-100,4,3,1,85,0,0
75299,-100,4,3,1,45,0,0
92753,-100,4,3,1,65,0,0
105844,-100,4,3,1,85,0,0
110071,-100,4,3,1,85,0,1
142662,-100,4,3,1,85,0,0

[Colours]
Combo1 : 255,128,255
Combo2 : 128,255,128
Combo3 : 119,187,255
Combo4 : 255,128,128
Combo5 : 255,180,104
SliderTrackOverride : 178,178,178

[HitObjects]
168,72,1117,6,0,L|153:181,1,110,2|0,0:2|0:0,0:0:0:0:
80,264,2208,2,0,P|133:290|191:285,1,110,2|0,0:2|0:0,0:0:0:0:
282,334,3299,2,0,P|337:314|375:270,1,110,2|0,0:2|0:0,0:0:0:0:
474,241,4390,2,0,P|500:187|494:129,1,110,2|0,0:2|0:0,0:0:0:0:
508,28,5480,6,0,P|449:18|390:50,1,110,2|0,0:2|0:0,0:0:0:0:
310,96,6571,2,0,P|256:102|206:78,1,110,2|0,0:2|0:0,0:0:0:0:
144,0,7662,2,0,P|110:54|111:117,1,110,2|0,0:2|0:0,0:0:0:0:
200,160,8753,2,0,P|151:203|91:209,1,110,2|0,0:2|0:0,0:0:0:0:
24,144,9844,6,0,P|1:208|44:299,2,165,2|2|0,0:2|0:2|0:0,0:0:0:0:
109,213,12026,6,0,L|218:197,1,110,2|0,0:2|0:0,0:0:0:0:
308,259,13117,1,2,0:2:0:0:
401,317,13662,1,0,0:0:0:0:
465,227,14208,6,0,P|497:179|505:107,1,110,2|0,0:2|0:0,0:0:0:0:
444,36,15299,2,0,P|412:84|404:156,1,110,2|0,0:2|0:0,0:0:0:0:
402,244,16390,6,0,P|374:321|278:338,2,165,2|2|2,0:2|0:2|0:2,0:0:0:0:
402,134,18571,6,0,P|412:77|451:31,1,110,2|0,0:2|0:0,0:0:0:0:
333,24,19662,1,2,0:2:0:0:
222,24,20208,1,0,0:0:0:0:
117,56,20753,2,0,P|149:99|158:153,1,110,2|0,0:2|0:0,0:0:0:0:
237,229,21844,1,2,0:2:0:0:
206,334,22390,1,0,0:0:0:0:
96,332,22935,6,0,P|72:276|88:196,1,110,2|0,0:2|0:0,0:0:0:0:
124,129,24026,1,2,0:2:0:0:
215,68,24571,1,0,0:0:0:0:
323,50,25117,2,0,L|339:170,1,110,2|0,0:2|0:0,0:0:0:0:
400,249,26208,1,2,0:2:0:0:
398,358,26753,1,0,0:0:0:0:
288,346,27299,6,0,B|164:324|242:364|107:340,2,165,2|2|0,0:2|0:2|0:0,0:0:0:0:
393,313,29480,6,0,P|373:271|310:240,1,110,2|0,0:2|0:0,0:0:0:0:
209,230,30571,1,2,0:2:0:0:
120,164,31117,1,0,0:0:0:0:
209,100,31662,6,0,P|273:84|337:100,1,110,2|0,0:2|0:0,0:0:0:0:
270,191,32753,2,0,P|334:207|398:191,1,110,2|0,0:2|0:0,0:0:0:0:
442,111,33844,2,0,P|485:188|461:274,2,165,2|2|2,0:2|0:2|0:2,0:0:0:0:
347,166,36026,6,0,P|291:190|243:190,1,110,2|2,0:0|0:0,0:0:0:0:
187,184,36844,2,0,P|132:185|82:207,1,110,2|0,0:0|0:0,0:0:0:0:
171,347,38208,5,2,0:0:0:0:
266,292,38753,2,0,L|382:318,1,110,2|0,0:0|0:0,0:0:0:0:
468,261,39844,1,0,0:0:0:0:
391,181,40390,6,0,B|341:157|341:157|272:159,1,110,2|2,0:0|0:0,0:0:0:0:
231,160,41208,2,0,B|175:160|175:160|113:129,1,110,2|0,0:0|0:0,0:0:0:0:
263,43,42571,6,0,P|301:56|346:115,1,110,2|2,0:0|0:0,0:0:0:0:
360,161,43390,2,0,P|391:205|441:226,1,110,2|2,0:0|0:0,0:0:0:0:
295,303,44753,6,0,L|171:280,1,110,2|2,0:0|0:0,0:0:0:0:
132,272,45571,2,0,P|118:224|134:162,1,110,2|0,0:0|0:0,0:0:0:0:
264,69,46935,5,2,0:0:0:0:
372,86,47480,2,0,P|405:117|419:182,1,110,2|0,0:0|0:0,0:0:0:0:
373,278,48571,1,0,0:0:0:0:
288,207,49117,6,0,P|257:194|175:199,1,110,2|2,0:0|0:0,0:0:0:0:
138,230,49935,2,0,P|122:282|129:336,1,110,2|0,0:0|0:0,0:0:0:0:
289,375,51299,6,0,P|305:323|298:269,1,110,2|2,0:0|0:0,0:0:0:0:
281,216,52117,2,0,P|273:161|289:109,1,110,2|2,0:0|0:0,0:0:0:0:
447,60,53480,6,0,B|388:37|388:37|330:31,1,110,2|2,0:0|0:0,0:0:0:0:
286,30,54299,2,0,B|222:25|222:25|178:10,1,110,2|0,0:0|0:0,0:0:0:0:
58,123,55662,5,2,0:0:0:0:
66,232,56208,2,0,L|41:345,1,110,2|0,0:0|0:0,0:0:0:0:
145,301,57299,1,0,0:0:0:0:
245,255,57844,6,0,P|295:248|357:268,1,110,2|2,0:0|0:0,0:0:0:0:
399,291,58662,2,0,P|451:307|505:300,1,110,2|0,0:0|0:0,0:0:0:0:
463,140,60026,6,0,P|425:84|371:58,1,110,2|2,0:0|0:0,0:0:0:0:
340,38,60844,2,0,P|282:20|212:28,1,110,2|2,0:0|0:0,0:0:0:0:
89,103,62208,6,0,P|147:121|217:113,1,110,2|2,0:0|0:0,0:0:0:0:
246,97,63026,2,0,P|267:126|278:207,1,110,2|0,0:0|0:0,0:0:0:0:
133,275,64390,5,2,0:0:0:0:
235,315,64935,2,0,P|288:324|343:307,1,110,2|0,0:0|0:0,0:0:0:0:
430,243,66026,1,0,0:0:0:0:
356,161,66571,6,0,L|232:138,1,110,2|2,0:0|0:0,0:0:0:0:
193,131,67390,2,0,P|171:178|179:237,1,110,2|0,0:0|0:0,0:0:0:0:
309,333,68753,6,0,P|331:286|323:227,1,110,2|2,0:0|0:0,0:0:0:0:
269,223,69571,2,0,L|154:206,1,110,2|2,0:0|0:0,0:0:0:0:
3,258,70935,5,2,0:2:0:0:
3,258,75299,6,0,P|59:256|128:223,1,110,2|0,0:2|0:0,0:0:0:0:
205,184,76390,2,0,P|261:186|330:219,1,110,2|0,0:2|0:0,0:0:0:0:
364,301,77480,2,0,P|334:348|271:391,1,110,2|0,0:2|0:0,0:0:0:0:
183,380,78571,2,0,P|156:330|150:254,1,110,2|0,0:2|0:0,0:0:0:0:
177,171,79663,5,2,0:2:0:0:
209,66,80208,1,0,0:0:0:0:
344,160,81026,2,0,B|422:173|422:173|524:147,2,165,2|2|2,0:2|0:2|0:2,0:0:0:0:
181,132,83480,1,2,0:2:0:0:
75,161,84026,6,0,P|55:211|73:265,1,110,2|0,0:2|0:0,0:0:0:0:
152,337,85117,2,0,P|202:357|256:339,1,110,2|0,0:2|0:0,0:0:0:0:
328,260,86208,2,0,P|348:210|330:156,1,110,2|0,0:2|0:0,0:0:0:0:
251,84,87299,2,0,P|201:64|147:82,1,110,2|0,0:2|0:0,0:0:0:0:
114,184,88390,6,0,P|180:213|274:200,1,165,2|2,0:2|0:2,0:0:0:0:
364,144,89753,2,0,B|378:189|366:233|366:233|354:277|372:324,2,165,2|2|2,0:2|0:2|0:2,0:0:0:0:
250,23,92208,1,2,0:2:0:0:
162,89,92753,6,0,B|154:145|154:145|165:200,1,110,2|0,0:2|0:0,0:0:0:0:
205,299,93844,2,0,P|144:306|98:283,1,110,2|0,0:2|0:0,0:0:0:0:
61,183,94935,2,0,P|122:176|168:199,1,110,2|0,0:2|0:0,0:0:0:0:
245,271,96026,2,0,P|294:292|348:284,1,110,2|0,0:2|0:0,0:0:0:0:
413,195,97117,6,0,P|401:147|305:81,1,165,2|2,0:2|0:2,0:0:0:0:
205,110,98480,2,0,P|154:117|96:85,1,110,2|0,0:2|0:0,0:0:0:0:
56,62,99299,2,0,P|9:108|4:173,1,110,2|0,0:2|0:0,0:0:0:0:
26,197,100117,2,0,P|33:248|0:306,2,110,2|2|0,0:2|0:0|0:0,0:0:0:0:
4,146,101480,6,0,L|124:132,1,110,2|0,0:2|0:0,0:0:0:0:
216,171,102571,1,2,0:2:0:0:
318,208,103117,1,0,0:0:0:0:
396,285,103662,6,0,P|423:236|422:180,1,110,2|0,0:2|0:0,0:0:0:0:
370,86,104753,1,2,0:2:0:0:
290,162,105299,1,0,0:0:0:0:
267,269,105844,6,0,P|187:261|123:189,1,165,2|2,0:2|0:2,0:0:0:0:
130,148,107208,2,0,P|174:121|244:122,1,110,2|0,0:2|0:0,0:0:0:0:
284,133,108026,2,0,B|321:145|361:135|361:135|400:125|452:141,2,165,2|2|2,0:2|0:2|0:2,0:0:0:0:
205,57,110208,6,0,P|178:107|177:170,1,110,2|2,0:0|0:0,0:0:0:0:
179,214,111026,2,0,P|175:268|148:316,1,110,2|0,0:0|0:0,0:0:0:0:
62,175,112390,5,2,0:0:0:0:
150,109,112935,2,0,P|207:93|269:115,1,110,2|0,0:0|0:0,0:0:0:0:
287,210,114026,1,0,0:0:0:0:
369,282,114571,6,0,P|394:232|388:171,1,110,2|0,0:0|0:0,0:0:0:0:
367,129,115390,1,2,0:0:0:0:
264,90,115935,1,2,0:0:0:0:
250,143,116208,1,0,0:0:0:0:
200,241,116753,6,0,P|153:262|91:257,1,110,2|2,0:0|0:0,0:0:0:0:
53,222,117571,2,0,P|59:167|89:122,1,110,2|2,0:0|0:0,0:0:0:0:
253,103,118935,6,0,P|246:157|216:202,1,110,2|2,0:0|0:0,0:0:0:0:
178,242,119753,2,0,P|147:287|141:341,1,110,2|2,0:0|0:0,0:0:0:0:
306,348,121117,5,2,0:0:0:0:
401,294,121662,2,0,P|441:248|454:182,1,110,2|0,0:0|0:0,0:0:0:0:
423,95,122753,1,0,0:0:0:0:
340,167,123299,6,0,B|268:162|268:162|217:135,1,110,2|2,0:0|0:0,0:0:0:0:
185,119,124117,1,2,0:0:0:0:
80,153,124662,1,2,0:0:0:0:
65,205,124935,1,0,0:0:0:0:
93,311,125480,6,0,P|152:313|213:283,1,110,2|2,0:0|0:0,0:0:0:0:
245,264,126299,2,0,P|295:244|350:247,1,110,2|2,0:0|0:0,0:0:0:0:
484,342,127662,6,0,P|507:292|508:238,1,110,2|2,0:0|0:0,0:0:0:0:
472,197,128480,2,0,P|417:200|369:227,1,110,2|0,0:0|0:0,0:0:0:0:
306,379,129844,5,2,0:0:0:0:
249,284,130390,2,0,L|122:269,1,110,2|0,0:0|0:0,0:0:0:0:
82,176,131480,1,0,0:0:0:0:
190,159,132026,6,0,L|299:146,1,110,2|2,0:0|0:0,0:0:0:0:
347,171,132844,1,2,0:0:0:0:
456,156,133390,1,2,0:0:0:0:
486,110,133662,1,0,0:0:0:0:
397,45,134208,6,0,L|287:32,1,110,2|2,0:0|0:0,0:0:0:0:
233,25,135026,2,0,P|211:70|219:150,1,110,2|0,0:0|0:0,0:0:0:0:
343,228,136390,6,0,P|371:259|394:324,1,110,2|2,0:0|0:0,0:0:0:0:
364,369,137208,2,0,P|321:378|255:365,1,110,2|0,0:0|0:0,0:0:0:0:
183,217,138571,5,2,0:0:0:0:
150,111,139117,2,0,P|130:58|88:14,1,110,2|0,0:0|0:0,0:0:0:0:
37,112,140208,1,0,0:0:0:0:
89,208,140753,6,0,P|140:231|201:232,1,110,2|2,0:0|0:0,0:0:0:0:
246,221,141571,1,2,0:0:0:0:
342,167,142117,1,2,0:0:0:0:
396,173,142390,1,0,0:0:0:0:
479,244,142935,6,0,P|498:216|503:165,2,82.5,2|2|2,0:0|0:0|0:0,0:0:0:0:
376,284,144299,1,2,0:0:0:0:
211,272,145117,6,0,P|177:265|138:233,2,82.5,2|2|2,0:0|0:0|0:0,0:0:0:0:
301,208,146480,1,2,0:0:0:0:
242,53,147299,6,0,P|283:39|331:47,2,82.5,2|2|2,0:0|0:0|0:0,0:0:0:0:
169,136,148662,1,2,0:0:0:0:
213,294,149480,6,0,P|179:303|133:296,2,82.5,2|2|2,0:0|0:0|0:0,0:0:0:0:
297,222,150844,1,2,0:0:0:0:
149,147,151662,6,0,P|108:140|55:157,2,82.5,2|2|2,0:0|0:0|0:0,0:0:0:0:
186,250,153026,1,2,0:0:0:0:
328,332,153844,6,0,L|240:352,2,82.5,2|2|2,0:0|0:0|0:0,0:0:0:0:
434,303,155208,1,2,0:0:0:0:
335,171,156026,6,0,L|247:191,2,82.5,2|2|2,0:0|0:0|0:0,0:0:0:0:
422,103,157390,1,2,0:0:0:0:
290,3,158208,6,0,L|280:93,2,82.5,2|2|2,0:0|0:0|0:0,0:0:0:0:
185,37,159571,1,2,0:0:0:0:
104,181,160390,6,0,L|94:264,2,82.5,2|2|2,0:0|0:0|0:0,0:0:0:0:
201,231,161753,1,2,0:0:0:0:
320,345,162571,6,0,P|364:362|410:341,2,82.5,2|2|2,0:0|0:0|0:0,0:0:0:0:
319,234,163935,1,2,0:0:0:0:
238,90,164753,6,0,P|198:68|156:72,2,82.5,2|2|2,0:0|0:0|0:0,0:0:0:0:
238,200,166117,1,2,0:0:0:0:
107,301,166935,6,0,P|73:271|62:226,2,82.5,2|2|0,0:0|0:0|0:0,0:0:0:0:
213,274,168299,1,2,0:0:0:0:
338,167,169117,6,0,P|377:152|434:174,2,82.5,2|2|2,0:0|0:0|0:0,0:0:0:0:
293,267,170480,1,2,0:0:0:0:
438,344,171299,6,0,B|454:288|454:288|445:259,2,82.5,2|2|2,0:0|0:0|0:0,0:0:0:0:
331,316,172662,1,2,0:0:0:0:
168,285,173480,6,0,B|110:298|110:298|79:292,2,82.5,2|2|2,0:0|0:0|0:0,0:0:0:0:
226,191,174844,1,2,0:0:0:0:
368,107,175662,6,0,B|426:94|426:94|457:100,2,82.5,2|2|2,0:0|0:0|0:0,0:0:0:0:
310,201,177026,1,2,0:0:0:0:
256,357,177844,6,0,B|246:293|246:293|252:270,2,82.5,2|2|2,0:0|0:0|0:0,0:0:0:0:
352,304,179208,1,0,0:0:0:0:
411,150,180026,5,2,0:2:0:0:
