osu file format v14

[General]
AudioFilename: audio.mp3
AudioLeadIn: 0
PreviewTime: 70046
Countdown: 0
SampleSet: None
StackLeniency: 0.7
Mode: 0
LetterboxInBreaks: 0
WidescreenStoryboard: 1

[Editor]
Bookmarks: 18569,36024,53478,70933,105842,123296,140751,175660,228024
DistanceSpacing: 0.6
BeatDivisor: 4
GridSize: 4
TimelineZoom: 2.5

[Metadata]
Title:New Start!
TitleUnicode:New Start!
Artist:PIKASONIC
ArtistUnicode:PIKASONIC
Creator:Paloch VeGa
Version:Drop Test By InverNOOB
Source:
Tags:
BeatmapID:2436922
BeatmapSetID:841027

[Difficulty]
HPDrainRate:7
CircleSize:4.2
OverallDifficulty:7.5
ApproachRate:9.3
SliderMultiplier:1.17
SliderTickRate:1

[Events]
//Background and Video events
0,0,"bg (1 of 1).jpg",0,0
//Break Periods
2,53678,61651
//Storyboard Layer 0 (Background)
//Storyboard Layer 1 (Fail)
//Storyboard Layer 2 (Pass)
//Storyboard Layer 3 (Foreground)
//Storyboard Layer 4 (Overlay)
//Storyboard Sound Samples

[TimingPoints]
1114.99739597163,272.727272727273,4,2,0,40,1,0
18569,-133.333333333333,4,2,0,40,0,0
35478,-200,4,2,0,40,0,0
36024,-133.333333333333,4,2,0,40,0,0
44342,-200,4,2,0,40,0,0
44751,-133.333333333333,4,2,0,40,0,0
53205,-200,4,2,0,40,0,0
53478,-133.333333333333,4,2,0,40,0,0
67933,-111.111111111111,4,2,0,40,0,0
68205,-100,4,2,0,40,0,0
68478,-80,4,2,0,40,0,0
70114,-80,4,2,0,40,0,0
70387,-66.6666666666667,4,2,0,40,0,0
71342,-50,4,2,0,40,0,0
71614,-66.6666666666667,4,2,0,40,0,0
72569,-50,4,2,0,40,0,0
72842,-66.6666666666667,4,2,0,40,0,0
76933,-50,4,2,0,40,0,0
77205,-66.6666666666667,4,2,0,40,0,0
175660,-100,4,2,0,40,0,1
192842,-100,4,2,0,40,0,0
193114,-100,4,2,0,40,0,1
210296,-100,4,2,0,40,0,0
210569,-100,4,2,0,40,0,1
228024,-100,4,2,0,40,0,0

[HitObjects]
184,180,18569,6,0,P|237:190|278:180,1,87.750003347397
376,132,18978,1,0,0:0:0:0:
376,132,19251,2,0,L|385:186,1,43.8750016736985
282,167,19933,6,0,L|291:221,1,43.8750016736985
194,205,20205,2,0,L|188:248,1,43.8750016736985
95,234,20478,2,0,L|104:288,1,43.8750016736985
123,147,20751,5,0,0:0:0:0:
123,147,21024,2,0,P|87:143|67:150,1,43.8750016736985
194,205,21433,1,0,0:0:0:0:
194,205,21569,2,0,B|228:224|246:192|282:210,1,87.750003347397
372,276,22114,6,0,P|400:280|432:272,1,43.8750016736985
285,165,22387,2,0,L|277:221,1,43.8750016736985
362,86,22660,1,0,0:0:0:0:
362,86,22933,5,0,0:0:0:0:
204,54,23342,2,0,P|172:54|144:62,1,43.8750016736985
247,188,23614,2,0,L|261:141,1,43.8750016736985
97,141,24296,6,0,L|88:192,1,43.8750016736985
187,175,24569,2,0,L|192:223,1,43.8750016736985
284,202,24842,2,0,L|275:253,1,43.8750016736985
375,172,25114,5,0,0:0:0:0:
375,172,25387,2,0,L|384:228,1,43.8750016736985
458,77,25796,2,0,P|427:83|403:79,1,43.8750016736985
181,57,26478,6,0,P|142:54|121:62,1,43.8750016736985
239,146,26751,2,0,P|278:149|299:141,1,43.8750016736985
64,136,27024,2,0,L|52:192,1,43.8750016736985
33,304,27296,5,0,0:0:0:0:
33,304,27705,2,0,L|88:316,1,43.8750016736985
225,253,27978,2,0,L|173:274,1,43.8750016736985
387,275,28660,6,0,P|418:278|444:272,1,43.8750016736985
299,166,28933,2,0,L|273:216,1,43.8750016736985
435,148,29205,2,0,P|431:120|420:96,1,43.8750016736985
270,40,29478,6,0,L|259:96,1,43.8750016736985
149,40,29751,1,0,0:0:0:0:
165,125,29887,2,0,L|176:184,1,43.8750016736985
114,225,30160,2,0,P|147:245|167:245,1,43.8750016736985
149,328,30433,6,0,P|185:323|202:308,1,43.8750016736985
272,342,30705,2,0,P|273:306|264:283,1,43.8750016736985
335,245,30978,2,0,P|312:225|291:219,1,43.8750016736985
270,147,31251,2,0,P|244:162|231:183,1,43.8750016736985
413,102,31524,6,0,L|405:54,1,43.8750016736985
301,282,31933,2,0,P|332:285|357:276,1,43.8750016736985
188,184,32342,2,0,L|176:240,1,43.8750016736985
81,108,32614,6,0,P|113:116|137:112,1,43.8750016736985
275,160,32887,2,0,P|244:177|229:179,1,43.8750016736985
103,231,33160,2,0,P|122:254|142:262,1,43.8750016736985
234,303,33433,2,0,P|220:332|208:344,1,43.8750016736985
227,168,33842,6,0,P|259:164|279:168,1,43.8750016736985
134,259,34114,1,0,0:0:0:0:
151,117,34251,2,0,L|157:64,1,43.8750016736985
90,19,34524,1,0,0:0:0:0:
77,186,34660,1,0,0:0:0:0:
217,326,35205,6,0,P|257:330|273:326,1,43.8750016736985
337,259,35478,2,0,P|388:251|456:264,1,117
442,219,36433,6,0,L|454:275,1,43.8750016736985
414,106,36842,1,0,0:0:0:0:
226,102,37387,6,0,P|192:104|176:100,1,43.8750016736985
298,56,37660,1,0,0:0:0:0:
322,218,37796,2,0,L|329:262,1,43.8750016736985
310,139,38205,5,0,0:0:0:0:
310,139,38614,2,0,P|344:144|368:140,1,43.8750016736985
219,67,38887,1,0,0:0:0:0:
198,183,39024,1,0,0:0:0:0:
173,314,39569,6,0,L|182:265,1,43.8750016736985
42,187,39842,2,0,P|48:220|56:236,1,43.8750016736985
190,103,40114,2,0,P|187:76|176:49,1,43.8750016736985
138,186,40387,5,0,0:0:0:0:
272,309,40796,2,0,P|304:313|329:306,1,43.8750016736985
178,306,41205,1,0,0:0:0:0:
400,155,41751,6,0,P|430:152|456:155,1,43.8750016736985
280,78,42024,2,0,P|262:53|252:29,1,43.8750016736985
277,225,42296,2,0,P|264:252|249:273,1,43.8750016736985
318,152,42569,5,0,0:0:0:0:
318,152,42978,2,0,L|329:206,1,43.8750016736985
242,110,43251,1,0,0:0:0:0:
203,247,43387,1,0,0:0:0:0:
203,247,43933,6,0,L|216:191,1,43.8750016736985
240,71,44205,1,0,0:0:0:0:
213,204,44342,2,0,L|194:294,1,87.75
194,289,45160,6,0,P|224:292|248:288,1,43.8750016736985
127,236,45569,1,0,0:0:0:0:
382,240,46114,6,0,P|412:238|438:245,1,43.8750016736985
311,290,46387,1,0,0:0:0:0:
236,327,46524,2,0,P|206:329|180:322,1,43.8750016736985
125,116,46933,5,0,0:0:0:0:
125,116,47342,2,0,L|136:168,1,43.8750016736985
248,71,47614,1,0,0:0:0:0:
209,210,47751,1,0,0:0:0:0:
386,135,48160,6,0,L|394:191,1,43.8750016736985
404,258,48433,1,0,0:0:0:0:
322,67,48569,1,0,0:0:0:0:
207,175,48705,2,0,P|171:187|149:185,1,43.8750016736985
392,178,49114,5,0,0:0:0:0:
342,304,49660,2,0,P|306:312|286:308,1,43.8750016736985
392,178,50069,1,0,0:0:0:0:
392,178,50478,6,0,L|384:120,1,43.8750016736985
261,279,50751,1,0,0:0:0:0:
353,318,50887,2,0,P|389:322|405:314,1,43.8750016736985
172,244,51296,5,0,0:0:0:0:
154,110,51705,2,0,L|162:170,1,43.8750016736985
76,56,51978,1,0,0:0:0:0:
36,224,52114,1,0,0:0:0:0:
328,300,52660,6,0,P|344:268|344:244,1,43.8750016736985
265,154,52933,2,0,P|284:183|305:195,1,43.8750016736985
439,180,53206,2,0,P|402:175|370:184,1,58.5,0|0,2:0|2:0,2:0:0:0:
256,192,62205,12,0,66569,0:0:0:0:
260,232,66842,5,0,0:0:0:0:
281,159,67114,1,0,0:0:0:0:
208,177,67387,1,0,0:0:0:0:
335,215,67660,6,0,L|381:205,1,43.8750016736985
188,251,67933,2,0,L|170:310,1,52.6499983932496
229,103,68205,2,0,L|187:53,1,58.5
377,205,68478,2,0,L|452:189,1,73.125
274,192,68751,5,0,0:0:0:0:
92,78,70114,5,0,0:0:0:0:
145,91,70251,1,0,0:0:0:0:
195,104,70387,2,0,B|223:135|223:135|208:198,1,87.750003347397
150,322,70660,2,0,B|122:291|122:291|137:228,1,87.750003347397
320,182,70933,5,0,0:0:0:0:
333,230,71069,1,0,0:0:0:0:
413,305,71205,1,0,0:0:0:0:
426,257,71341,1,0,0:0:0:0:
481,167,71478,1,0,0:0:0:0:
467,116,71614,1,0,0:0:0:0:
452,65,71751,2,0,B|387:54|387:54|336:69|336:69|273:56,1,175.500006694794
80,95,72296,6,0,L|142:105,1,43.8750016736985
242,226,72569,2,0,P|237:198|201:257,1,175.5
215,268,72842,2,0,L|121:278,1,87.750003347397
307,329,73114,5,0,0:0:0:0:
359,324,73251,1,0,0:0:0:0:
411,318,73387,2,0,P|433:273|427:227,1,87.750003347397
276,134,73660,1,0,0:0:0:0:
404,220,73796,1,0,0:0:0:0:
247,117,73933,1,0,0:0:0:0:
247,117,74478,6,0,L|148:131,1,87.750003347397
341,187,74751,1,0,0:0:0:0:
393,190,74887,1,0,0:0:0:0:
436,159,75024,2,0,L|448:70,1,87.750003347397
479,314,75296,6,0,P|439:288|387:292,1,87.750003347397
268,343,75569,1,0,0:0:0:0:
319,354,75705,1,0,0:0:0:0:
155,277,75842,1,0,0:0:0:0:
105,295,75978,1,0,0:0:0:0:
283,232,76114,1,0,0:0:0:0:
108,248,76660,2,0,L|110:301,1,43.8750016736985
43,127,76933,6,0,P|83:78|95:152,1,175.5
79,171,77205,2,0,P|123:166|167:185,1,87.750003347397
258,283,77478,5,0,0:0:0:0:
298,249,77614,1,0,0:0:0:0:
337,213,77751,2,0,P|348:164|332:122,1,87.750003347397
244,76,78024,1,0,0:0:0:0:
435,180,78160,1,0,0:0:0:0:
205,55,78296,1,0,0:0:0:0:
