osu file format v14

[General]
AudioFilename: audio.mp3
AudioLeadIn: 0
PreviewTime: 49692
Countdown: 0
SampleSet: Soft
StackLeniency: 0.7
Mode: 3
LetterboxInBreaks: 0
SpecialStyle: 0
WidescreenStoryboard: 0

[Editor]
DistanceSpacing: 1.3
BeatDivisor: 4
GridSize: 32
TimelineZoom: 1.4

[Metadata]
Title:Shizuku (feat. NEONA & KOTONOHOUSE)
TitleUnicode:Shizuku (feat. NEONA & KOTONOHOUSE)
Artist:PIKASONIC & Tatsunoshin
ArtistUnicode:PIKASONIC & Tatsunoshin
Creator:Ppass
Version:Marble Soda
Source:
Tags:4KMT Korean Mania Tournament PSYBER COMET electronic japanese LN Longnote long note ft. おみや omy happy hardcore
BeatmapID:4185651
BeatmapSetID:2011447

[Difficulty]
HPDrainRate:8.5
CircleSize:4
OverallDifficulty:7.7
ApproachRate:5
SliderMultiplier:1.4
SliderTickRate:1

[Events]
//Background and Video events
Video,0,"1.mp4"
0,0,"background.jpg",0,0
//Break Periods
//Storyboard Layer 0 (Background)
//Storyboard Layer 1 (Fail)
//Storyboard Layer 2 (Pass)
//Storyboard Layer 3 (Foreground)
//Storyboard Layer 4 (Overlay)
//Storyboard Sound Samples
Sample,120005,0,"clap.wav",70

[TimingPoints]
1880,375,4,2,1,60,1,0
49880,-100,4,2,1,60,0,1
73880,-100,4,2,1,60,0,0
145880,-100,4,2,1,60,0,1
169880,-100,4,2,1,60,0,0

[HitObjects]
320,192,1130,128,0,1411:0:0:0:0:
192,192,1317,128,0,1598:0:0:0:0:
448,192,1505,128,0,1786:0:0:0:0:
320,192,1692,128,0,1973:0:0:0:0:
64,192,1880,128,4,2161:0:0:0:0:
192,192,1880,128,0,2067:0:0:0:0:
448,192,1880,128,0,2536:0:0:0:0:
320,192,2067,1,0,0:0:0:0:
192,192,2255,1,0,0:0:0:0:
64,192,2442,128,0,2723:0:0:0:0:
320,192,2630,128,0,3098:0:0:0:0:
448,192,2817,1,0,0:0:0:0:
64,192,3005,128,0,3286:0:0:0:0:
192,192,3192,128,0,3661:0:0:0:0:
320,192,3380,128,0,3567:0:0:0:0:
448,192,3380,128,0,3473:0:0:0:0:
64,192,3567,128,0,4223:0:0:0:0:
448,192,3755,1,0,0:0:0:0:
192,192,3942,1,0,0:0:0:0:
320,192,4130,128,0,4598:0:0:0:0:
448,192,4317,1,0,0:0:0:0:
64,192,4505,128,0,4786:0:0:0:0:
448,192,4692,128,0,5348:0:0:0:0:
192,192,4880,128,0,5067:0:0:0:0:
320,192,4880,128,0,5161:0:0:0:0:
64,192,5067,1,0,0:0:0:0:
192,192,5255,1,0,0:0:0:0:
320,192,5442,1,0,0:0:0:0:
448,192,5630,1,0,0:0:0:0:
64,192,5817,128,0,6098:0:0:0:0:
448,192,6005,128,0,6286:0:0:0:0:
320,192,6192,128,0,6473:0:0:0:0:
64,192,6380,128,0,6848:0:0:0:0:
192,192,6380,128,0,6567:0:0:0:0:
448,192,6567,1,0,0:0:0:0:
448,192,6755,128,0,7036:0:0:0:0:
320,192,6942,128,0,7411:0:0:0:0:
64,192,7130,128,0,7223:0:0:0:0:
192,192,7130,128,0,7317:0:0:0:0:
448,192,7317,128,0,7973:0:0:0:0:
64,192,7505,1,0,0:0:0:0:
320,192,7692,1,0,0:0:0:0:
64,192,7880,128,0,8348:0:0:0:0:
192,192,7880,128,0,8161:0:0:0:0:
320,192,8067,1,0,0:0:0:0:
448,192,8255,128,0,8536:0:0:0:0:
320,192,8442,128,0,8630:0:0:0:0:
192,192,8630,1,0,0:0:0:0:
64,192,8817,1,0,0:0:0:0:
192,192,9005,128,0,9286:0:0:0:0:
448,192,9192,128,0,9661:0:0:0:0:
192,192,9380,128,0,9473:0:0:0:0:
320,192,9380,128,0,9567:0:0:0:0:
64,192,9567,128,0,10036:0:0:0:0:
192,192,9755,1,0,0:0:0:0:
320,192,9942,128,0,10411:0:0:0:0:
448,192,10130,1,0,0:0:0:0:
192,192,10317,128,0,10786:0:0:0:0:
64,192,10505,128,0,10692:0:0:0:0:
320,192,10692,128,0,11067:0:0:0:0:
192,192,10880,128,0,10973:0:0:0:0:
448,192,10880,128,0,11348:0:0:0:0:
64,192,11067,1,0,0:0:0:0:
64,192,11255,128,0,11630:0:0:0:0:
448,192,11442,128,0,11630:0:0:0:0:
192,192,11536,128,0,11723:0:0:0:0:
320,192,11630,128,0,11817:0:0:0:0:
448,192,11817,1,0,0:0:0:0:
64,192,12005,1,0,0:0:0:0:
320,192,12192,128,0,12473:0:0:0:0:
64,192,12380,128,0,12848:0:0:0:0:
192,192,12380,128,0,12567:0:0:0:0:
448,192,12567,1,0,0:0:0:0:
320,192,12755,128,0,13036:0:0:0:0:
192,192,12942,128,0,13223:0:0:0:0:
320,192,13130,128,0,13317:0:0:0:0:
448,192,13130,128,0,13411:0:0:0:0:
64,192,13317,128,0,13786:0:0:0:0:
448,192,13505,128,0,13786:0:0:0:0:
192,192,13692,128,0,13786:0:0:0:0:
64,192,13880,128,4,14161:0:0:0:0:
192,192,13880,128,0,14067:0:0:0:0:
448,192,13880,128,0,13973:0:0:0:0:
320,192,14067,1,0,0:0:0:0:
448,192,14255,128,0,14442:0:0:0:0:
64,192,14442,1,0,0:0:0:0:
192,192,14489,1,0,0:0:0:0:
320,192,14536,1,0,0:0:0:0:
448,192,14583,1,0,0:0:0:0:
64,192,14630,128,0,15098:0:0:0:0:
192,192,14630,1,0,0:0:0:0:
320,192,14817,1,0,0:0:0:0:
448,192,15005,128,0,15286:0:0:0:0:
320,192,15098,1,0,0:0:0:0:
192,192,15192,128,0,15473:0:0:0:0:
64,192,15286,1,0,0:0:0:0:
320,192,15380,128,0,15567:0:0:0:0:
448,192,15380,128,0,15661:0:0:0:0:
64,192,15567,1,0,0:0:0:0:
192,192,15755,1,0,0:0:0:0:
64,192,15801,1,0,0:0:0:0:
448,192,15848,1,0,0:0:0:0:
320,192,15895,1,0,0:0:0:0:
192,192,15942,1,0,0:0:0:0:
64,192,15989,1,0,0:0:0:0:
448,192,16036,1,0,0:0:0:0:
320,192,16083,1,0,0:0:0:0:
64,192,16130,1,0,0:0:0:0:
192,192,16130,128,0,16598:0:0:0:0:
448,192,16317,1,0,0:0:0:0:
448,192,16505,128,0,16786:0:0:0:0:
64,192,16692,1,0,0:0:0:0:
320,192,16692,128,0,16973:0:0:0:0:
64,192,16880,128,0,17161:0:0:0:0:
192,192,16880,128,0,17067:0:0:0:0:
448,192,17067,1,0,0:0:0:0:
320,192,17255,1,0,0:0:0:0:
448,192,17301,1,0,0:0:0:0:
64,192,17348,1,0,0:0:0:0:
192,192,17395,1,0,0:0:0:0:
320,192,17442,1,0,0:0:0:0:
448,192,17489,1,0,0:0:0:0:
64,192,17536,1,0,0:0:0:0:
192,192,17583,1,0,0:0:0:0:
320,192,17630,1,0,0:0:0:0:
448,192,17630,1,0,0:0:0:0:
64,192,17817,128,0,18098:0:0:0:0:
320,192,18005,128,0,18286:0:0:0:0:
192,192,18192,128,0,18473:0:0:0:0:
320,192,18380,128,0,18567:0:0:0:0:
448,192,18380,128,0,18661:0:0:0:0:
64,192,18567,1,0,0:0:0:0:
192,192,18661,1,0,0:0:0:0:
448,192,18755,128,0,19036:0:0:0:0:
64,192,18942,128,0,19223:0:0:0:0:
192,192,19130,128,0,19317:0:0:0:0:
320,192,19130,128,0,19598:0:0:0:0:
448,192,19317,1,0,0:0:0:0:
448,192,19505,128,0,19786:0:0:0:0:
64,192,19692,128,0,19973:0:0:0:0:
192,192,19880,128,4,20067:0:0:0:0:
320,192,19880,128,0,20161:0:0:0:0:
448,192,19880,128,0,20255:0:0:0:0:
64,192,20255,128,0,20442:0:0:0:0:
448,192,20442,1,0,0:0:0:0:
320,192,20489,1,0,0:0:0:0:
192,192,20536,1,0,0:0:0:0:
64,192,20583,1,0,0:0:0:0:
320,192,20630,1,0,0:0:0:0:
448,192,20630,128,0,21098:0:0:0:0:
192,192,20817,1,0,0:0:0:0:
192,192,21005,128,0,21286:0:0:0:0:
64,192,21098,1,0,0:0:0:0:
320,192,21192,128,0,21473:0:0:0:0:
448,192,21286,1,0,0:0:0:0:
64,192,21380,128,0,21661:0:0:0:0:
192,192,21380,128,0,21567:0:0:0:0:
448,192,21567,1,0,0:0:0:0:
192,192,21755,1,0,0:0:0:0:
64,192,21801,1,0,0:0:0:0:
448,192,21848,1,0,0:0:0:0:
320,192,21895,1,0,0:0:0:0:
192,192,21942,1,0,0:0:0:0:
64,192,21989,1,0,0:0:0:0:
448,192,22036,1,0,0:0:0:0:
320,192,22083,1,0,0:0:0:0:
64,192,22130,128,0,22598:0:0:0:0:
192,192,22130,1,0,0:0:0:0:
320,192,22317,1,0,0:0:0:0:
448,192,22505,128,0,22786:0:0:0:0:
192,192,22692,128,0,22973:0:0:0:0:
320,192,22880,128,0,23067:0:0:0:0:
448,192,22880,128,0,23161:0:0:0:0:
64,192,23067,1,0,0:0:0:0:
320,192,23255,1,0,0:0:0:0:
448,192,23301,1,0,0:0:0:0:
64,192,23348,1,0,0:0:0:0:
192,192,23395,1,0,0:0:0:0:
320,192,23442,1,0,0:0:0:0:
448,192,23489,1,0,0:0:0:0:
64,192,23536,1,0,0:0:0:0:
192,192,23583,1,0,0:0:0:0:
320,192,23630,1,0,0:0:0:0:
448,192,23630,128,0,24098:0:0:0:0:
192,192,23817,1,0,0:0:0:0:
64,192,24005,128,0,24286:0:0:0:0:
320,192,24192,128,0,24380:0:0:0:0:
64,192,24380,128,0,24567:0:0:0:0:
192,192,24380,128,0,24473:0:0:0:0:
448,192,24567,1,0,0:0:0:0:
320,192,24614,1,0,0:0:0:0:
192,192,24661,1,0,0:0:0:0:
64,192,24708,1,0,0:0:0:0:
320,192,24755,1,0,0:0:0:0:
448,192,24755,128,0,25223:0:0:0:0:
64,192,24942,1,0,0:0:0:0:
64,192,25130,128,0,25786:0:0:0:0:
192,192,25130,128,0,25317:0:0:0:0:
320,192,25317,1,0,0:0:0:0:
448,192,25505,128,0,25786:0:0:0:0:
320,192,25692,128,0,25786:0:0:0:0:
64,192,25880,128,2,25973:0:0:0:0:
320,192,25880,128,4,26067:0:0:0:0:
448,192,25880,128,0,26348:0:0:0:0:
64,192,26255,128,0,26817:0:0:0:0:
192,192,26442,128,0,26817:0:0:0:0:
448,192,26630,1,0,0:0:0:0:
320,192,26817,1,0,0:0:0:0:
64,192,27005,1,0,0:0:0:0:
192,192,27192,128,0,27473:0:0:0:0:
320,192,27380,128,0,27567:0:0:0:0:
448,192,27380,128,0,27661:0:0:0:0:
64,192,27567,1,0,0:0:0:0:
192,192,27755,128,0,28036:0:0:0:0:
448,192,27942,128,0,28411:0:0:0:0:
192,192,28130,1,0,0:0:0:0:
320,192,28317,128,0,28786:0:0:0:0:
448,192,28505,1,0,0:0:0:0:
64,192,28692,128,0,29255:0:0:0:0:
192,192,28880,128,0,29161:0:0:0:0:
320,192,28880,128,0,29067:0:0:0:0:
448,192,29067,1,0,0:0:0:0:
320,192,29255,1,0,0:0:0:0:
64,192,29442,1,0,0:0:0:0:
448,192,29630,1,0,0:0:0:0:
192,192,29817,1,0,0:0:0:0:
64,192,30005,128,0,30473:0:0:0:0:
320,192,30192,1,0,0:0:0:0:
320,192,30380,128,0,30567:0:0:0:0:
448,192,30380,128,0,30848:0:0:0:0:
192,192,30567,1,0,0:0:0:0:
64,192,30755,128,0,31036:0:0:0:0:
192,192,30942,128,0,31411:0:0:0:0:
320,192,31130,128,0,31317:0:0:0:0:
448,192,31130,128,0,31223:0:0:0:0:
64,192,31317,128,0,31598:0:0:0:0:
448,192,31505,1,0,0:0:0:0:
192,192,31692,1,0,0:0:0:0:
320,192,31880,128,0,32067:0:0:0:0:
448,192,31880,128,0,32348:0:0:0:0:
64,192,32067,1,0,0:0:0:0:
192,192,32255,128,0,32536:0:0:0:0:
448,192,32442,128,0,32817:0:0:0:0:
64,192,32630,1,0,0:0:0:0:
320,192,32817,1,0,0:0:0:0:
192,192,33005,1,0,0:0:0:0:
64,192,33192,128,0,33473:0:0:0:0:
320,192,33380,128,0,33661:0:0:0:0:
448,192,33380,128,0,33848:0:0:0:0:
192,192,33567,1,0,0:0:0:0:
64,192,33755,128,0,34036:0:0:0:0:
320,192,33942,128,0,34317:0:0:0:0:
192,192,34130,1,0,0:0:0:0:
448,192,34317,1,0,0:0:0:0:
64,192,34505,1,0,0:0:0:0:
320,192,34692,128,0,34973:0:0:0:0:
64,192,34880,128,0,35348:0:0:0:0:
192,192,34880,128,0,35067:0:0:0:0:
448,192,35067,1,0,0:0:0:0:
448,192,35255,128,0,35536:0:0:0:0:
192,192,35442,128,0,35723:0:0:0:0:
320,192,35630,1,0,0:0:0:0:
320,192,35817,128,0,36098:0:0:0:0:
64,192,36005,1,0,0:0:0:0:
448,192,36192,128,0,36661:0:0:0:0:
192,192,36380,128,0,36473:0:0:0:0:
320,192,36380,128,0,36567:0:0:0:0:
64,192,36567,128,0,37036:0:0:0:0:
320,192,36755,128,0,37036:0:0:0:0:
448,192,36942,128,0,37036:0:0:0:0:
64,192,37130,1,0,0:0:0:60:snare.wav
320,192,37130,1,0,0:0:0:0:
448,192,37130,128,0,37411:0:0:0:0:
192,192,37223,128,0,37411:0:0:0:0:
64,192,37317,128,0,37411:0:0:0:0:
64,192,37505,128,0,37786:0:0:0:60:snare.wav
192,192,37505,1,0,0:0:0:0:
448,192,37505,1,0,0:0:0:0:
320,192,37692,128,2,37786:0:0:0:0:
448,192,37692,128,0,37786:0:0:0:0:
64,192,37880,128,4,37973:0:0:0:0:
320,192,37880,128,2,38067:0:0:0:0:
448,192,37880,128,0,38161:0:0:0:0:
64,192,38255,128,0,38723:0:0:0:0:
192,192,38442,1,0,0:0:0:0:
448,192,38630,128,0,39098:0:0:0:0:
64,192,38817,1,0,0:0:0:0:
320,192,39005,128,0,39473:0:0:0:0:
448,192,39192,1,0,0:0:0:0:
64,192,39380,128,4,39661:0:0:0:0:
192,192,39380,128,0,39567:0:0:0:0:
192,192,39755,128,0,40223:0:0:0:0:
64,192,39942,1,0,0:0:0:0:
320,192,40036,1,0,0:0:0:0:
448,192,40130,128,0,40598:0:0:0:0:
192,192,40317,1,0,0:0:0:0:
64,192,40505,128,0,40973:0:0:0:0:
448,192,40692,1,0,0:0:0:0:
192,192,40880,128,4,41067:0:0:0:0:
320,192,40880,128,0,41161:0:0:0:0:
192,192,41255,128,0,41723:0:0:0:0:
320,192,41442,1,0,0:0:0:0:
64,192,41630,128,4,42098:0:0:0:0:
448,192,41630,1,0,0:0:0:0:
192,192,41817,1,0,0:0:0:0:
320,192,42005,128,0,42473:0:0:0:0:
448,192,42192,1,0,0:0:0:0:
64,192,42380,128,4,42661:0:0:0:0:
192,192,42380,128,0,42567:0:0:0:0:
320,192,42755,128,0,43223:0:0:0:0:
192,192,42942,1,0,0:0:0:0:
192,192,43130,128,4,43598:0:0:0:0:
64,192,43130,128,0,43317:0:0:0:0:
320,192,43317,1,0,0:0:0:0:
320,192,43505,128,0,43973:0:0:0:0:
192,192,43692,1,0,0:0:0:0:
64,192,43880,128,4,44161:0:0:0:0:
192,192,43880,128,0,44067:0:0:0:0:
448,192,43880,1,0,0:0:0:0:
448,192,44067,1,0,0:0:0:0:
320,192,44161,1,0,0:0:0:0:
64,192,44255,1,0,0:0:0:0:
192,192,44255,1,0,0:0:0:0:
192,192,44442,1,0,0:0:0:0:
320,192,44630,1,0,0:0:0:0:
448,192,44630,1,0,0:0:0:0:
64,192,44817,1,0,0:0:0:0:
448,192,44817,1,0,0:0:0:0:
64,192,45005,1,0,0:0:0:0:
192,192,45005,128,0,45473:0:0:0:0:
448,192,45192,1,0,0:0:0:0:
320,192,45380,128,4,45567:0:0:0:0:
448,192,45380,128,0,45661:0:0:0:0:
64,192,45567,1,0,0:0:0:0:
192,192,45661,1,0,0:0:0:0:
320,192,45755,1,0,0:0:0:0:
448,192,45755,128,0,46130:0:0:0:0:
192,192,45942,1,0,0:0:0:0:
64,192,46130,1,0,0:0:0:0:
192,192,46130,128,0,46505:0:0:0:0:
448,192,46317,1,0,0:0:0:0:
64,192,46505,1,0,0:0:0:0:
448,192,46505,128,0,46880:0:0:0:0:
320,192,46692,1,0,0:0:0:0:
64,192,46880,1,2,0:0:0:0:
192,192,46880,1,0,0:0:0:0:
320,192,46973,1,2,0:0:0:0:
64,192,47067,1,2,0:0:0:0:
320,192,47161,1,2,0:0:0:0:
192,192,47255,128,0,47348:0:0:0:50:soft-hitwhistle.wav
448,192,47255,1,0,0:0:0:0:
64,192,47348,1,0,0:0:0:50:soft-hitwhistle.wav
320,192,47442,128,0,47536:0:0:0:50:soft-hitwhistle.wav
192,192,47536,1,0,0:0:0:50:soft-hitwhistle.wav
64,192,47630,1,0,0:0:0:30:soft-hitwhistle.wav
448,192,47630,128,0,47723:0:0:0:0:
320,192,47723,1,0,0:0:0:30:soft-hitwhistle.wav
192,192,47817,1,0,0:0:0:30:soft-hitwhistle.wav
448,192,47911,1,0,0:0:0:30:soft-hitwhistle.wav
64,192,48005,1,0,0:0:0:20:soft-hitwhistle.wav
320,192,48005,128,0,48098:0:0:0:0:
448,192,48098,1,0,0:0:0:20:soft-hitwhistle.wav
192,192,48192,128,0,48286:0:0:0:20:soft-hitwhistle.wav
320,192,48286,1,0,0:0:0:20:soft-hitwhistle.wav
64,192,48380,128,0,48567:0:0:0:0:
192,192,48380,128,0,48661:0:0:0:0:
320,192,48567,128,0,48942:0:0:0:0:
64,192,48755,128,0,49223:0:0:0:0:
448,192,48942,128,0,49411:0:0:0:0:
320,192,49130,128,0,49411:0:0:0:0:
64,192,49317,128,0,49411:0:0:0:0:
64,192,49505,1,8,0:0:0:0:
320,192,49505,1,0,0:0:0:0:
448,192,49505,1,0,0:0:0:0:
64,192,49880,128,2,49973:0:0:0:0:
192,192,49880,128,4,49973:0:0:0:0:
448,192,49880,128,0,50161:0:0:0:0:
320,192,50067,128,0,50161:0:0:0:0:
192,192,50067,128,2,50161:0:0:0:0:
320,192,50255,1,2,0:0:0:0:
448,192,50255,1,0,0:0:0:0:
192,192,50301,1,0,0:0:0:0:
64,192,50348,1,0,0:0:0:0:
320,192,50395,1,0,0:0:0:0:
192,192,50442,1,0,0:0:0:0:
448,192,50489,1,0,0:0:0:0:
320,192,50536,1,0,0:0:0:0:
192,192,50583,1,0,0:0:0:0:
64,192,50630,128,8,50911:0:0:0:0:
448,192,50630,1,0,0:0:0:0:
320,192,50817,128,0,51005:0:0:0:0:
192,192,50911,128,0,51098:0:0:0:0:
64,192,51005,128,0,51098:0:0:0:0:
64,192,51192,128,2,51473:0:0:0:0:
192,192,51192,128,0,51380:0:0:0:0:
448,192,51380,128,0,51473:0:0:0:0:
64,192,51567,128,2,51755:0:0:0:0:
448,192,51567,128,0,51848:0:0:0:0:
192,192,51755,128,0,51848:0:0:0:0:
192,192,51942,128,2,52130:0:0:0:0:
448,192,51942,128,0,52036:0:0:0:0:
64,192,52130,128,8,52317:0:0:0:0:
448,192,52130,128,0,52411:0:0:0:0:
192,192,52317,128,2,52505:0:0:0:0:
320,192,52317,128,0,52411:0:0:0:0:
320,192,52505,128,8,52786:0:0:0:0:
448,192,52505,128,0,52598:0:0:0:0:
64,192,52692,1,2,0:0:0:0:
192,192,52692,128,0,52786:0:0:0:0:
192,192,52880,128,2,53161:0:0:0:0:
320,192,52880,128,0,53067:0:0:0:0:
64,192,53067,128,2,53161:0:0:0:0:
448,192,53067,128,0,53161:0:0:0:0:
64,192,53255,1,2,0:0:0:0:
192,192,53255,1,0,0:0:0:0:
320,192,53301,1,0,0:0:0:0:
448,192,53348,1,0,0:0:0:0:
192,192,53395,1,0,0:0:0:0:
320,192,53442,1,0,0:0:0:0:
64,192,53489,1,0,0:0:0:0:
192,192,53536,1,0,0:0:0:0:
320,192,53583,1,0,0:0:0:0:
64,192,53630,1,8,0:0:0:0:
448,192,53630,128,0,54192:0:0:0:0:
320,192,53817,128,0,54005:0:0:0:0:
192,192,53911,128,0,54098:0:0:0:0:
64,192,54005,128,0,54098:0:0:0:0:
64,192,54192,128,2,54380:0:0:0:0:
192,192,54192,128,0,54286:0:0:0:0:
320,192,54380,128,0,54661:0:0:0:0:
64,192,54567,128,2,54661:0:0:0:0:
192,192,54567,128,0,54848:0:0:0:0:
448,192,54755,128,0,55036:0:0:0:0:
192,192,54942,128,2,55130:0:0:0:0:
320,192,54942,128,0,55223:0:0:0:0:
64,192,55130,128,8,55411:0:0:0:0:
448,192,55130,128,0,55223:0:0:0:0:
192,192,55317,128,2,55598:0:0:0:0:
320,192,55317,128,0,55505:0:0:0:0:
64,192,55505,128,8,55598:0:0:0:0:
448,192,55505,128,0,55786:0:0:0:0:
192,192,55692,128,2,55786:0:0:0:0:
320,192,55692,128,0,55786:0:0:0:0:
64,192,55880,1,2,0:0:0:0:
320,192,55880,128,4,55973:0:0:0:0:
448,192,55880,128,0,56161:0:0:0:0:
64,192,56067,128,2,56161:0:0:0:0:
192,192,56067,128,0,56161:0:0:0:0:
64,192,56255,1,2,0:0:0:0:
448,192,56255,1,0,0:0:0:0:
192,192,56301,1,0,0:0:0:0:
320,192,56348,1,0,0:0:0:0:
448,192,56395,1,0,0:0:0:0:
192,192,56442,1,0,0:0:0:0:
320,192,56489,1,0,0:0:0:0:
64,192,56536,1,0,0:0:0:0:
192,192,56583,1,0,0:0:0:0:
320,192,56630,1,8,0:0:0:0:
448,192,56630,128,0,56911:0:0:0:0:
320,192,56817,128,0,57005:0:0:0:0:
192,192,56911,128,0,57098:0:0:0:0:
64,192,57005,128,0,57098:0:0:0:0:
64,192,57192,128,2,57380:0:0:0:0:
192,192,57192,128,0,57473:0:0:0:0:
320,192,57380,128,0,57473:0:0:0:0:
192,192,57567,128,2,57755:0:0:0:0:
320,192,57567,128,0,57848:0:0:0:0:
448,192,57755,128,0,57848:0:0:0:0:
320,192,57942,128,2,58130:0:0:0:0:
448,192,57942,128,0,58223:0:0:0:0:
64,192,58130,128,8,58411:0:0:0:0:
192,192,58130,128,0,58223:0:0:0:0:
320,192,58317,128,2,58505:0:0:0:0:
448,192,58317,128,0,58411:0:0:0:0:
64,192,58505,128,8,58786:0:0:0:0:
448,192,58505,128,0,58692:0:0:0:0:
192,192,58692,128,2,58786:0:0:0:0:
320,192,58692,128,0,58786:0:0:0:0:
64,192,58880,128,2,59161:0:0:0:0:
192,192,58880,128,0,58973:0:0:0:0:
448,192,59067,128,0,59161:0:0:0:0:
320,192,59067,128,2,59161:0:0:0:0:
64,192,59255,1,2,0:0:0:0:
448,192,59255,1,0,0:0:0:0:
320,192,59301,1,0,0:0:0:0:
192,192,59348,1,0,0:0:0:0:
64,192,59395,1,0,0:0:0:0:
320,192,59442,1,0,0:0:0:0:
192,192,59489,1,0,0:0:0:0:
448,192,59536,1,0,0:0:0:0:
320,192,59583,1,0,0:0:0:0:
64,192,59630,128,8,60192:0:0:0:0:
192,192,59630,1,0,0:0:0:0:
192,192,59817,128,0,60005:0:0:0:0:
320,192,59911,128,0,60098:0:0:0:0:
448,192,60005,128,0,60098:0:0:0:0:
320,192,60192,128,2,60380:0:0:0:0:
448,192,60192,128,0,60286:0:0:0:0:
64,192,60380,128,0,60661:0:0:0:0:
320,192,60567,128,2,60661:0:0:0:0:
448,192,60567,128,0,60848:0:0:0:0:
192,192,60755,128,0,61036:0:0:0:0:
64,192,60942,128,2,61223:0:0:0:0:
448,192,60942,128,0,61130:0:0:0:0:
192,192,61130,128,0,61411:0:0:0:60:snare.wav
320,192,61130,128,0,61223:0:0:0:0:
320,192,61317,128,2,61505:0:0:0:0:
448,192,61317,128,0,61598:0:0:0:0:
64,192,61505,128,0,61786:0:0:0:60:snare.wav
192,192,61505,128,0,61598:0:0:0:0:
320,192,61692,128,2,61786:0:0:0:0:
448,192,61692,128,0,61786:0:0:0:0:
64,192,61880,128,4,61973:0:0:0:0:
320,192,61880,128,2,61973:0:0:0:0:
448,192,61880,128,0,62161:0:0:0:0:
192,192,62067,128,2,62161:0:0:0:0:
320,192,62067,128,0,62161:0:0:0:0:
64,192,62255,1,2,0:0:0:0:
192,192,62255,1,0,0:0:0:0:
320,192,62301,1,0,0:0:0:0:
448,192,62348,1,0,0:0:0:0:
192,192,62395,1,0,0:0:0:0:
320,192,62442,1,0,0:0:0:0:
64,192,62489,1,0,0:0:0:0:
192,192,62536,1,0,0:0:0:0:
320,192,62583,1,0,0:0:0:0:
64,192,62630,1,8,0:0:0:0:
448,192,62630,128,0,62911:0:0:0:0:
192,192,62817,128,0,63098:0:0:0:0:
64,192,62911,128,0,63098:0:0:0:0:
448,192,63005,128,0,63192:0:0:0:0:
64,192,63192,128,2,63380:0:0:0:0:
192,192,63192,128,0,63473:0:0:0:0:
320,192,63380,128,0,63473:0:0:0:0:
192,192,63567,128,2,63755:0:0:0:0:
320,192,63567,128,0,63848:0:0:0:0:
448,192,63755,128,0,63848:0:0:0:0:
64,192,63848,128,0,64036:0:0:0:0:
320,192,63942,128,2,64036:0:0:0:0:
448,192,63942,128,0,64130:0:0:0:0:
64,192,64130,128,8,64411:0:0:0:0:
320,192,64130,128,0,64317:0:0:0:0:
192,192,64317,128,2,64411:0:0:0:0:
448,192,64317,128,0,64505:0:0:0:0:
64,192,64505,128,8,64598:0:0:0:0:
192,192,64505,128,0,64786:0:0:0:0:
320,192,64692,128,2,64786:0:0:0:0:
448,192,64692,1,0,0:0:0:0:
192,192,64880,128,2,65067:0:0:0:0:
320,192,64880,128,0,65161:0:0:0:0:
448,192,65067,128,0,65161:0:0:0:0:
64,192,65067,128,2,65161:0:0:0:0:
320,192,65255,1,2,0:0:0:0:
448,192,65255,1,0,0:0:0:0:
192,192,65301,1,0,0:0:0:0:
64,192,65348,1,0,0:0:0:0:
320,192,65395,1,0,0:0:0:0:
192,192,65442,1,0,0:0:0:0:
448,192,65489,1,0,0:0:0:0:
320,192,65536,1,0,0:0:0:0:
192,192,65583,1,0,0:0:0:0:
64,192,65630,128,8,66192:0:0:0:0:
448,192,65630,1,0,0:0:0:0:
448,192,65817,128,0,66005:0:0:0:0:
320,192,65911,128,0,66098:0:0:0:0:
192,192,66005,128,0,66192:0:0:0:0:
320,192,66192,128,2,66380:0:0:0:0:
448,192,66192,128,0,66286:0:0:0:0:
64,192,66380,128,0,66661:0:0:0:0:
320,192,66567,128,2,66661:0:0:0:0:
448,192,66567,128,0,66848:0:0:0:0:
192,192,66755,128,0,67036:0:0:0:0:
64,192,66942,128,2,67223:0:0:0:0:
448,192,66942,128,0,67130:0:0:0:0:
192,192,67130,128,8,67223:0:0:0:0:
320,192,67130,128,0,67411:0:0:0:0:
64,192,67317,128,2,67505:0:0:0:0:
448,192,67317,128,0,67598:0:0:0:0:
192,192,67505,128,8,67786:0:0:0:0:
320,192,67505,128,0,67598:0:0:0:0:
64,192,67692,128,2,67786:0:0:0:0:
448,192,67692,128,0,67786:0:0:0:0:
64,192,67880,128,2,68161:0:0:0:0:
192,192,67880,128,4,67973:0:0:0:0:
448,192,67880,128,0,67973:0:0:0:0:
192,192,68067,128,2,68161:0:0:0:0:
320,192,68067,128,0,68161:0:0:0:0:
320,192,68255,1,2,0:0:0:0:
448,192,68255,1,0,0:0:0:0:
192,192,68301,1,0,0:0:0:0:
64,192,68348,1,0,0:0:0:0:
448,192,68395,1,0,0:0:0:0:
192,192,68442,1,0,0:0:0:0:
64,192,68489,1,0,0:0:0:0:
448,192,68536,1,0,0:0:0:0:
320,192,68583,1,0,0:0:0:0:
64,192,68630,128,8,68911:0:0:0:0:
192,192,68630,1,0,0:0:0:0:
192,192,68817,128,0,69005:0:0:0:0:
320,192,68911,128,0,69098:0:0:0:0:
448,192,69005,128,0,69098:0:0:0:0:
320,192,69192,128,2,69473:0:0:0:0:
448,192,69192,128,0,69380:0:0:0:0:
192,192,69380,128,0,69473:0:0:0:0:
192,192,69567,128,2,69848:0:0:0:0:
320,192,69567,128,0,69755:0:0:0:0:
64,192,69755,128,0,69848:0:0:0:0:
448,192,69848,128,0,70036:0:0:0:0:
64,192,69942,128,2,70223:0:0:0:0:
320,192,69942,128,0,70036:0:0:0:0:
320,192,70130,128,8,70411:0:0:0:0:
448,192,70130,128,0,70223:0:0:0:0:
64,192,70317,128,2,70505:0:0:0:0:
192,192,70317,128,0,70411:0:0:0:0:
192,192,70505,128,8,70692:0:0:0:0:
320,192,70505,128,0,70786:0:0:0:0:
64,192,70692,128,2,70786:0:0:0:0:
448,192,70692,128,0,70786:0:0:0:0:
320,192,70880,128,2,71161:0:0:0:0:
448,192,70880,128,0,71067:0:0:0:0:
192,192,71067,128,0,71161:0:0:0:0:
64,192,71067,128,2,71161:0:0:0:0:
64,192,71255,1,2,0:0:0:0:
192,192,71255,1,0,0:0:0:0:
320,192,71301,1,0,0:0:0:0:
448,192,71348,1,0,0:0:0:0:
64,192,71395,1,0,0:0:0:0:
320,192,71442,1,0,0:0:0:0:
448,192,71489,1,0,0:0:0:0:
64,192,71536,1,0,0:0:0:0:
192,192,71583,1,0,0:0:0:0:
320,192,71630,1,8,0:0:0:0:
448,192,71630,128,0,72192:0:0:0:0:
192,192,71817,128,0,72005:0:0:0:0:
320,192,71911,128,0,72098:0:0:0:0:
64,192,72005,128,0,72192:0:0:0:0:
192,192,72192,128,2,72286:0:0:0:0:
320,192,72192,128,0,72380:0:0:0:0:
448,192,72380,128,0,72661:0:0:0:0:
64,192,72567,128,2,72848:0:0:0:0:
192,192,72567,128,0,72755:0:0:0:0:
320,192,72661,128,0,72848:0:0:0:0:
448,192,72755,128,0,73036:0:0:0:0:
64,192,72942,128,2,73130:0:0:0:0:
320,192,72942,128,0,73317:0:0:0:0:
192,192,73130,128,8,73223:0:0:0:0:
448,192,73130,128,0,73317:0:0:0:0:
64,192,73317,128,2,73505:0:0:0:0:
192,192,73317,128,0,73505:0:0:0:0:
320,192,73505,128,8,73786:0:0:0:0:
448,192,73505,128,0,73692:0:0:0:0:
64,192,73692,128,2,73786:0:0:0:0:
192,192,73692,128,0,73786:0:0:0:0:
64,192,73880,128,2,74161:0:0:0:0:
192,192,73880,128,0,74067:0:0:0:0:
320,192,73880,1,0,0:0:0:0:
64,192,74255,1,2,0:0:0:0:
448,192,74255,1,0,0:0:0:0:
320,192,74301,1,0,0:0:0:0:
192,192,74348,1,0,0:0:0:0:
64,192,74442,128,0,74630:0:0:0:0:
192,192,74630,128,8,75005:0:0:0:0:
448,192,74630,128,0,75192:0:0:0:0:
320,192,74817,128,0,75005:0:0:0:0:
64,192,75005,128,0,75192:0:0:0:0:
192,192,75192,128,2,75567:0:0:0:0:
320,192,75192,128,0,75380:0:0:0:0:
448,192,75380,1,0,0:0:0:0:
64,192,75567,128,2,75942:0:0:0:0:
320,192,75567,1,0,0:0:0:0:
192,192,75755,1,2,0:0:0:0:
320,192,75755,1,0,0:0:0:0:
448,192,75848,1,0,0:0:0:0:
320,192,75942,128,0,76130:0:0:0:0:
64,192,76036,1,0,0:0:0:0:
192,192,76130,1,8,0:0:0:0:
448,192,76130,128,0,76505:0:0:0:0:
320,192,76317,128,0,76505:0:0:0:0:
192,192,76505,128,0,76880:0:0:0:0:
320,192,76692,128,0,76880:0:0:0:0:
64,192,76880,128,2,77067:0:0:0:0:
448,192,76880,128,0,77255:0:0:0:0:
192,192,77067,1,0,0:0:0:0:
64,192,77255,1,2,0:0:0:0:
192,192,77255,1,0,0:0:0:0:
320,192,77301,1,0,0:0:0:0:
448,192,77348,1,0,0:0:0:0:
64,192,77442,128,0,77817:0:0:0:0:
320,192,77630,1,8,0:0:0:0:
448,192,77630,1,0,0:0:0:0:
192,192,77723,1,0,0:0:0:0:
448,192,77817,128,0,78098:0:0:0:0:
64,192,78005,128,0,78098:0:0:0:0:
64,192,78192,1,2,0:0:0:0:
448,192,78192,128,0,78473:0:0:0:0:
192,192,78239,1,0,0:0:0:0:
320,192,78286,1,0,0:0:0:0:
64,192,78380,1,0,0:0:0:0:
64,192,78567,128,2,78755:0:0:0:0:
448,192,78567,1,0,0:0:0:0:
320,192,78755,1,2,0:0:0:0:
448,192,78755,128,0,79036:0:0:0:0:
192,192,78801,1,0,0:0:0:0:
64,192,78848,1,0,0:0:0:0:
320,192,78942,128,0,79036:0:0:0:0:
320,192,79130,1,8,0:0:0:0:
448,192,79130,1,0,0:0:0:0:
192,192,79317,128,0,79505:0:0:0:0:
64,192,79505,128,2,79786:0:0:0:0:
448,192,79505,1,0,0:0:0:0:
320,192,79598,1,0,0:0:0:0:
448,192,79692,128,8,79786:0:0:0:0:
192,192,79786,1,0,0:0:0:0:
64,192,79880,128,2,80067:0:0:0:0:
448,192,79880,128,0,80161:0:0:0:0:
320,192,80067,1,0,0:0:0:0:
64,192,80255,128,2,80536:0:0:0:0:
192,192,80255,1,0,0:0:0:0:
320,192,80301,1,0,0:0:0:0:
448,192,80348,1,0,0:0:0:0:
192,192,80442,128,0,80536:0:0:0:0:
64,192,80630,128,8,80817:0:0:0:0:
192,192,80630,128,0,81005:0:0:0:0:
320,192,80817,128,0,81098:0:0:0:0:
448,192,81005,128,0,81098:0:0:0:0:
64,192,81192,1,2,0:0:0:0:
448,192,81192,128,0,81473:0:0:0:0:
192,192,81239,1,0,0:0:0:0:
320,192,81286,1,0,0:0:0:0:
64,192,81380,128,0,81473:0:0:0:0:
64,192,81567,128,2,81755:0:0:0:0:
448,192,81567,1,0,0:0:0:0:
320,192,81755,1,2,0:0:0:0:
448,192,81755,1,0,0:0:0:0:
192,192,81848,1,0,0:0:0:0:
448,192,81942,128,0,82130:0:0:0:0:
320,192,82036,128,0,82223:0:0:0:0:
64,192,82130,1,8,0:0:0:0:
192,192,82130,128,0,82411:0:0:0:0:
64,192,82317,128,0,82411:0:0:0:0:
64,192,82505,1,0,0:0:0:0:
448,192,82505,128,0,82692:0:0:0:0:
64,192,82692,128,0,82880:0:0:0:0:
320,192,82880,128,2,83067:0:0:0:0:
448,192,82880,128,0,83161:0:0:0:0:
64,192,83067,128,0,83161:0:0:0:0:
64,192,83255,1,2,0:0:0:0:
448,192,83255,1,0,0:0:0:0:
192,192,83301,1,0,0:0:0:0:
320,192,83348,1,0,0:0:0:0:
448,192,83395,1,0,0:0:0:0:
64,192,83442,128,0,83817:0:0:0:0:
192,192,83630,128,8,83817:0:0:0:0:
448,192,83630,1,0,0:0:0:0:
320,192,83723,1,0,0:0:0:0:
448,192,83817,128,0,84098:0:0:0:0:
64,192,84005,128,0,84098:0:0:0:0:
64,192,84192,128,2,84380:0:0:0:0:
448,192,84192,1,0,0:0:0:0:
320,192,84239,1,0,0:0:0:0:
192,192,84286,1,0,0:0:0:0:
448,192,84380,128,0,84661:0:0:0:0:
64,192,84567,1,2,0:0:0:0:
320,192,84567,128,0,84661:0:0:0:0:
320,192,84755,1,2,0:0:0:0:
448,192,84755,1,0,0:0:0:0:
192,192,84801,1,0,0:0:0:0:
64,192,84848,1,0,0:0:0:0:
448,192,84895,1,0,0:0:0:0:
320,192,84942,128,0,85036:0:0:0:0:
64,192,85130,1,8,0:0:0:0:
320,192,85130,128,0,85505:0:0:0:0:
192,192,85317,128,0,85505:0:0:0:0:
64,192,85505,128,2,85692:0:0:0:0:
448,192,85505,1,0,0:0:0:0:
192,192,85598,1,0,0:0:0:0:
448,192,85692,128,8,85880:0:0:0:0:
320,192,85786,1,0,0:0:0:0:
64,192,85880,128,2,85973:0:0:0:0:
192,192,85880,128,0,86161:0:0:0:0:
320,192,86067,128,0,86161:0:0:0:0:
448,192,86067,128,0,86255:0:0:0:0:
64,192,86255,128,2,86536:0:0:0:0:
192,192,86255,1,0,0:0:0:0:
320,192,86301,1,0,0:0:0:0:
448,192,86348,1,0,0:0:0:0:
192,192,86442,128,0,86536:0:0:0:0:
64,192,86630,1,8,0:0:0:0:
192,192,86630,1,0,0:0:0:0:
448,192,86630,128,0,87005:0:0:0:0:
320,192,86817,128,0,87005:0:0:0:0:
64,192,87005,128,0,87192:0:0:0:0:
320,192,87192,128,2,87473:0:0:0:0:
448,192,87192,1,0,0:0:0:0:
192,192,87239,1,0,0:0:0:0:
64,192,87286,1,0,0:0:0:0:
448,192,87380,128,0,87661:0:0:0:0:
64,192,87567,128,2,87848:0:0:0:0:
320,192,87567,128,0,87661:0:0:0:0:
320,192,87755,128,2,87848:0:0:0:0:
448,192,87755,128,0,88036:0:0:0:0:
192,192,87848,1,0,0:0:0:0:
64,192,87942,128,0,88036:0:0:0:0:
320,192,88036,1,0,0:0:0:0:
64,192,88130,1,8,0:0:0:0:
192,192,88130,1,0,0:0:0:0:
448,192,88130,1,0,0:0:0:0:
192,192,88317,128,0,88692:0:0:0:0:
320,192,88505,128,0,88692:0:0:0:0:
448,192,88692,128,0,88973:0:0:0:0:
64,192,88880,128,2,89067:0:0:0:0:
192,192,88880,128,0,89161:0:0:0:0:
320,192,89067,128,0,89161:0:0:0:0:
448,192,89067,128,0,89348:0:0:0:0:
64,192,89255,128,2,89536:0:0:0:0:
192,192,89255,128,0,89442:0:0:0:0:
448,192,89442,128,0,89536:0:0:0:0:
64,192,89630,1,8,0:0:0:0:
192,192,89630,1,0,0:0:0:0:
448,192,89630,1,0,0:0:0:0:
320,192,89723,1,0,0:0:0:0:
448,192,89817,128,0,90005:0:0:0:0:
192,192,90005,128,0,90192:0:0:0:0:
64,192,90192,128,2,90473:0:0:0:0:
448,192,90192,1,0,0:0:0:0:
320,192,90239,1,0,0:0:0:0:
192,192,90286,1,0,0:0:0:0:
448,192,90380,128,0,90661:0:0:0:0:
64,192,90567,128,2,90661:0:0:0:0:
320,192,90567,128,0,90661:0:0:0:0:
64,192,90755,1,2,0:0:0:0:
448,192,90755,128,0,91036:0:0:0:0:
192,192,90801,1,0,0:0:0:0:
320,192,90848,1,0,0:0:0:0:
64,192,90942,128,0,91036:0:0:0:0:
64,192,91130,1,8,0:0:0:0:
192,192,91130,1,0,0:0:0:0:
448,192,91130,1,0,0:0:0:0:
192,192,91317,128,0,91505:0:0:0:0:
64,192,91505,1,2,0:0:0:0:
448,192,91505,128,0,91692:0:0:0:0:
320,192,91598,1,0,0:0:0:0:
64,192,91692,128,8,91880:0:0:0:0:
192,192,91786,1,0,0:0:0:0:
320,192,91880,128,2,92161:0:0:0:0:
448,192,91880,128,0,91973:0:0:0:0:
64,192,92067,128,0,92255:0:0:0:0:
192,192,92067,128,0,92161:0:0:0:0:
320,192,92255,1,2,0:0:0:0:
448,192,92255,128,0,92536:0:0:0:0:
192,192,92301,1,0,0:0:0:0:
64,192,92348,1,0,0:0:0:0:
320,192,92395,1,0,0:0:0:0:
192,192,92442,128,0,92536:0:0:0:0:
64,192,92630,128,8,92817:0:0:0:0:
192,192,92630,128,0,93005:0:0:0:0:
448,192,92630,1,0,0:0:0:0:
320,192,92817,128,0,93005:0:0:0:0:
448,192,93005,128,0,93192:0:0:0:0:
64,192,93192,1,2,0:0:0:0:
192,192,93192,128,0,93473:0:0:0:0:
320,192,93239,1,0,0:0:0:0:
448,192,93286,1,0,0:0:0:0:
64,192,93380,128,0,93661:0:0:0:0:
192,192,93567,128,2,93661:0:0:0:0:
448,192,93567,128,0,93848:0:0:0:0:
64,192,93755,128,2,94036:0:0:0:0:
192,192,93755,128,0,93848:0:0:0:0:
448,192,93942,128,0,94036:0:0:0:0:
64,192,94130,1,8,0:0:0:0:
320,192,94130,128,0,94505:0:0:0:0:
448,192,94130,128,0,94317:0:0:0:0:
192,192,94317,128,0,94692:0:0:0:0:
64,192,94505,128,0,94692:0:0:0:0:
448,192,94692,128,0,94973:0:0:0:0:
320,192,94786,128,0,94973:0:0:0:0:
64,192,94880,1,2,0:0:0:0:
192,192,94880,128,0,94973:0:0:0:0:
64,192,95067,128,0,95255:0:0:0:0:
320,192,95255,1,2,0:0:0:0:
448,192,95255,1,0,0:0:0:0:
192,192,95301,1,0,0:0:0:0:
64,192,95348,1,0,0:0:0:0:
320,192,95395,1,0,0:0:0:0:
448,192,95442,128,0,95817:0:0:0:0:
64,192,95630,1,8,0:0:0:0:
192,192,95630,1,0,0:0:0:0:
320,192,95723,1,0,0:0:0:0:
64,192,95817,128,0,96098:0:0:0:0:
448,192,96005,128,0,96098:0:0:0:0:
64,192,96192,1,2,0:0:0:0:
448,192,96192,128,0,96473:0:0:0:0:
192,192,96239,1,0,0:0:0:0:
320,192,96286,1,0,0:0:0:0:
64,192,96380,128,0,96661:0:0:0:0:
192,192,96567,1,2,0:0:0:0:
448,192,96567,128,0,96661:0:0:0:0:
64,192,96755,128,2,97223:0:0:0:0:
448,192,96755,1,0,0:0:0:0:
320,192,96801,1,0,0:0:0:0:
192,192,96848,1,0,0:0:0:0:
448,192,96942,1,0,0:0:0:0:
192,192,97130,128,8,97223:0:0:0:0:
320,192,97130,128,0,97598:0:0:0:0:
64,192,97317,1,0,0:0:0:0:
192,192,97505,128,2,97973:0:0:0:0:
448,192,97505,128,0,97598:0:0:0:0:
64,192,97598,1,0,0:0:0:0:
448,192,97692,1,8,0:0:0:0:
320,192,97786,1,0,0:0:0:0:
64,192,97880,128,2,97973:0:0:0:0:
448,192,97880,128,4,98348:0:0:0:0:
320,192,98067,1,0,0:0:0:0:
192,192,98255,128,0,98536:0:0:0:0:
320,192,98442,128,0,98911:0:0:0:0:
64,192,98630,1,0,0:0:0:0:
448,192,98817,1,0,0:0:0:0:
320,192,99005,1,0,0:0:0:0:
192,192,99192,128,0,99473:0:0:0:0:
448,192,99380,128,0,99848:0:0:0:0:
320,192,99567,1,0,0:0:0:0:
64,192,99755,128,0,100036:0:0:0:0:
320,192,99942,128,0,100411:0:0:0:0:
64,192,100130,1,0,0:0:0:0:
448,192,100317,128,0,100786:0:0:0:0:
320,192,100505,1,0,0:0:0:0:
64,192,100692,128,0,101255:0:0:0:0:
448,192,100880,1,0,0:0:0:0:
192,192,101067,1,0,0:0:0:0:
448,192,101255,1,0,0:0:0:0:
64,192,101442,1,0,0:0:0:0:
320,192,101630,1,0,0:0:0:0:
64,192,101817,1,0,0:0:0:0:
320,192,102005,128,0,102473:0:0:0:0:
192,192,102192,1,0,0:0:0:0:
448,192,102380,128,0,102848:0:0:0:0:
192,192,102567,1,0,0:0:0:0:
64,192,102755,128,0,103036:0:0:0:0:
320,192,102942,128,0,103411:0:0:0:0:
64,192,103130,1,0,0:0:0:0:
192,192,103317,128,0,103786:0:0:0:0:
320,192,103505,1,0,0:0:0:0:
64,192,103692,128,0,103973:0:0:0:0:
448,192,103880,128,0,104348:0:0:0:0:
320,192,104067,1,0,0:0:0:0:
192,192,104255,128,0,104536:0:0:0:0:
320,192,104442,128,0,104817:0:0:0:0:
64,192,104630,1,0,0:0:0:0:
448,192,104817,1,0,0:0:0:0:
320,192,105005,1,0,0:0:0:0:
192,192,105192,128,0,105473:0:0:0:0:
320,192,105380,128,0,105848:0:0:0:0:
192,192,105567,1,0,0:0:0:0:
64,192,105755,128,0,106036:0:0:0:0:
448,192,105942,128,0,106317:0:0:0:0:
320,192,106130,1,0,0:0:0:0:
192,192,106317,1,0,0:0:0:0:
64,192,106505,1,0,0:0:0:0:
192,192,106692,128,0,106973:0:0:0:0:
448,192,106880,128,0,107348:0:0:0:0:
192,192,107067,1,0,0:0:0:0:
64,192,107255,128,0,107536:0:0:0:0:
320,192,107442,128,0,107911:0:0:0:0:
64,192,107630,1,0,0:0:0:0:
448,192,107817,128,0,108286:0:0:0:0:
192,192,108005,1,0,0:0:0:0:
64,192,108192,128,0,108661:0:0:0:0:
320,192,108192,128,0,108286:0:0:0:0:
192,192,108380,1,0,0:0:0:0:
192,192,108567,128,0,108661:0:0:0:0:
448,192,108567,128,0,109223:0:0:0:0:
320,192,108755,1,0,0:0:0:0:
192,192,108942,1,0,0:0:0:0:
192,192,109130,128,0,109223:0:0:0:0:
320,192,109130,128,0,109598:0:0:0:0:
64,192,109317,1,0,0:0:0:0:
64,192,109505,128,0,109786:0:0:0:0:
192,192,109505,128,0,109598:0:0:0:0:
448,192,109692,1,0,0:0:0:0:
64,192,109880,1,2,0:0:0:0:
320,192,109880,128,4,109973:0:0:0:0:
448,192,109880,128,0,110161:0:0:0:0:
192,192,110067,128,0,110161:0:0:0:0:
192,192,110255,128,2,110536:0:0:0:0:
320,192,110255,128,0,110348:0:0:0:70:clap.wav
448,192,110255,1,0,0:0:0:0:
64,192,110442,128,0,110536:0:0:0:0:
64,192,110630,128,2,110911:0:0:0:0:
192,192,110630,128,0,110723:0:0:0:70:clap.wav
448,192,110630,1,0,0:0:0:0:
320,192,110817,128,0,110911:0:0:0:0:
64,192,111005,1,2,0:0:0:0:
192,192,111005,128,0,111098:0:0:0:70:clap.wav
320,192,111005,128,0,111286:0:0:0:0:
448,192,111192,128,0,111286:0:0:0:0:
64,192,111380,1,2,0:0:0:0:
320,192,111380,128,0,111473:0:0:0:70:clap.wav
448,192,111380,128,0,111567:0:0:0:0:
192,192,111567,128,0,111661:0:0:0:0:
64,192,111755,128,2,112036:0:0:0:0:
192,192,111755,128,0,111848:0:0:0:70:clap.wav
448,192,111755,1,0,0:0:0:0:
320,192,111942,128,0,112036:0:0:0:0:
64,192,112130,1,2,0:0:0:0:
320,192,112130,128,0,112223:0:0:0:70:clap.wav
448,192,112130,128,0,112411:0:0:0:0:
192,192,112317,128,0,112411:0:0:0:0:
192,192,112505,128,2,112786:0:0:0:0:
320,192,112505,128,0,112598:0:0:0:70:clap.wav
448,192,112505,1,0,0:0:0:0:
64,192,112692,128,0,112786:0:0:0:0:
64,192,112880,128,2,113067:0:0:0:0:
192,192,112880,128,0,112973:0:0:0:70:clap.wav
448,192,112880,1,0,0:0:0:0:
320,192,113067,128,0,113161:0:0:0:0:
64,192,113255,1,2,0:0:0:0:
320,192,113255,128,0,113536:0:0:0:70:clap.wav
448,192,113255,128,0,113348:0:0:0:0:
192,192,113442,128,0,113536:0:0:0:0:
192,192,113630,128,2,113911:0:0:0:0:
320,192,113630,128,0,113723:0:0:0:70:clap.wav
448,192,113630,1,0,0:0:0:0:
64,192,113817,128,0,113911:0:0:0:0:
64,192,114005,128,2,114286:0:0:0:0:
192,192,114005,128,0,114098:0:0:0:70:clap.wav
320,192,114005,1,0,0:0:0:0:
448,192,114192,128,0,114286:0:0:0:0:
64,192,114380,1,2,0:0:0:0:
320,192,114380,128,0,114473:0:0:0:70:clap.wav
448,192,114380,128,0,114567:0:0:0:0:
192,192,114567,128,0,114661:0:0:0:0:
64,192,114755,128,2,114848:0:0:0:0:
192,192,114755,128,0,115036:0:0:0:70:clap.wav
448,192,114755,1,0,0:0:0:0:
320,192,114942,128,0,115036:0:0:0:0:
64,192,115130,1,2,0:0:0:0:
192,192,115130,128,0,115223:0:0:0:70:clap.wav
320,192,115130,128,0,115411:0:0:0:0:
448,192,115317,128,0,115411:0:0:0:0:
64,192,115505,1,2,0:0:0:0:
320,192,115505,128,0,115598:0:0:0:70:clap.wav
448,192,115505,128,0,115786:0:0:0:0:
192,192,115692,128,0,115786:0:0:0:0:
64,192,115880,1,2,0:0:0:0:
320,192,115880,1,0,0:0:0:70:clap.wav
448,192,115880,128,0,115973:0:0:0:0:
448,192,116067,128,0,116161:0:0:0:0:
64,192,116255,1,2,0:0:0:0:
192,192,116255,1,0,0:0:0:70:clap.wav
320,192,116255,128,0,116348:0:0:0:0:
320,192,116442,128,0,116536:0:0:0:0:
64,192,116630,1,2,0:0:0:0:
192,192,116630,128,0,116723:0:0:0:70:clap.wav
448,192,116630,1,0,0:0:0:0:
192,192,116817,128,0,116911:0:0:0:0:
64,192,117005,1,2,0:0:0:0:
320,192,117005,128,0,117473:0:0:0:70:clap.wav
448,192,117005,128,0,117098:0:0:0:0:
192,192,117192,128,0,117286:0:0:0:0:
64,192,117380,128,2,117473:0:0:0:0:
192,192,117380,128,0,117848:0:0:0:70:clap.wav
448,192,117380,1,0,0:0:0:0:
320,192,117567,128,0,117661:0:0:0:0:
64,192,117755,128,2,117848:0:0:0:0:
320,192,117755,128,0,118223:0:0:0:70:clap.wav
448,192,117755,1,0,0:0:0:0:
192,192,117942,128,0,118036:0:0:0:0:
64,192,118130,1,2,0:0:0:0:
192,192,118130,128,0,118223:0:0:0:70:clap.wav
448,192,118130,128,0,118598:0:0:0:0:
320,192,118317,128,0,118411:0:0:0:0:
64,192,118505,128,2,119067:0:0:0:0:
192,192,118505,1,0,0:0:0:70:clap.wav
320,192,118505,128,0,118598:0:0:0:0:
448,192,118692,128,0,118786:0:0:0:0:
320,192,118880,1,2,0:0:0:0:
448,192,118880,1,0,0:0:0:70:clap.wav
320,192,119067,1,2,0:0:0:0:
448,192,119067,1,0,0:0:0:0:
64,192,119255,1,2,0:0:0:0:
192,192,119255,1,0,0:0:0:70:clap.wav
192,192,119442,1,0,0:0:0:50:soft-hitwhistle.wav
320,192,119630,1,0,0:0:0:30:soft-hitwhistle.wav
448,192,119630,1,0,0:0:0:70:clap.wav
64,192,119723,1,0,0:0:0:30:soft-hitwhistle.wav
320,192,119817,1,0,0:0:0:30:soft-hitwhistle.wav
64,192,119911,1,0,0:0:0:30:soft-hitwhistle.wav
448,192,120005,1,0,0:0:0:30:soft-hitwhistle.wav
192,192,120098,1,0,0:0:0:30:soft-hitwhistle.wav
448,192,120192,1,0,0:0:0:30:soft-hitwhistle.wav
192,192,120286,1,0,0:0:0:30:soft-hitwhistle.wav
64,192,120380,128,0,120848:0:0:0:0:
448,192,120755,128,0,121223:0:0:0:0:
192,192,121130,128,0,121692:0:0:0:0:
64,192,121505,128,0,121786:0:0:0:0:
320,192,121505,128,0,121598:0:0:0:0:
448,192,121505,128,0,121786:0:0:0:0:
64,192,121880,1,4,0:0:0:0:
320,192,121880,128,0,122067:0:0:0:0:
448,192,121880,128,0,121973:0:0:0:0:
192,192,121973,128,0,122067:0:0:0:0:
448,192,122067,128,0,122161:0:0:0:0:
192,192,122161,128,0,122348:0:0:0:0:
320,192,122255,128,0,122348:0:0:0:0:
64,192,122348,128,0,122442:0:0:0:0:
448,192,122442,128,0,122630:0:0:0:0:
320,192,122536,128,0,122630:0:0:0:0:
64,192,122630,128,0,122817:0:0:0:0:
448,192,122723,128,0,122817:0:0:0:0:
192,192,122817,128,0,122911:0:0:0:0:
320,192,122911,128,0,123098:0:0:0:0:
64,192,123005,128,0,123098:0:0:0:0:
448,192,123098,128,0,123192:0:0:0:0:
192,192,123192,128,0,123380:0:0:0:0:
320,192,123286,128,0,123473:0:0:0:0:
64,192,123380,128,0,123567:0:0:0:0:
192,192,123473,128,0,123567:0:0:0:0:
320,192,123567,128,0,123661:0:0:0:0:
448,192,123661,128,0,123848:0:0:0:0:
320,192,123755,128,0,123848:0:0:0:0:
192,192,123848,128,0,123942:0:0:0:0:
64,192,123942,128,0,124130:0:0:0:0:
192,192,124036,128,0,124130:0:0:0:0:
320,192,124130,128,0,124317:0:0:0:0:
448,192,124223,128,0,124317:0:0:0:0:
64,192,124317,128,0,124505:0:0:0:0:
448,192,124411,128,0,124598:0:0:0:0:
320,192,124505,128,0,124598:0:0:0:0:
192,192,124598,128,0,124786:0:0:0:0:
320,192,124692,128,0,124880:0:0:0:0:
64,192,124786,128,0,124973:0:0:0:0:
448,192,124880,128,0,125067:0:0:0:0:
192,192,124973,128,0,125067:0:0:0:0:
320,192,125067,128,0,125161:0:0:0:0:
448,192,125161,128,0,125348:0:0:0:0:
64,192,125255,128,0,125348:0:0:0:0:
320,192,125348,128,0,125442:0:0:0:0:
64,192,125442,128,0,125630:0:0:0:0:
448,192,125536,128,0,125630:0:0:0:0:
192,192,125630,128,0,125817:0:0:0:0:
320,192,125723,128,0,125817:0:0:0:0:
64,192,125817,128,0,125911:0:0:0:0:
448,192,125911,128,0,126098:0:0:0:0:
320,192,126005,128,0,126098:0:0:0:0:
192,192,126098,128,0,126192:0:0:0:0:
320,192,126192,128,0,126380:0:0:0:0:
64,192,126286,128,0,126380:0:0:0:0:
448,192,126380,128,0,126567:0:0:0:0:
192,192,126473,128,0,126567:0:0:0:0:
320,192,126567,128,0,126661:0:0:0:0:
192,192,126661,128,0,126848:0:0:0:0:
448,192,126755,128,0,126848:0:0:0:0:
320,192,126848,128,0,126942:0:0:0:0:
64,192,126942,128,0,127130:0:0:0:0:
192,192,127036,128,0,127130:0:0:0:0:
320,192,127130,128,0,127317:0:0:0:0:
64,192,127223,128,0,127317:0:0:0:0:
192,192,127317,128,0,127411:0:0:0:0:
448,192,127411,128,0,127598:0:0:0:0:
320,192,127505,128,0,127598:0:0:0:0:
64,192,127598,128,0,127692:0:0:0:0:
192,192,127692,128,0,127880:0:0:0:0:
320,192,127786,128,0,127880:0:0:0:0:
448,192,127880,128,0,128067:0:0:0:0:
64,192,127973,128,0,128067:0:0:0:0:
320,192,128067,128,0,128161:0:0:0:0:
64,192,128161,128,0,128348:0:0:0:0:
448,192,128255,128,0,128348:0:0:0:0:
192,192,128348,128,0,128442:0:0:0:0:
320,192,128442,128,0,128630:0:0:0:0:
448,192,128536,128,0,128630:0:0:0:0:
192,192,128630,128,0,128817:0:0:0:0:
320,192,128723,128,0,128817:0:0:0:0:
64,192,128817,128,0,128911:0:0:0:0:
448,192,128911,128,0,129098:0:0:0:0:
192,192,129005,128,0,129098:0:0:0:0:
320,192,129098,128,0,129192:0:0:0:0:
64,192,129192,128,0,129380:0:0:0:0:
448,192,129286,128,0,129473:0:0:0:0:
192,192,129380,128,0,129567:0:0:0:0:
64,192,129473,128,0,129567:0:0:0:0:
448,192,129567,128,0,129661:0:0:0:0:
320,192,129661,128,0,129848:0:0:0:0:
448,192,129755,128,0,129848:0:0:0:0:
64,192,129848,128,0,129942:0:0:0:0:
192,192,129942,128,0,130130:0:0:0:0:
64,192,130036,128,0,130130:0:0:0:0:
448,192,130130,128,0,130317:0:0:0:0:
320,192,130223,128,0,130317:0:0:0:0:
192,192,130317,128,0,130505:0:0:0:0:
320,192,130411,128,0,130598:0:0:0:0:
448,192,130505,128,0,130598:0:0:0:0:
64,192,130598,128,0,130786:0:0:0:0:
448,192,130692,128,0,130880:0:0:0:0:
192,192,130786,128,0,130973:0:0:0:0:
320,192,130880,128,0,131067:0:0:0:0:
448,192,130973,128,0,131067:0:0:0:0:
64,192,131067,128,0,131161:0:0:0:0:
448,192,131161,128,0,131348:0:0:0:0:
192,192,131255,128,0,131348:0:0:0:0:
320,192,131348,128,0,131442:0:0:0:0:
64,192,131442,128,0,131630:0:0:0:0:
192,192,131536,128,0,131630:0:0:0:0:
320,192,131630,128,0,131817:0:0:0:0:
64,192,131723,128,0,131817:0:0:0:0:
448,192,131817,128,0,131911:0:0:0:0:
192,192,131911,128,0,132098:0:0:0:0:
64,192,132005,128,0,132098:0:0:0:0:
448,192,132098,128,0,132192:0:0:0:0:
320,192,132192,128,0,132380:0:0:0:0:
64,192,132286,128,0,132380:0:0:0:0:
448,192,132380,128,0,133317:0:0:0:0:
192,192,132661,128,0,133411:0:0:0:0:
320,192,132942,128,0,133598:0:0:0:0:
64,192,133130,128,0,133411:0:0:0:0:
448,192,133411,128,0,133598:0:0:0:0:
64,192,133505,128,0,133692:0:0:0:70:clap.wav
192,192,133505,128,0,133598:0:0:0:0:
320,192,133692,128,0,133786:0:0:0:70:clap.wav
448,192,133692,128,0,133880:0:0:0:0:
64,192,133880,128,4,133973:0:0:0:0:
192,192,133880,128,2,134067:0:0:0:0:
320,192,133880,128,0,134161:0:0:0:70:clap.wav
448,192,134067,128,0,134161:0:0:0:0:
64,192,134161,128,0,134348:0:0:0:0:
320,192,134255,128,2,134536:0:0:0:0:
448,192,134255,128,0,134442:0:0:0:70:clap.wav
192,192,134442,128,0,134536:0:0:0:0:
192,192,134630,128,2,134911:0:0:0:0:
320,192,134630,128,0,134817:0:0:0:70:clap.wav
64,192,134817,128,0,134911:0:0:0:0:
448,192,134911,128,0,135005:0:0:0:0:
64,192,135005,128,2,135286:0:0:0:0:
192,192,135005,128,0,135192:0:0:0:70:clap.wav
448,192,135192,128,0,135286:0:0:0:0:
320,192,135286,128,0,135473:0:0:0:0:
64,192,135380,128,2,135661:0:0:0:0:
448,192,135380,128,0,135567:0:0:0:70:clap.wav
192,192,135567,128,0,135661:0:0:0:0:
448,192,135661,128,0,135755:0:0:0:0:
64,192,135755,128,2,135942:0:0:0:0:
192,192,135755,128,0,136036:0:0:0:70:clap.wav
320,192,135942,128,0,136036:0:0:0:0:
192,192,136130,128,2,136317:0:0:0:0:
320,192,136130,128,0,136411:0:0:0:70:clap.wav
448,192,136317,128,0,136411:0:0:0:0:
64,192,136411,128,0,136505:0:0:0:0:
320,192,136505,128,2,136692:0:0:0:0:
448,192,136505,128,0,136786:0:0:0:70:clap.wav
192,192,136692,128,0,136880:0:0:0:0:
320,192,136786,128,0,137067:0:0:0:0:
64,192,136880,1,2,0:0:0:0:
448,192,136880,128,0,136973:0:0:0:70:clap.wav
192,192,136973,128,0,137161:0:0:0:0:
64,192,137067,128,0,137161:0:0:0:0:
448,192,137161,128,0,137255:0:0:0:0:
64,192,137255,128,2,137536:0:0:0:0:
192,192,137255,128,0,137442:0:0:0:70:clap.wav
448,192,137442,128,0,137536:0:0:0:0:
64,192,137630,128,2,137817:0:0:0:0:
448,192,137630,128,0,137911:0:0:0:70:clap.wav
320,192,137817,128,0,137911:0:0:0:0:
64,192,137911,128,0,138005:0:0:0:0:
320,192,138005,128,2,138286:0:0:0:0:
448,192,138005,128,0,138192:0:0:0:70:clap.wav
192,192,138192,128,0,138286:0:0:0:0:
192,192,138380,128,2,138567:0:0:0:0:
320,192,138380,128,0,138473:0:0:0:70:clap.wav
64,192,138473,128,0,138661:0:0:0:0:
448,192,138567,128,0,138661:0:0:0:0:
320,192,138661,128,0,138755:0:0:0:0:
64,192,138755,128,2,138942:0:0:0:0:
448,192,138755,128,0,139036:0:0:0:70:clap.wav
320,192,138942,128,0,139036:0:0:0:0:
320,192,139130,128,2,139411:0:0:0:0:
448,192,139130,128,0,139317:0:0:0:70:clap.wav
64,192,139317,128,0,139411:0:0:0:0:
448,192,139411,128,0,139598:0:0:0:0:
64,192,139505,128,2,139786:0:0:0:0:
320,192,139505,128,0,139598:0:0:0:70:clap.wav
192,192,139598,128,0,139786:0:0:0:0:
448,192,139692,128,0,139786:0:0:0:0:
64,192,139880,1,4,0:0:0:0:
192,192,139880,1,0,0:0:0:60:snare1.wav
448,192,139880,1,0,0:0:0:0:
64,192,140067,1,0,0:0:0:60:snare1.wav
320,192,140067,1,0,0:0:0:0:
64,192,140255,1,0,0:0:0:60:snare1.wav
192,192,140255,1,0,0:0:0:0:
64,192,140442,1,0,0:0:0:60:snare1.wav
320,192,140442,1,0,0:0:0:0:
64,192,140630,1,0,0:0:0:60:snare1.wav
448,192,140630,1,0,0:0:0:0:
192,192,140817,1,0,0:0:0:60:snare1.wav
448,192,140817,1,0,0:0:0:0:
448,192,141005,1,0,0:0:0:60:snare1.wav
64,192,141005,128,0,141286:0:0:0:0:
320,192,141192,1,0,0:0:0:60:snare1.wav
448,192,141192,1,0,0:0:0:0:
192,192,141286,1,0,0:0:0:0:
64,192,141380,1,4,0:0:0:0:
320,192,141380,1,0,0:0:0:60:snare1.wav
448,192,141380,128,0,141661:0:0:0:0:
64,192,141567,1,0,0:0:0:60:snare1.wav
192,192,141567,1,0,0:0:0:0:
192,192,141755,128,0,142036:0:0:0:60:snare1.wav
448,192,141755,1,0,0:0:0:0:
64,192,141942,1,0,0:0:0:60:snare1.wav
320,192,141942,1,0,0:0:0:0:
192,192,142130,1,0,0:0:0:60:snare1.wav
320,192,142130,128,0,142411:0:0:0:0:
64,192,142317,1,0,0:0:0:60:snare1.wav
448,192,142317,1,0,0:0:0:0:
320,192,142505,1,0,0:0:0:60:snare1.wav
448,192,142505,128,0,142786:0:0:0:0:
64,192,142692,1,0,0:0:0:60:snare1.wav
192,192,142692,1,0,0:0:0:0:
320,192,142786,1,0,0:0:0:0:
64,192,142880,1,4,0:0:0:0:
192,192,142880,1,0,0:0:0:60:snare1.wav
448,192,142880,1,0,0:0:0:0:
320,192,142973,1,0,0:0:0:60:snare1.wav
64,192,143067,1,0,0:0:0:60:snare1.wav
192,192,143067,1,0,0:0:0:0:
320,192,143161,1,0,0:0:0:60:snare1.wav
448,192,143161,1,0,0:0:0:0:
64,192,143255,1,4,0:0:0:0:
320,192,143255,1,0,0:0:0:60:snare1.wav
448,192,143255,1,0,0:0:0:0:
192,192,143348,1,0,0:0:0:60:snare1.wav
320,192,143442,1,0,0:0:0:60:snare1.wav
448,192,143442,1,0,0:0:0:0:
64,192,143536,1,0,0:0:0:60:snare1.wav
192,192,143536,1,0,0:0:0:0:
64,192,143630,1,4,0:0:0:0:
192,192,143630,1,0,0:0:0:60:snare1.wav
448,192,143630,1,0,0:0:0:0:
320,192,143723,1,0,0:0:0:60:snare1.wav
192,192,143817,1,0,0:0:0:60:snare1.wav
448,192,143911,1,0,0:0:0:60:snare1.wav
64,192,144005,1,4,0:0:0:0:
320,192,144005,1,0,0:0:0:60:snare1.wav
448,192,144005,1,0,0:0:0:0:
64,192,144098,1,0,0:0:0:60:snare1.wav
320,192,144192,1,0,0:0:0:60:snare1.wav
192,192,144286,1,0,0:0:0:60:snare1.wav
64,192,144380,1,0,0:0:0:60:snare1.wav
320,192,144380,1,0,0:0:0:0:
448,192,144380,1,0,0:0:0:0:
64,192,144755,1,0,0:0:0:60:snare1.wav
192,192,144755,1,0,0:0:0:0:
448,192,144755,1,0,0:0:0:0:
448,192,144942,1,0,0:0:0:60:snare1.wav
192,192,144942,1,0,0:0:0:0:
64,192,144942,1,0,0:0:0:0:
192,192,145036,1,0,0:0:0:60:snare1.wav
64,192,145036,1,0,0:0:0:0:
448,192,145130,1,0,0:0:0:60:snare1.wav
320,192,145130,1,0,0:0:0:0:
448,192,145223,1,0,0:0:0:60:snare1.wav
320,192,145223,1,0,0:0:0:0:
192,192,145317,1,0,0:0:0:60:snare1.wav
64,192,145317,1,0,0:0:0:0:
320,192,145411,128,0,145505:0:0:0:0:
448,192,145505,128,0,145786:0:0:0:0:
192,192,145505,1,0,0:0:0:0:
64,192,145598,128,0,145786:0:0:0:0:
320,192,145692,128,0,145786:0:0:0:0:
64,192,145880,1,4,0:0:0:0:
320,192,145880,128,0,146067:0:0:0:60:kick.wav
448,192,145880,128,0,145973:0:0:0:0:
192,192,145973,128,0,146067:0:0:0:0:
448,192,146067,128,0,146161:0:0:0:0:
64,192,146161,128,0,146255:0:0:0:0:
192,192,146161,128,0,146348:0:0:0:0:
320,192,146255,128,0,146348:0:0:0:60:kick.wav
448,192,146255,1,0,0:0:0:0:
64,192,146348,128,0,146442:0:0:0:0:
320,192,146442,128,0,146536:0:0:0:0:
448,192,146442,128,0,146630:0:0:0:0:
64,192,146630,1,0,0:0:0:60:kick.wav
192,192,146630,128,0,146723:0:0:0:0:
320,192,146630,128,0,146817:0:0:0:0:
448,192,146723,128,0,146817:0:0:0:0:
64,192,146817,128,0,146911:0:0:0:0:
192,192,146911,128,0,147098:0:0:0:0:
320,192,146911,128,0,147005:0:0:0:0:
64,192,147005,128,0,147098:0:0:0:60:kick.wav
448,192,147005,1,0,0:0:0:0:
320,192,147098,128,0,147192:0:0:0:0:
64,192,147192,128,0,147286:0:0:0:0:
192,192,147192,128,0,147286:0:0:0:0:
320,192,147286,128,0,147380:0:0:0:0:
448,192,147286,128,0,147473:0:0:0:0:
64,192,147380,128,0,147473:0:0:0:60:kick.wav
192,192,147380,128,0,147567:0:0:0:0:
320,192,147473,128,0,147567:0:0:0:0:
448,192,147567,128,0,147661:0:0:0:0:
192,192,147661,128,0,147755:0:0:0:0:
320,192,147661,128,0,147848:0:0:0:0:
64,192,147755,128,0,147848:0:0:0:60:kick.wav
448,192,147755,1,0,0:0:0:0:
192,192,147848,128,0,147942:0:0:0:0:
320,192,147942,128,0,148036:0:0:0:0:
448,192,147942,128,0,148130:0:0:0:0:
64,192,148130,128,0,148317:0:0:0:60:kick.wav
192,192,148130,128,0,148223:0:0:0:0:
320,192,148130,1,0,0:0:0:0:
448,192,148223,128,0,148317:0:0:0:0:
320,192,148317,128,0,148411:0:0:0:0:
64,192,148411,128,0,148505:0:0:0:0:
192,192,148411,128,0,148598:0:0:0:0:
320,192,148505,128,0,148692:0:0:0:60:kick.wav
448,192,148505,128,0,148598:0:0:0:0:
64,192,148692,128,0,148786:0:0:0:60:kick.wav
192,192,148692,128,0,148786:0:0:0:0:
448,192,148692,128,0,148786:0:0:0:0:
320,192,148786,128,0,148880:0:0:0:0:
64,192,148880,128,0,149067:0:0:0:60:kick.wav
192,192,148880,128,0,148973:0:0:0:0:
448,192,148880,1,0,0:0:0:0:
320,192,148973,128,0,149067:0:0:0:0:
448,192,149067,128,0,149161:0:0:0:0:
64,192,149161,128,0,149255:0:0:0:0:
192,192,149161,128,0,149348:0:0:0:0:
320,192,149255,128,0,149348:0:0:0:60:kick.wav
448,192,149255,1,0,0:0:0:0:
64,192,149348,128,0,149442:0:0:0:0:
320,192,149442,128,0,149630:0:0:0:0:
448,192,149442,128,0,149536:0:0:0:0:
64,192,149630,1,0,0:0:0:60:kick.wav
192,192,149630,128,0,149817:0:0:0:0:
448,192,149630,128,0,149723:0:0:0:0:
320,192,149723,128,0,149817:0:0:0:0:
64,192,149817,128,0,149911:0:0:0:0:
192,192,149911,128,0,150005:0:0:0:0:
320,192,149911,128,0,150098:0:0:0:0:
64,192,150005,128,0,150098:0:0:0:60:kick.wav
448,192,150005,1,0,0:0:0:0:
192,192,150098,128,0,150192:0:0:0:0:
320,192,150192,128,0,150286:0:0:0:0:
448,192,150192,128,0,150380:0:0:0:0:
64,192,150380,128,0,150473:0:0:0:60:kick.wav
192,192,150380,128,0,150567:0:0:0:0:
320,192,150380,1,0,0:0:0:0:
448,192,150473,128,0,150567:0:0:0:0:
64,192,150567,128,0,150661:0:0:0:0:
320,192,150661,128,0,150848:0:0:0:0:
448,192,150661,128,0,150755:0:0:0:0:
64,192,150755,1,0,0:0:0:60:kick.wav
192,192,150755,128,0,150848:0:0:0:0:
448,192,150848,128,0,150942:0:0:0:0:
192,192,150942,128,0,151130:0:0:0:0:
320,192,150942,128,0,151036:0:0:0:0:
64,192,151130,1,0,0:0:0:60:kick.wav
320,192,151130,128,0,151223:0:0:0:0:
448,192,151130,128,0,151317:0:0:0:0:
192,192,151223,128,0,151317:0:0:0:0:
64,192,151317,128,0,151411:0:0:0:0:
320,192,151411,128,0,151598:0:0:0:60:kick.wav
448,192,151411,128,0,151505:0:0:0:0:
64,192,151505,128,0,151692:0:0:0:60:kick.wav
192,192,151505,128,0,151598:0:0:0:0:
192,192,151692,128,0,151786:0:0:0:60:kick.wav
320,192,151692,128,0,151786:0:0:0:0:
448,192,151692,128,0,151786:0:0:0:0:
192,192,151880,128,0,152067:0:0:0:60:kick.wav
320,192,151880,128,0,151973:0:0:0:0:
448,192,151880,1,0,0:0:0:0:
64,192,151973,128,0,152067:0:0:0:0:
448,192,152067,128,0,152161:0:0:0:0:
192,192,152161,128,0,152255:0:0:0:0:
320,192,152161,128,0,152348:0:0:0:0:
64,192,152255,1,0,0:0:0:60:kick.wav
448,192,152255,128,0,152348:0:0:0:0:
192,192,152348,128,0,152442:0:0:0:0:
320,192,152442,128,0,152536:0:0:0:0:
448,192,152442,128,0,152630:0:0:0:0:
64,192,152630,128,0,152817:0:0:0:60:kick.wav
192,192,152630,128,0,152723:0:0:0:0:
320,192,152630,1,0,0:0:0:0:
448,192,152723,128,0,152817:0:0:0:0:
320,192,152817,128,0,152911:0:0:0:0:
64,192,152911,128,0,153005:0:0:0:0:
192,192,152911,128,0,153098:0:0:0:0:
320,192,153005,128,0,153098:0:0:0:60:kick.wav
448,192,153005,1,0,0:0:0:0:
64,192,153098,128,0,153192:0:0:0:0:
320,192,153192,128,0,153286:0:0:0:0:
448,192,153192,128,0,153286:0:0:0:0:
64,192,153286,128,0,153473:0:0:0:0:
192,192,153286,128,0,153380:0:0:0:0:
320,192,153380,128,0,153567:0:0:0:60:kick.wav
448,192,153380,128,0,153473:0:0:0:0:
192,192,153473,128,0,153567:0:0:0:0:
64,192,153567,128,0,153661:0:0:0:0:
192,192,153661,128,0,153848:0:0:0:0:
320,192,153661,128,0,153755:0:0:0:0:
64,192,153755,1,0,0:0:0:60:kick.wav
448,192,153755,128,0,153848:0:0:0:0:
320,192,153848,128,0,153942:0:0:0:0:
64,192,153942,128,0,154130:0:0:0:0:
192,192,153942,128,0,154036:0:0:0:0:
192,192,154130,1,0,0:0:0:60:kick.wav
320,192,154130,128,0,154223:0:0:0:0:
448,192,154130,128,0,154317:0:0:0:0:
64,192,154223,128,0,154317:0:0:0:0:
192,192,154317,128,0,154411:0:0:0:0:
320,192,154411,128,0,154598:0:0:0:0:
448,192,154411,128,0,154505:0:0:0:0:
64,192,154505,128,0,154598:0:0:0:60:kick.wav
192,192,154505,128,0,154692:0:0:0:0:
64,192,154692,128,0,154786:0:0:0:60:kick.wav
320,192,154692,128,0,154786:0:0:0:0:
448,192,154692,128,0,154786:0:0:0:0:
192,192,154786,128,0,154880:0:0:0:0:
64,192,154880,1,0,0:0:0:60:kick.wav
320,192,154880,128,0,155067:0:0:0:0:
448,192,154880,128,0,154973:0:0:0:0:
192,192,154973,128,0,155067:0:0:0:0:
64,192,155067,128,0,155161:0:0:0:0:
192,192,155161,128,0,155348:0:0:0:0:
320,192,155161,128,0,155255:0:0:0:0:
64,192,155255,128,0,155348:0:0:0:60:kick.wav
448,192,155255,1,0,0:0:0:0:
320,192,155348,128,0,155442:0:0:0:0:
64,192,155442,128,0,155630:0:0:0:0:
192,192,155442,128,0,155536:0:0:0:0:
192,192,155630,128,0,155817:0:0:0:60:kick.wav
320,192,155630,128,0,155723:0:0:0:0:
448,192,155630,128,0,155723:0:0:0:0:
64,192,155723,128,0,155817:0:0:0:0:
320,192,155817,128,0,155911:0:0:0:60:kick.wav
448,192,155817,128,0,156005:0:0:0:0:
64,192,155911,128,0,156098:0:0:0:0:
192,192,156005,128,0,156098:0:0:0:60:kick.wav
320,192,156005,128,0,156192:0:0:0:0:
448,192,156098,128,0,156192:0:0:0:0:
64,192,156192,128,0,156286:0:0:0:60:kick.wav
192,192,156192,128,0,156380:0:0:0:0:
64,192,156380,1,2,0:0:0:0:
320,192,156380,1,0,0:0:0:70:cymbal_short.wav
448,192,156380,1,0,0:0:0:0:
64,192,156567,1,2,0:0:0:0:
320,192,156567,1,0,0:0:0:70:cymbal_short.wav
448,192,156567,1,0,0:0:0:0:
64,192,156661,1,2,0:0:0:0:
320,192,156661,1,0,0:0:0:70:cymbal_short.wav
448,192,156661,1,0,0:0:0:0:
64,192,156848,1,2,0:0:0:0:
192,192,156848,1,0,0:0:0:70:cymbal_short.wav
64,192,156942,1,2,0:0:0:0:
192,192,156942,1,0,0:0:0:70:cymbal_short.wav
320,192,157036,1,2,0:0:0:0:
448,192,157036,1,0,0:0:0:70:cymbal_short.wav
64,192,157130,128,2,157317:0:0:0:0:
320,192,157130,1,0,0:0:0:70:cymbal_short.wav
448,192,157130,1,0,0:0:0:0:
192,192,157223,128,0,157317:0:0:0:0:
320,192,157317,128,2,157505:0:0:0:0:
448,192,157317,128,0,157411:0:0:0:70:cymbal_short.wav
192,192,157411,128,0,157598:0:0:0:0:
64,192,157505,128,0,157786:0:0:0:0:
448,192,157598,128,0,157692:0:0:0:0:
320,192,157692,128,0,157786:0:0:0:0:
192,192,157786,128,0,157880:0:0:0:0:
64,192,157880,1,4,0:0:0:0:
320,192,157880,128,0,158067:0:0:0:60:kick.wav
448,192,157880,128,0,157973:0:0:0:0:
192,192,157973,128,0,158161:0:0:0:0:
448,192,158067,128,0,158161:0:0:0:0:
320,192,158161,128,0,158255:0:0:0:0:
64,192,158255,128,0,158348:0:0:0:60:kick.wav
192,192,158255,128,0,158442:0:0:0:0:
448,192,158348,128,0,158536:0:0:0:0:
64,192,158442,128,0,158630:0:0:0:0:
192,192,158536,128,0,158723:0:0:0:0:
320,192,158630,128,0,158723:0:0:0:60:kick.wav
448,192,158630,128,0,158817:0:0:0:0:
64,192,158723,128,0,158817:0:0:0:0:
320,192,158817,128,0,159005:0:0:0:0:
448,192,158911,128,0,159098:0:0:0:0:
64,192,159005,128,0,159098:0:0:0:60:kick.wav
192,192,159005,128,0,159192:0:0:0:0:
320,192,159098,128,0,159192:0:0:0:0:
448,192,159192,128,0,159380:0:0:0:0:
320,192,159286,128,0,159473:0:0:0:0:
64,192,159380,128,0,159567:0:0:0:60:kick.wav
192,192,159380,128,0,159473:0:0:0:0:
448,192,159473,128,0,159567:0:0:0:0:
192,192,159567,128,0,159755:0:0:0:0:
320,192,159661,128,0,159848:0:0:0:0:
64,192,159755,128,0,159942:0:0:0:60:kick.wav
448,192,159755,128,0,159848:0:0:0:0:
192,192,159848,128,0,160036:0:0:0:0:
320,192,159942,128,0,160130:0:0:0:0:
448,192,160036,128,0,160223:0:0:0:0:
64,192,160130,128,0,160223:0:0:0:60:kick.wav
192,192,160130,128,0,160317:0:0:0:0:
320,192,160223,128,0,160411:0:0:0:0:
64,192,160317,128,0,160505:0:0:0:0:
448,192,160411,128,0,160598:0:0:0:0:
192,192,160505,128,0,160692:0:0:0:60:kick.wav
320,192,160505,128,0,160598:0:0:0:0:
64,192,160598,128,0,160692:0:0:0:0:
320,192,160692,128,0,160786:0:0:0:60:kick.wav
448,192,160692,128,0,160786:0:0:0:0:
64,192,160786,128,0,160880:0:0:0:0:
192,192,160786,128,0,160973:0:0:0:0:
320,192,160880,128,0,160973:0:0:0:60:kick.wav
448,192,160880,128,0,161067:0:0:0:0:
64,192,160973,128,0,161161:0:0:0:0:
192,192,161067,128,0,161255:0:0:0:0:
320,192,161161,128,0,161348:0:0:0:0:
64,192,161255,128,0,161442:0:0:0:60:kick.wav
448,192,161255,128,0,161348:0:0:0:0:
192,192,161348,128,0,161536:0:0:0:0:
448,192,161442,128,0,161630:0:0:0:0:
320,192,161536,128,0,161630:0:0:0:0:
64,192,161630,128,0,161817:0:0:0:60:kick.wav
192,192,161630,128,0,161723:0:0:0:0:
448,192,161723,128,0,161911:0:0:0:0:
192,192,161817,128,0,162005:0:0:0:0:
320,192,161911,128,0,162098:0:0:0:0:
64,192,162005,128,0,162192:0:0:0:60:kick.wav
448,192,162005,128,0,162098:0:0:0:0:
192,192,162098,128,0,162286:0:0:0:0:
448,192,162192,128,0,162380:0:0:0:0:
320,192,162286,128,0,162473:0:0:0:0:
64,192,162380,128,0,162567:0:0:0:60:kick.wav
192,192,162380,128,0,162473:0:0:0:0:
448,192,162473,128,0,162567:0:0:0:0:
320,192,162567,128,0,162755:0:0:0:0:
192,192,162661,128,0,162755:0:0:0:0:
64,192,162755,128,0,162848:0:0:0:60:kick.wav
448,192,162755,128,0,162942:0:0:0:0:
320,192,162848,128,0,162942:0:0:0:0:
192,192,162942,128,0,163130:0:0:0:0:
320,192,163036,128,0,163223:0:0:0:0:
64,192,163130,128,0,163223:0:0:0:60:kick.wav
448,192,163130,128,0,163317:0:0:0:0:
192,192,163223,128,0,163411:0:0:0:0:
64,192,163317,128,0,163411:0:0:0:0:
320,192,163411,128,0,163505:0:0:0:60:kick.wav
448,192,163411,128,0,163598:0:0:0:0:
64,192,163505,128,0,163598:0:0:0:60:kick.wav
192,192,163505,128,0,163786:0:0:0:0:
64,192,163692,128,0,163786:0:0:0:60:kick.wav
320,192,163692,128,0,163786:0:0:0:0:
448,192,163692,128,0,163786:0:0:0:0:
64,192,163880,1,0,0:0:0:60:kick.wav
320,192,163880,128,0,164067:0:0:0:0:
448,192,163880,128,0,163973:0:0:0:0:
192,192,163973,128,0,164161:0:0:0:0:
64,192,164067,128,2,164161:0:0:0:0:
320,192,164161,128,0,164348:0:0:0:0:
64,192,164255,128,0,164348:0:0:0:60:kick.wav
192,192,164255,128,0,164442:0:0:0:0:
448,192,164348,128,0,164536:0:0:0:0:
320,192,164442,128,2,164630:0:0:0:0:
192,192,164536,128,0,164723:0:0:0:0:
64,192,164630,128,0,164817:0:0:0:60:kick.wav
448,192,164630,128,0,164723:0:0:0:0:
320,192,164723,128,0,164911:0:0:0:0:
192,192,164817,128,2,165005:0:0:0:0:
448,192,164911,128,0,165098:0:0:0:0:
64,192,165005,128,0,165192:0:0:0:60:kick.wav
320,192,165005,128,0,165098:0:0:0:0:
192,192,165098,128,0,165286:0:0:0:0:
448,192,165192,128,2,165380:0:0:0:0:
320,192,165286,128,0,165473:0:0:0:0:
64,192,165380,128,0,165567:0:0:0:60:kick.wav
192,192,165380,128,0,165473:0:0:0:0:
448,192,165473,128,0,165567:0:0:0:0:
192,192,165567,128,2,165755:0:0:0:0:
320,192,165661,128,0,165848:0:0:0:0:
64,192,165755,128,0,165942:0:0:0:60:kick.wav
448,192,165755,128,0,165848:0:0:0:0:
192,192,165848,128,0,166036:0:0:0:0:
448,192,165942,128,2,166130:0:0:0:0:
320,192,166036,128,0,166223:0:0:0:0:
64,192,166130,128,0,166317:0:0:0:60:kick.wav
192,192,166130,128,0,166223:0:0:0:0:
448,192,166223,128,0,166411:0:0:0:0:
192,192,166317,128,2,166505:0:0:0:0:
64,192,166411,128,0,166598:0:0:0:0:
320,192,166505,128,0,166692:0:0:0:60:kick.wav
448,192,166505,128,0,166598:0:0:0:0:
192,192,166598,128,0,166692:0:0:0:0:
64,192,166692,128,2,166786:0:0:0:0:
448,192,166692,128,0,166786:0:0:0:60:kick.wav
192,192,166786,128,0,166973:0:0:0:0:
320,192,166786,128,0,166880:0:0:0:0:
64,192,166880,128,2,166973:0:0:0:0:
448,192,166880,128,0,167067:0:0:0:60:kick.wav
320,192,166973,128,2,167161:0:0:0:0:
192,192,167067,128,2,167255:0:0:0:0:
448,192,167161,128,2,167255:0:0:0:0:
64,192,167255,128,2,167442:0:0:0:0:
320,192,167255,128,0,167348:0:0:0:60:kick.wav
192,192,167348,128,2,167536:0:0:0:0:
320,192,167442,128,2,167630:0:0:0:0:
448,192,167536,128,2,167630:0:0:0:0:
64,192,167630,128,2,167723:0:0:0:0:
192,192,167630,128,0,167817:0:0:0:60:kick.wav
320,192,167723,128,2,167911:0:0:0:0:
64,192,167817,1,2,0:0:0:0:
448,192,167817,128,0,167911:0:0:0:60:kick.wav
192,192,167911,128,2,168005:0:0:0:0:
320,192,168005,128,2,168192:0:0:0:0:
448,192,168005,128,0,168098:0:0:0:60:kick.wav
192,192,168098,128,2,168286:0:0:0:0:
64,192,168192,128,2,168286:0:0:0:0:
448,192,168192,1,0,0:0:0:60:kick.wav
320,192,168286,128,2,168380:0:0:0:0:
64,192,168380,1,2,0:0:0:0:
192,192,168380,1,0,0:0:0:70:cymbal_short.wav
448,192,168380,1,0,0:0:0:0:
64,192,168567,1,2,0:0:0:0:
320,192,168567,1,0,0:0:0:70:cymbal_short.wav
448,192,168567,1,0,0:0:0:0:
64,192,168661,1,2,0:0:0:0:
320,192,168661,1,0,0:0:0:70:cymbal_short.wav
448,192,168661,1,0,0:0:0:0:
64,192,168848,1,2,0:0:0:0:
192,192,168848,1,0,0:0:0:70:cymbal_short.wav
64,192,168942,1,2,0:0:0:0:
192,192,168942,1,0,0:0:0:70:cymbal_short.wav
320,192,169036,1,2,0:0:0:0:
448,192,169036,1,0,0:0:0:70:cymbal_short.wav
64,192,169130,1,2,0:0:0:0:
320,192,169130,1,0,0:0:0:70:cymbal_short.wav
448,192,169130,1,0,0:0:0:0:
64,192,169317,1,2,0:0:0:0:
192,192,169317,1,0,0:0:0:70:cymbal_short.wav
320,192,169317,1,0,0:0:0:0:
64,192,169505,128,0,169692:0:0:0:0:
448,192,169505,128,0,169786:0:0:0:0:
320,192,169692,128,0,169786:0:0:0:0:
64,192,169786,128,0,170114:0:0:0:0:
192,192,169880,128,4,170161:0:0:0:0:
320,192,169880,128,0,170208:0:0:0:60:kick.wav
448,192,169880,128,0,170255:0:0:0:0:
