osu file format v14

[General]
AudioFilename: audio.mp3
AudioLeadIn: 0
PreviewTime: 49692
Countdown: 0
SampleSet: Soft
StackLeniency: 0.7
Mode: 3
LetterboxInBreaks: 0
SpecialStyle: 0
WidescreenStoryboard: 1

[Editor]
DistanceSpacing: 1.3
BeatDivisor: 4
GridSize: 32
TimelineZoom: 2.1

[Metadata]
Title:Shizuku (feat. NEONA & KOTONOHOUSE)
TitleUnicode:Shizuku (feat. NEONA & KOTONOHOUSE)
Artist:PIKASONIC & Tatsunoshin
ArtistUnicode:PIKASONIC & Tatsunoshin
Creator:Ppass
Version:Hard
Source:
Tags:4KMT Korean Mania Tournament PSYBER COMET electronic japanese LN Longnote long note ft. おみや omy happy hardcore
BeatmapID:4280025
BeatmapSetID:2011447

[Difficulty]
HPDrainRate:8
CircleSize:4
OverallDifficulty:7.5
ApproachRate:5
SliderMultiplier:1.4
SliderTickRate:1

[Events]
//Background and Video events
Video,0,"1.mp4"
0,0,"background.jpg",0,0
//Break Periods
//Storyboard Layer 0 (Background)
//Storyboard Layer 1 (Fail)
//Storyboard Layer 2 (Pass)
//Storyboard Layer 3 (Foreground)
//Storyboard Layer 4 (Overlay)
//Storyboard Sound Samples
Sample,119630,0,"clap.wav",70
Sample,120005,0,"clap.wav",70
Sample,157317,0,"cymbal_short.wav",70

[TimingPoints]
1880,375,4,2,1,60,1,0
49880,-100,4,2,1,60,0,1
73880,-100,4,2,1,60,0,0
145880,-100,4,2,1,60,0,1
169880,-100,4,2,1,60,0,0

[HitObjects]
320,192,1130,5,0,0:0:0:0:
64,192,1317,1,0,0:0:0:0:
320,192,1505,1,0,0:0:0:0:
192,192,1692,1,0,0:0:0:0:
64,192,1880,128,4,2067:0:0:0:0:
448,192,1880,128,0,2442:0:0:0:0:
64,192,2442,128,0,2630:0:0:0:0:
320,192,2630,128,0,3005:0:0:0:0:
64,192,3005,128,0,3192:0:0:0:0:
192,192,3192,128,0,3380:0:0:0:0:
320,192,3380,128,0,3567:0:0:0:0:
448,192,3380,128,0,3755:0:0:0:0:
64,192,3567,128,0,4130:0:0:0:0:
192,192,3755,1,0,0:0:0:0:
448,192,3942,1,0,0:0:0:0:
320,192,4130,128,0,4505:0:0:0:0:
448,192,4317,128,0,4505:0:0:0:0:
64,192,4505,128,0,4692:0:0:0:0:
448,192,4692,128,0,4880:0:0:0:0:
64,192,4880,128,0,5255:0:0:0:0:
192,192,4880,128,0,5067:0:0:0:0:
448,192,5067,1,0,0:0:0:0:
320,192,5255,1,0,0:0:0:0:
64,192,5442,1,0,0:0:0:0:
448,192,5630,1,0,0:0:0:0:
192,192,5817,128,0,6005:0:0:0:0:
448,192,6005,128,0,6192:0:0:0:0:
320,192,6192,128,0,6380:0:0:0:0:
64,192,6380,128,0,6755:0:0:0:0:
192,192,6380,128,0,6567:0:0:0:0:
448,192,6567,1,0,0:0:0:0:
320,192,6755,128,0,6942:0:0:0:0:
192,192,6942,128,0,7130:0:0:0:0:
320,192,7130,128,0,7317:0:0:0:0:
448,192,7130,128,0,7880:0:0:0:0:
64,192,7317,1,0,0:0:0:0:
192,192,7505,1,0,0:0:0:0:
320,192,7692,1,0,0:0:0:0:
64,192,7880,128,0,8067:0:0:0:0:
192,192,7880,128,0,8255:0:0:0:0:
448,192,8255,128,0,8442:0:0:0:0:
64,192,8442,128,0,8630:0:0:0:0:
320,192,8630,1,0,0:0:0:0:
192,192,8817,1,0,0:0:0:0:
320,192,9005,128,0,9192:0:0:0:0:
64,192,9192,128,0,9380:0:0:0:0:
320,192,9380,128,0,9567:0:0:0:0:
448,192,9380,128,0,9567:0:0:0:0:
192,192,9567,128,0,9942:0:0:0:0:
320,192,9755,1,0,0:0:0:0:
64,192,9942,128,0,10317:0:0:0:0:
448,192,10130,1,0,0:0:0:0:
320,192,10317,128,0,10692:0:0:0:0:
192,192,10505,128,0,10692:0:0:0:0:
448,192,10692,128,0,10880:0:0:0:0:
64,192,10880,128,0,11255:0:0:0:0:
192,192,10880,128,0,11067:0:0:0:0:
320,192,11067,1,0,0:0:0:0:
448,192,11255,128,0,11442:0:0:0:0:
192,192,11442,128,0,11817:0:0:0:0:
320,192,11630,128,0,11817:0:0:0:0:
64,192,11817,1,0,0:0:0:0:
192,192,12005,1,0,0:0:0:0:
320,192,12192,128,0,12380:0:0:0:0:
64,192,12380,128,0,12755:0:0:0:0:
192,192,12380,128,0,12567:0:0:0:0:
448,192,12567,1,0,0:0:0:0:
320,192,12755,128,0,12942:0:0:0:0:
192,192,12942,128,0,13130:0:0:0:0:
320,192,13130,128,0,13317:0:0:0:0:
448,192,13130,128,0,13692:0:0:0:0:
64,192,13317,128,0,13692:0:0:0:0:
192,192,13505,1,0,0:0:0:0:
320,192,13692,1,0,0:0:0:0:
64,192,13880,128,4,14067:0:0:0:0:
448,192,13880,128,0,14255:0:0:0:0:
64,192,14255,128,0,14630:0:0:0:0:
192,192,14442,128,0,14630:0:0:0:0:
320,192,14630,128,0,15005:0:0:0:0:
448,192,14630,1,0,0:0:0:0:
192,192,14817,1,0,0:0:0:0:
64,192,15005,128,0,15192:0:0:0:0:
448,192,15192,128,0,15380:0:0:0:0:
64,192,15380,128,0,15755:0:0:0:0:
192,192,15380,128,0,15567:0:0:0:0:
320,192,15567,1,0,0:0:0:0:
448,192,15755,128,0,16130:0:0:0:0:
320,192,15942,128,0,16130:0:0:0:0:
64,192,16130,1,0,0:0:0:0:
192,192,16130,128,0,16505:0:0:0:0:
448,192,16317,1,0,0:0:0:0:
320,192,16505,128,0,16692:0:0:0:0:
64,192,16692,128,0,16880:0:0:0:0:
320,192,16880,128,0,17067:0:0:0:0:
448,192,16880,128,0,17255:0:0:0:0:
64,192,17067,1,0,0:0:0:0:
192,192,17255,128,0,17630:0:0:0:0:
320,192,17442,128,0,17630:0:0:0:0:
64,192,17630,1,0,0:0:0:0:
448,192,17630,1,0,0:0:0:0:
192,192,17817,128,0,18005:0:0:0:0:
320,192,18005,128,0,18192:0:0:0:0:
64,192,18192,128,0,18380:0:0:0:0:
320,192,18380,128,0,18567:0:0:0:0:
448,192,18380,128,0,18755:0:0:0:0:
64,192,18567,1,0,0:0:0:0:
192,192,18661,1,0,0:0:0:0:
320,192,18755,128,0,18942:0:0:0:0:
448,192,18942,128,0,19130:0:0:0:0:
64,192,19130,128,0,19505:0:0:0:0:
192,192,19130,128,0,19317:0:0:0:0:
320,192,19317,1,0,0:0:0:0:
448,192,19505,128,0,19692:0:0:0:0:
64,192,19692,128,0,19880:0:0:0:0:
320,192,19880,128,4,20255:0:0:0:0:
448,192,19880,128,0,20067:0:0:0:0:
192,192,20255,128,0,20630:0:0:0:0:
64,192,20442,128,0,20630:0:0:0:0:
320,192,20630,1,0,0:0:0:0:
448,192,20630,128,0,21005:0:0:0:0:
192,192,20817,1,0,0:0:0:0:
192,192,21005,128,0,21192:0:0:0:0:
320,192,21192,128,0,21380:0:0:0:0:
64,192,21380,128,0,21567:0:0:0:0:
192,192,21380,128,0,21755:0:0:0:0:
448,192,21567,1,0,0:0:0:0:
320,192,21755,128,0,22130:0:0:0:0:
448,192,21942,128,0,22130:0:0:0:0:
64,192,22130,128,0,22505:0:0:0:0:
192,192,22130,1,0,0:0:0:0:
320,192,22317,1,0,0:0:0:0:
448,192,22505,128,0,22692:0:0:0:0:
192,192,22692,128,0,22880:0:0:0:0:
320,192,22880,128,0,23067:0:0:0:0:
448,192,22880,128,0,23255:0:0:0:0:
64,192,23067,1,0,0:0:0:0:
192,192,23255,128,0,23630:0:0:0:0:
64,192,23442,128,0,23630:0:0:0:0:
320,192,23630,1,0,0:0:0:0:
448,192,23630,128,0,24005:0:0:0:0:
64,192,23817,1,0,0:0:0:0:
192,192,24005,128,0,24192:0:0:0:0:
320,192,24192,128,0,24380:0:0:0:0:
64,192,24380,128,0,24755:0:0:0:0:
448,192,24380,1,0,0:0:0:0:
448,192,24567,128,0,24755:0:0:0:0:
192,192,24755,128,0,25130:0:0:0:0:
320,192,24755,1,0,0:0:0:0:
448,192,24942,1,0,0:0:0:0:
64,192,25130,1,0,0:0:0:0:
448,192,25130,128,0,25692:0:0:0:0:
320,192,25317,1,0,0:0:0:0:
64,192,25505,128,0,25692:0:0:0:0:
192,192,25692,1,0,0:0:0:0:
64,192,25880,128,2,26255:0:0:0:0:
448,192,25880,128,4,26067:0:0:0:0:
320,192,26255,128,0,26442:0:0:0:0:
192,192,26442,128,0,26817:0:0:0:0:
448,192,26630,1,0,0:0:0:0:
320,192,26817,1,0,0:0:0:0:
64,192,27005,1,0,0:0:0:0:
192,192,27192,128,0,27380:0:0:0:0:
320,192,27380,128,0,27567:0:0:0:0:
448,192,27380,128,0,27755:0:0:0:0:
192,192,27567,1,0,0:0:0:0:
64,192,27755,128,0,27942:0:0:0:0:
448,192,27942,128,0,28317:0:0:0:0:
64,192,28130,1,0,0:0:0:0:
320,192,28317,128,0,28692:0:0:0:0:
192,192,28505,1,0,0:0:0:0:
64,192,28692,128,0,29067:0:0:0:0:
192,192,28880,128,0,29067:0:0:0:0:
448,192,28880,1,0,0:0:0:0:
320,192,29067,1,0,0:0:0:0:
192,192,29255,1,0,0:0:0:0:
448,192,29442,1,0,0:0:0:0:
64,192,29630,1,0,0:0:0:0:
320,192,29817,1,0,0:0:0:0:
64,192,30005,128,0,30380:0:0:0:0:
192,192,30192,1,0,0:0:0:0:
320,192,30380,128,0,30567:0:0:0:0:
448,192,30380,128,0,30755:0:0:0:0:
64,192,30567,1,0,0:0:0:0:
192,192,30755,128,0,30942:0:0:0:0:
64,192,30942,128,0,31130:0:0:0:0:
320,192,31130,128,0,31505:0:0:0:0:
448,192,31130,128,0,31317:0:0:0:0:
192,192,31317,128,0,31505:0:0:0:0:
64,192,31505,1,0,0:0:0:0:
448,192,31692,1,0,0:0:0:0:
64,192,31880,128,0,32255:0:0:0:0:
192,192,31880,128,0,32067:0:0:0:0:
320,192,32067,1,0,0:0:0:0:
192,192,32255,128,0,32442:0:0:0:0:
448,192,32442,128,0,32817:0:0:0:0:
64,192,32630,1,0,0:0:0:0:
320,192,32817,1,0,0:0:0:0:
192,192,33005,1,0,0:0:0:0:
64,192,33192,128,0,33380:0:0:0:0:
320,192,33380,128,0,33567:0:0:0:0:
448,192,33380,128,0,33755:0:0:0:0:
192,192,33567,1,0,0:0:0:0:
64,192,33755,128,0,33942:0:0:0:0:
320,192,33942,128,0,34130:0:0:0:0:
192,192,34130,1,0,0:0:0:0:
448,192,34317,1,0,0:0:0:0:
64,192,34505,1,0,0:0:0:0:
320,192,34692,128,0,34880:0:0:0:0:
64,192,34880,128,0,35255:0:0:0:0:
192,192,34880,128,0,35067:0:0:0:0:
448,192,35067,1,0,0:0:0:0:
320,192,35255,128,0,35442:0:0:0:0:
192,192,35442,128,0,35630:0:0:0:0:
448,192,35630,1,0,0:0:0:0:
320,192,35817,128,0,36005:0:0:0:0:
64,192,36005,1,0,0:0:0:0:
192,192,36192,128,0,36380:0:0:0:0:
320,192,36380,128,0,36567:0:0:0:0:
448,192,36380,128,0,36755:0:0:0:0:
64,192,36567,128,0,36942:0:0:0:0:
192,192,36755,128,0,36942:0:0:0:0:
320,192,36942,128,0,37130:0:0:0:0:
64,192,37130,128,0,37411:0:0:0:60:snare.wav
448,192,37130,1,0,0:0:0:0:
192,192,37317,128,0,37411:0:0:0:0:
192,192,37505,1,0,0:0:0:60:snare.wav
64,192,37505,128,0,37786:0:0:0:0:
320,192,37692,128,2,37786:0:0:0:0:
448,192,37692,128,0,37786:0:0:0:0:
320,192,37880,128,4,38067:0:0:0:0:
448,192,37880,128,2,38255:0:0:0:0:
64,192,38255,128,0,38630:0:0:0:0:
448,192,38630,128,0,39005:0:0:0:0:
320,192,39005,128,0,39380:0:0:0:0:
64,192,39380,128,4,39755:0:0:0:0:
192,192,39380,128,0,39567:0:0:0:0:
320,192,39755,128,0,40130:0:0:0:0:
448,192,40130,128,0,40505:0:0:0:0:
64,192,40505,128,0,40880:0:0:0:0:
320,192,40880,128,4,41067:0:0:0:0:
448,192,40880,128,0,41255:0:0:0:0:
192,192,41255,128,0,41630:0:0:0:0:
64,192,41630,128,4,42005:0:0:0:0:
448,192,41630,1,0,0:0:0:0:
320,192,42005,128,0,42380:0:0:0:0:
64,192,42380,128,4,42755:0:0:0:0:
192,192,42380,128,0,42567:0:0:0:0:
448,192,42755,128,0,43130:0:0:0:0:
192,192,43130,128,4,43505:0:0:0:0:
320,192,43130,128,0,43317:0:0:0:0:
64,192,43505,1,0,0:0:0:0:
320,192,43505,128,0,43880:0:0:0:0:
64,192,43880,128,4,44067:0:0:0:0:
448,192,43880,1,0,0:0:0:0:
448,192,44067,1,0,0:0:0:0:
320,192,44161,1,0,0:0:0:0:
64,192,44255,1,0,0:0:0:0:
192,192,44255,1,0,0:0:0:0:
192,192,44442,1,0,0:0:0:0:
320,192,44630,1,0,0:0:0:0:
448,192,44630,1,0,0:0:0:0:
64,192,44817,1,0,0:0:0:0:
448,192,44817,1,0,0:0:0:0:
64,192,45005,1,0,0:0:0:0:
192,192,45005,128,0,45192:0:0:0:0:
320,192,45192,1,0,0:0:0:0:
64,192,45380,1,4,0:0:0:0:
448,192,45380,128,0,45567:0:0:0:0:
64,192,45567,1,0,0:0:0:0:
192,192,45661,1,0,0:0:0:0:
320,192,45755,128,0,45942:0:0:0:0:
448,192,45755,1,0,0:0:0:0:
64,192,45942,1,0,0:0:0:0:
192,192,46130,128,0,46317:0:0:0:0:
320,192,46130,1,0,0:0:0:0:
448,192,46317,1,0,0:0:0:0:
64,192,46505,128,0,46880:0:0:0:0:
192,192,46505,1,0,0:0:0:0:
448,192,46692,1,0,0:0:0:0:
320,192,46880,1,2,0:0:0:0:
448,192,46880,1,0,0:0:0:0:
192,192,46973,1,2,0:0:0:0:
320,192,47067,1,2,0:0:0:0:
64,192,47161,1,2,0:0:0:0:
192,192,47255,1,0,0:0:0:50:soft-hitwhistle.wav
448,192,47348,1,0,0:0:0:50:soft-hitwhistle.wav
192,192,47442,1,0,0:0:0:50:soft-hitwhistle.wav
448,192,47536,1,0,0:0:0:50:soft-hitwhistle.wav
320,192,47630,1,0,0:0:0:30:soft-hitwhistle.wav
64,192,47723,1,0,0:0:0:30:soft-hitwhistle.wav
320,192,47817,1,0,0:0:0:30:soft-hitwhistle.wav
192,192,47911,1,0,0:0:0:30:soft-hitwhistle.wav
448,192,48005,1,0,0:0:0:20:soft-hitwhistle.wav
192,192,48098,1,0,0:0:0:20:soft-hitwhistle.wav
320,192,48192,1,0,0:0:0:20:soft-hitwhistle.wav
64,192,48286,1,0,0:0:0:20:soft-hitwhistle.wav
192,192,48380,128,0,48755:0:0:0:0:
448,192,48567,128,0,48942:0:0:0:0:
64,192,48755,128,0,49130:0:0:0:0:
320,192,48942,128,0,49317:0:0:0:0:
192,192,49130,128,0,49317:0:0:0:0:
448,192,49317,128,0,49505:0:0:0:0:
64,192,49505,1,8,0:0:0:0:
192,192,49505,1,0,0:0:0:0:
64,192,49880,128,2,50067:0:0:0:0:
192,192,49880,1,4,0:0:0:0:
448,192,49880,1,0,0:0:0:0:
192,192,50067,1,2,0:0:0:0:
320,192,50067,1,0,0:0:0:0:
320,192,50255,1,2,0:0:0:0:
448,192,50255,128,0,50442:0:0:0:0:
192,192,50442,128,0,50630:0:0:0:0:
64,192,50630,1,8,0:0:0:0:
448,192,50630,1,0,0:0:0:0:
320,192,50817,128,0,51005:0:0:0:0:
192,192,50911,1,0,0:0:0:0:
64,192,51005,1,0,0:0:0:0:
64,192,51192,128,2,51380:0:0:0:0:
320,192,51192,1,0,0:0:0:0:
448,192,51380,1,0,0:0:0:0:
64,192,51567,1,2,0:0:0:0:
320,192,51567,128,0,51755:0:0:0:0:
192,192,51755,128,0,51942:0:0:0:0:
64,192,51942,1,2,0:0:0:0:
448,192,51942,128,0,52130:0:0:0:0:
64,192,52130,128,8,52317:0:0:0:0:
192,192,52130,1,0,0:0:0:0:
320,192,52317,1,2,0:0:0:0:
448,192,52317,128,0,52505:0:0:0:0:
192,192,52505,1,8,0:0:0:0:
320,192,52505,1,0,0:0:0:0:
64,192,52692,1,2,0:0:0:0:
192,192,52692,1,0,0:0:0:0:
64,192,52880,1,2,0:0:0:0:
448,192,52880,128,0,53067:0:0:0:0:
192,192,53067,1,2,0:0:0:0:
320,192,53067,1,0,0:0:0:0:
64,192,53255,128,2,53630:0:0:0:0:
448,192,53255,1,0,0:0:0:0:
192,192,53442,128,0,53630:0:0:0:0:
320,192,53630,1,8,0:0:0:0:
448,192,53630,128,0,53817:0:0:0:0:
64,192,53817,128,0,54005:0:0:0:0:
192,192,53911,1,0,0:0:0:0:
320,192,54005,128,0,54192:0:0:0:0:
64,192,54192,1,2,0:0:0:0:
192,192,54192,128,0,54380:0:0:0:0:
448,192,54380,1,0,0:0:0:0:
64,192,54567,128,2,54755:0:0:0:0:
448,192,54567,1,0,0:0:0:0:
192,192,54755,1,0,0:0:0:0:
192,192,54942,1,2,0:0:0:0:
448,192,54942,128,0,55130:0:0:0:0:
64,192,55130,1,8,0:0:0:0:
320,192,55130,128,0,55317:0:0:0:0:
64,192,55317,1,2,0:0:0:0:
192,192,55317,1,0,0:0:0:0:
192,192,55505,128,8,55692:0:0:0:0:
448,192,55505,1,0,0:0:0:0:
320,192,55692,1,2,0:0:0:0:
448,192,55692,1,0,0:0:0:0:
64,192,55880,128,2,56067:0:0:0:0:
192,192,55880,1,4,0:0:0:0:
192,192,56067,1,2,0:0:0:0:
320,192,56067,1,0,0:0:0:0:
320,192,56255,1,2,0:0:0:0:
448,192,56255,128,0,56630:0:0:0:0:
64,192,56442,128,0,56630:0:0:0:0:
192,192,56630,1,8,0:0:0:0:
320,192,56630,1,0,0:0:0:0:
192,192,56817,128,0,57005:0:0:0:0:
320,192,56911,1,0,0:0:0:0:
448,192,57005,1,0,0:0:0:0:
64,192,57192,128,2,57380:0:0:0:0:
192,192,57192,1,0,0:0:0:0:
448,192,57380,1,0,0:0:0:0:
192,192,57567,1,2,0:0:0:0:
448,192,57567,128,0,57755:0:0:0:0:
192,192,57755,128,0,57942:0:0:0:0:
64,192,57942,128,2,58130:0:0:0:0:
320,192,57942,1,0,0:0:0:0:
320,192,58130,128,8,58317:0:0:0:0:
64,192,58317,1,2,0:0:0:0:
448,192,58317,1,0,0:0:0:0:
64,192,58505,1,8,0:0:0:0:
192,192,58505,1,0,0:0:0:0:
192,192,58692,1,2,0:0:0:0:
320,192,58692,1,0,0:0:0:0:
320,192,58880,1,2,0:0:0:0:
448,192,58880,128,0,59067:0:0:0:0:
64,192,59067,1,2,0:0:0:0:
192,192,59067,1,0,0:0:0:0:
320,192,59255,128,2,59630:0:0:0:0:
448,192,59255,1,0,0:0:0:0:
192,192,59442,128,0,59630:0:0:0:0:
64,192,59630,1,8,0:0:0:0:
448,192,59630,1,0,0:0:0:0:
320,192,59817,128,0,60005:0:0:0:0:
192,192,59911,1,0,0:0:0:0:
64,192,60005,1,0,0:0:0:0:
192,192,60192,128,2,60380:0:0:0:0:
448,192,60192,1,0,0:0:0:0:
64,192,60380,128,0,60567:0:0:0:0:
320,192,60567,1,2,0:0:0:0:
448,192,60567,128,0,60755:0:0:0:0:
192,192,60661,1,0,0:0:0:0:
64,192,60755,128,0,60942:0:0:0:0:
192,192,60942,1,2,0:0:0:0:
448,192,60942,128,0,61130:0:0:0:0:
64,192,61130,1,0,0:0:0:60:snare.wav
192,192,61130,128,0,61317:0:0:0:0:
320,192,61317,1,2,0:0:0:0:
448,192,61317,1,0,0:0:0:0:
64,192,61505,1,0,0:0:0:60:snare.wav
448,192,61505,128,0,61692:0:0:0:0:
192,192,61692,1,2,0:0:0:0:
320,192,61692,1,0,0:0:0:0:
64,192,61880,128,4,62067:0:0:0:0:
192,192,61880,1,2,0:0:0:0:
448,192,61880,1,0,0:0:0:0:
320,192,62067,1,2,0:0:0:0:
448,192,62067,1,0,0:0:0:0:
192,192,62255,128,2,62442:0:0:0:0:
320,192,62255,1,0,0:0:0:0:
448,192,62442,128,0,62630:0:0:0:0:
64,192,62630,1,8,0:0:0:0:
192,192,62630,1,0,0:0:0:0:
320,192,62817,128,0,63005:0:0:0:0:
192,192,62911,1,0,0:0:0:0:
64,192,63005,1,0,0:0:0:0:
192,192,63192,128,2,63380:0:0:0:0:
448,192,63192,1,0,0:0:0:0:
64,192,63380,1,0,0:0:0:0:
320,192,63567,128,2,63755:0:0:0:0:
448,192,63567,1,0,0:0:0:0:
64,192,63755,128,0,63942:0:0:0:0:
192,192,63942,1,2,0:0:0:0:
448,192,63942,128,0,64130:0:0:0:0:
192,192,64130,128,8,64317:0:0:0:0:
320,192,64130,1,0,0:0:0:0:
64,192,64317,1,2,0:0:0:0:
448,192,64317,128,0,64505:0:0:0:0:
64,192,64505,1,8,0:0:0:0:
192,192,64505,1,0,0:0:0:0:
192,192,64692,1,2,0:0:0:0:
320,192,64692,1,0,0:0:0:0:
320,192,64880,1,2,0:0:0:0:
448,192,64880,128,0,65067:0:0:0:0:
64,192,65067,1,2,0:0:0:0:
192,192,65067,1,0,0:0:0:0:
64,192,65255,128,2,65630:0:0:0:0:
448,192,65255,1,0,0:0:0:0:
192,192,65442,128,0,65630:0:0:0:0:
320,192,65630,1,8,0:0:0:0:
448,192,65630,128,0,65817:0:0:0:0:
64,192,65817,128,0,66005:0:0:0:0:
192,192,65911,1,0,0:0:0:0:
320,192,66005,128,0,66192:0:0:0:0:
64,192,66192,1,2,0:0:0:0:
192,192,66192,128,0,66380:0:0:0:0:
448,192,66380,1,0,0:0:0:0:
64,192,66567,128,2,66755:0:0:0:0:
448,192,66567,1,0,0:0:0:0:
192,192,66755,1,0,0:0:0:0:
192,192,66942,1,2,0:0:0:0:
448,192,66942,128,0,67130:0:0:0:0:
64,192,67130,1,8,0:0:0:0:
320,192,67130,128,0,67317:0:0:0:0:
64,192,67317,1,2,0:0:0:0:
192,192,67317,1,0,0:0:0:0:
192,192,67505,128,8,67692:0:0:0:0:
448,192,67505,1,0,0:0:0:0:
320,192,67692,1,2,0:0:0:0:
448,192,67692,1,0,0:0:0:0:
64,192,67880,128,2,68067:0:0:0:0:
192,192,67880,1,4,0:0:0:0:
192,192,68067,1,2,0:0:0:0:
320,192,68067,1,0,0:0:0:0:
320,192,68255,1,2,0:0:0:0:
448,192,68255,128,0,68442:0:0:0:0:
192,192,68442,128,0,68630:0:0:0:0:
64,192,68630,1,8,0:0:0:0:
448,192,68630,1,0,0:0:0:0:
320,192,68817,128,0,69005:0:0:0:0:
192,192,68911,1,0,0:0:0:0:
64,192,69005,1,0,0:0:0:0:
64,192,69192,128,2,69380:0:0:0:0:
320,192,69192,1,0,0:0:0:0:
448,192,69380,1,0,0:0:0:0:
64,192,69567,1,2,0:0:0:0:
320,192,69567,128,0,69755:0:0:0:0:
192,192,69755,128,0,69942:0:0:0:0:
64,192,69942,1,2,0:0:0:0:
448,192,69942,128,0,70130:0:0:0:0:
64,192,70130,128,8,70317:0:0:0:0:
192,192,70130,1,0,0:0:0:0:
320,192,70317,1,2,0:0:0:0:
448,192,70317,128,0,70505:0:0:0:0:
192,192,70505,1,8,0:0:0:0:
320,192,70505,1,0,0:0:0:0:
64,192,70692,1,2,0:0:0:0:
192,192,70692,1,0,0:0:0:0:
64,192,70880,128,2,71067:0:0:0:0:
448,192,70880,1,0,0:0:0:0:
320,192,71067,1,2,0:0:0:0:
448,192,71067,1,0,0:0:0:0:
192,192,71255,1,2,0:0:0:0:
320,192,71255,128,0,71630:0:0:0:0:
448,192,71442,128,0,71630:0:0:0:0:
64,192,71630,128,8,71817:0:0:0:0:
192,192,71630,1,0,0:0:0:0:
448,192,71817,128,0,72005:0:0:0:0:
320,192,71911,1,0,0:0:0:0:
192,192,72005,128,0,72192:0:0:0:0:
320,192,72192,128,2,72380:0:0:0:0:
448,192,72192,1,0,0:0:0:0:
64,192,72380,128,0,72567:0:0:0:0:
192,192,72567,1,2,0:0:0:0:
448,192,72567,128,0,72755:0:0:0:0:
320,192,72661,1,0,0:0:0:0:
192,192,72755,128,0,72942:0:0:0:0:
64,192,72942,128,2,73130:0:0:0:0:
448,192,72942,1,0,0:0:0:0:
320,192,73130,128,8,73317:0:0:0:0:
448,192,73130,1,0,0:0:0:0:
64,192,73317,1,2,0:0:0:0:
192,192,73317,128,0,73505:0:0:0:0:
320,192,73505,1,8,0:0:0:0:
448,192,73505,128,0,73692:0:0:0:0:
64,192,73692,128,2,73880:0:0:0:0:
192,192,73692,1,0,0:0:0:0:
320,192,73880,128,2,74067:0:0:0:0:
448,192,73880,128,0,74255:0:0:0:0:
64,192,74255,1,2,0:0:0:0:
320,192,74255,1,0,0:0:0:0:
192,192,74348,1,0,0:0:0:0:
320,192,74442,128,0,74630:0:0:0:0:
64,192,74630,1,8,0:0:0:0:
448,192,74630,128,0,74817:0:0:0:0:
192,192,74817,128,0,75005:0:0:0:0:
320,192,75005,128,0,75192:0:0:0:0:
64,192,75192,128,2,75567:0:0:0:0:
448,192,75192,1,0,0:0:0:0:
192,192,75286,1,0,0:0:0:0:
320,192,75380,1,0,0:0:0:0:
192,192,75567,1,2,0:0:0:0:
448,192,75567,1,0,0:0:0:0:
64,192,75755,1,2,0:0:0:0:
320,192,75755,1,0,0:0:0:0:
192,192,75942,128,0,76130:0:0:0:0:
64,192,76130,1,8,0:0:0:0:
448,192,76130,128,0,76505:0:0:0:0:
64,192,76505,1,0,0:0:0:0:
192,192,76692,128,0,76880:0:0:0:0:
64,192,76880,128,2,77067:0:0:0:0:
448,192,76880,128,0,77255:0:0:0:0:
192,192,77255,128,2,77442:0:0:0:0:
320,192,77348,1,0,0:0:0:0:
448,192,77442,128,0,77630:0:0:0:0:
64,192,77630,128,8,77817:0:0:0:0:
192,192,77630,1,0,0:0:0:0:
320,192,77723,1,0,0:0:0:0:
448,192,77817,128,0,78005:0:0:0:0:
192,192,78005,1,0,0:0:0:0:
320,192,78192,128,2,78380:0:0:0:0:
448,192,78192,1,0,0:0:0:0:
64,192,78286,1,0,0:0:0:0:
192,192,78380,1,0,0:0:0:0:
64,192,78567,1,2,0:0:0:0:
448,192,78567,128,0,78755:0:0:0:0:
64,192,78755,1,2,0:0:0:0:
192,192,78755,128,0,78942:0:0:0:0:
320,192,78848,1,0,0:0:0:0:
448,192,78942,1,0,0:0:0:0:
64,192,79130,1,8,0:0:0:0:
320,192,79130,1,0,0:0:0:0:
192,192,79317,128,0,79505:0:0:0:0:
64,192,79505,1,2,0:0:0:0:
448,192,79505,1,0,0:0:0:0:
320,192,79598,1,0,0:0:0:0:
448,192,79692,1,8,0:0:0:0:
192,192,79786,1,0,0:0:0:0:
64,192,79880,128,2,80255:0:0:0:0:
320,192,79880,128,0,80067:0:0:0:0:
448,192,80067,1,0,0:0:0:0:
192,192,80255,1,2,0:0:0:0:
320,192,80348,1,0,0:0:0:0:
448,192,80442,128,0,80630:0:0:0:0:
64,192,80630,1,8,0:0:0:0:
192,192,80630,128,0,80817:0:0:0:0:
320,192,80817,128,0,81005:0:0:0:0:
64,192,81005,128,0,81192:0:0:0:0:
320,192,81192,1,2,0:0:0:0:
448,192,81192,128,0,81380:0:0:0:0:
192,192,81286,1,0,0:0:0:0:
64,192,81380,1,0,0:0:0:0:
192,192,81567,1,2,0:0:0:0:
320,192,81567,128,0,81755:0:0:0:0:
64,192,81755,1,2,0:0:0:0:
448,192,81755,1,0,0:0:0:0:
192,192,81848,1,0,0:0:0:0:
320,192,81942,128,0,82317:0:0:0:0:
192,192,82130,128,8,82317:0:0:0:0:
448,192,82130,1,0,0:0:0:0:
64,192,82317,128,0,82505:0:0:0:0:
320,192,82505,1,0,0:0:0:0:
448,192,82505,1,0,0:0:0:0:
192,192,82692,128,0,82880:0:0:0:0:
320,192,82880,128,2,83067:0:0:0:0:
448,192,82880,128,0,83255:0:0:0:0:
64,192,83067,1,0,0:0:0:0:
320,192,83255,1,2,0:0:0:0:
192,192,83348,1,0,0:0:0:0:
64,192,83442,128,0,83630:0:0:0:0:
320,192,83630,1,8,0:0:0:0:
448,192,83630,1,0,0:0:0:0:
192,192,83723,1,0,0:0:0:0:
320,192,83817,128,0,84005:0:0:0:0:
64,192,84005,1,0,0:0:0:0:
64,192,84192,128,2,84380:0:0:0:0:
192,192,84192,1,0,0:0:0:0:
320,192,84286,1,0,0:0:0:0:
448,192,84380,128,0,84567:0:0:0:0:
64,192,84567,128,2,84755:0:0:0:0:
192,192,84567,1,0,0:0:0:0:
320,192,84755,1,2,0:0:0:0:
448,192,84755,128,0,84942:0:0:0:0:
192,192,84848,1,0,0:0:0:0:
64,192,84942,1,0,0:0:0:0:
64,192,85130,1,8,0:0:0:0:
448,192,85130,128,0,85317:0:0:0:0:
192,192,85317,128,0,85505:0:0:0:0:
64,192,85505,1,2,0:0:0:0:
448,192,85505,1,0,0:0:0:0:
320,192,85598,1,0,0:0:0:0:
192,192,85692,1,8,0:0:0:0:
448,192,85786,1,0,0:0:0:0:
64,192,85880,128,2,86067:0:0:0:0:
320,192,85880,1,0,0:0:0:0:
448,192,86067,128,0,86255:0:0:0:0:
64,192,86255,128,2,86442:0:0:0:0:
192,192,86255,1,0,0:0:0:0:
320,192,86348,1,0,0:0:0:0:
448,192,86442,128,0,86630:0:0:0:0:
64,192,86630,1,8,0:0:0:0:
192,192,86630,128,0,86817:0:0:0:0:
320,192,86817,128,0,87005:0:0:0:0:
64,192,87005,128,0,87192:0:0:0:0:
320,192,87192,1,2,0:0:0:0:
448,192,87192,128,0,87380:0:0:0:0:
192,192,87286,1,0,0:0:0:0:
64,192,87380,128,0,87567:0:0:0:0:
320,192,87567,128,2,87755:0:0:0:0:
448,192,87567,1,0,0:0:0:0:
64,192,87755,1,2,0:0:0:0:
192,192,87755,128,0,87942:0:0:0:0:
320,192,87942,128,0,88130:0:0:0:0:
64,192,88130,1,8,0:0:0:0:
448,192,88130,1,0,0:0:0:0:
192,192,88317,128,0,88505:0:0:0:0:
320,192,88505,128,0,88692:0:0:0:0:
448,192,88692,128,0,88880:0:0:0:0:
64,192,88880,128,2,89067:0:0:0:0:
192,192,88880,128,0,89255:0:0:0:0:
320,192,89067,128,0,89255:0:0:0:0:
64,192,89255,1,2,0:0:0:0:
448,192,89255,128,0,89442:0:0:0:0:
192,192,89442,128,0,89630:0:0:0:0:
64,192,89630,1,8,0:0:0:0:
448,192,89630,1,0,0:0:0:0:
320,192,89723,1,0,0:0:0:0:
64,192,89817,128,0,90005:0:0:0:0:
448,192,90005,128,0,90192:0:0:0:0:
64,192,90192,128,2,90380:0:0:0:0:
192,192,90192,1,0,0:0:0:0:
320,192,90286,1,0,0:0:0:0:
448,192,90380,128,0,90567:0:0:0:0:
64,192,90567,128,2,90755:0:0:0:0:
320,192,90567,1,0,0:0:0:0:
448,192,90755,128,2,90942:0:0:0:0:
320,192,90848,1,0,0:0:0:0:
192,192,90942,128,0,91130:0:0:0:0:
64,192,91130,1,8,0:0:0:0:
448,192,91130,1,0,0:0:0:0:
320,192,91317,128,0,91505:0:0:0:0:
192,192,91505,1,2,0:0:0:0:
448,192,91505,1,0,0:0:0:0:
64,192,91598,1,0,0:0:0:0:
448,192,91692,1,8,0:0:0:0:
192,192,91786,1,0,0:0:0:0:
64,192,91880,128,2,92067:0:0:0:0:
320,192,91880,1,0,0:0:0:0:
448,192,92067,128,0,92255:0:0:0:0:
64,192,92255,128,2,92442:0:0:0:0:
192,192,92255,1,0,0:0:0:0:
320,192,92348,1,0,0:0:0:0:
448,192,92442,128,0,92630:0:0:0:0:
64,192,92630,1,8,0:0:0:0:
192,192,92630,128,0,92817:0:0:0:0:
320,192,92817,128,0,93005:0:0:0:0:
64,192,93005,128,0,93192:0:0:0:0:
320,192,93192,1,2,0:0:0:0:
448,192,93192,128,0,93380:0:0:0:0:
192,192,93286,1,0,0:0:0:0:
64,192,93380,128,0,93567:0:0:0:0:
320,192,93567,128,2,93755:0:0:0:0:
448,192,93567,1,0,0:0:0:0:
64,192,93755,1,2,0:0:0:0:
192,192,93755,128,0,93942:0:0:0:0:
320,192,93942,128,0,94130:0:0:0:0:
64,192,94130,1,8,0:0:0:0:
448,192,94130,1,0,0:0:0:0:
192,192,94317,128,0,94692:0:0:0:0:
448,192,94505,128,0,94880:0:0:0:0:
64,192,94692,128,0,94880:0:0:0:0:
192,192,94880,1,2,0:0:0:0:
320,192,94880,1,0,0:0:0:0:
64,192,95067,128,0,95255:0:0:0:0:
320,192,95255,1,2,0:0:0:0:
448,192,95255,1,0,0:0:0:0:
448,192,95442,128,0,95817:0:0:0:0:
192,192,95630,1,8,0:0:0:0:
64,192,95630,1,0,0:0:0:0:
320,192,95723,1,0,0:0:0:0:
192,192,95817,128,0,96005:0:0:0:0:
320,192,96005,1,0,0:0:0:0:
64,192,96192,128,2,96567:0:0:0:0:
448,192,96192,1,0,0:0:0:0:
320,192,96286,1,0,0:0:0:0:
192,192,96380,1,0,0:0:0:0:
320,192,96567,1,2,0:0:0:0:
448,192,96567,1,0,0:0:0:0:
64,192,96755,1,2,0:0:0:0:
448,192,96755,128,0,97130:0:0:0:0:
192,192,96848,1,0,0:0:0:0:
320,192,96942,1,0,0:0:0:0:
64,192,97130,128,8,97505:0:0:0:0:
192,192,97130,1,0,0:0:0:0:
320,192,97317,1,0,0:0:0:0:
448,192,97505,1,2,0:0:0:0:
320,192,97598,1,0,0:0:0:0:
64,192,97692,1,8,0:0:0:0:
192,192,97786,1,0,0:0:0:0:
64,192,97880,1,2,0:0:0:0:
448,192,97880,128,4,98255:0:0:0:0:
64,192,98255,128,0,98442:0:0:0:0:
320,192,98442,128,0,99005:0:0:0:0:
192,192,99192,128,0,99380:0:0:0:0:
448,192,99380,128,0,99755:0:0:0:0:
320,192,99567,128,0,99755:0:0:0:0:
64,192,99755,128,0,99942:0:0:0:0:
320,192,99942,128,0,100317:0:0:0:0:
192,192,100317,128,0,100692:0:0:0:0:
448,192,100692,128,0,101255:0:0:0:0:
64,192,100880,1,0,0:0:0:0:
192,192,101067,1,0,0:0:0:0:
320,192,101255,1,0,0:0:0:0:
64,192,101442,1,0,0:0:0:0:
448,192,101630,1,0,0:0:0:0:
320,192,101817,1,0,0:0:0:0:
192,192,102005,128,0,102380:0:0:0:0:
320,192,102192,1,0,0:0:0:0:
448,192,102380,128,0,102755:0:0:0:0:
64,192,102567,1,0,0:0:0:0:
192,192,102755,128,0,102942:0:0:0:0:
320,192,102942,128,0,103317:0:0:0:0:
448,192,103130,1,0,0:0:0:0:
64,192,103317,128,0,103692:0:0:0:0:
192,192,103505,1,0,0:0:0:0:
320,192,103692,128,0,103880:0:0:0:0:
448,192,103880,128,0,104255:0:0:0:0:
64,192,104067,1,0,0:0:0:0:
192,192,104255,128,0,104442:0:0:0:0:
320,192,104442,128,0,104817:0:0:0:0:
64,192,104630,1,0,0:0:0:0:
192,192,104817,1,0,0:0:0:0:
320,192,105005,1,0,0:0:0:0:
192,192,105192,128,0,105380:0:0:0:0:
64,192,105380,128,0,105755:0:0:0:0:
448,192,105567,1,0,0:0:0:0:
320,192,105755,128,0,105942:0:0:0:0:
192,192,105942,128,0,106317:0:0:0:0:
448,192,106130,1,0,0:0:0:0:
320,192,106317,1,0,0:0:0:0:
192,192,106505,1,0,0:0:0:0:
64,192,106692,128,0,106880:0:0:0:0:
448,192,106880,128,0,107255:0:0:0:0:
320,192,107067,1,0,0:0:0:0:
192,192,107255,128,0,107442:0:0:0:0:
320,192,107442,128,0,107817:0:0:0:0:
64,192,107630,1,0,0:0:0:0:
448,192,107817,128,0,108192:0:0:0:0:
192,192,108005,1,0,0:0:0:0:
64,192,108192,128,0,108567:0:0:0:0:
320,192,108192,1,0,0:0:0:0:
192,192,108380,1,0,0:0:0:0:
320,192,108567,1,0,0:0:0:0:
448,192,108567,128,0,108942:0:0:0:0:
64,192,108755,1,0,0:0:0:0:
192,192,108942,1,0,0:0:0:0:
64,192,109130,1,0,0:0:0:0:
320,192,109130,128,0,109505:0:0:0:0:
448,192,109317,1,0,0:0:0:0:
64,192,109505,128,0,109692:0:0:0:0:
192,192,109505,1,0,0:0:0:0:
320,192,109692,1,0,0:0:0:0:
64,192,109880,1,2,0:0:0:0:
448,192,109880,1,4,0:0:0:0:
64,192,110067,1,0,0:0:0:0:
320,192,110255,1,2,0:0:0:0:
448,192,110255,128,0,110442:0:0:0:70:clap.wav
64,192,110442,1,0,0:0:0:0:
192,192,110630,1,2,0:0:0:0:
320,192,110630,128,0,110817:0:0:0:70:clap.wav
448,192,110817,1,0,0:0:0:0:
64,192,111005,1,2,0:0:0:0:
192,192,111005,128,0,111192:0:0:0:70:clap.wav
320,192,111192,1,0,0:0:0:0:
64,192,111380,1,2,0:0:0:0:
448,192,111380,1,0,0:0:0:70:clap.wav
448,192,111567,1,0,0:0:0:0:
192,192,111755,128,2,111942:0:0:0:0:
320,192,111755,1,0,0:0:0:70:clap.wav
64,192,111942,1,0,0:0:0:0:
320,192,112130,128,2,112317:0:0:0:0:
448,192,112130,1,0,0:0:0:70:clap.wav
192,192,112317,1,0,0:0:0:0:
64,192,112505,1,2,0:0:0:0:
448,192,112505,128,0,112692:0:0:0:70:clap.wav
320,192,112692,1,0,0:0:0:0:
64,192,112880,1,2,0:0:0:0:
192,192,112880,1,0,0:0:0:70:clap.wav
192,192,113067,1,0,0:0:0:0:
64,192,113255,128,2,113442:0:0:0:0:
448,192,113255,1,0,0:0:0:70:clap.wav
320,192,113442,1,0,0:0:0:0:
192,192,113630,1,2,0:0:0:0:
320,192,113630,128,0,113817:0:0:0:70:clap.wav
64,192,113817,1,0,0:0:0:0:
192,192,114005,128,2,114192:0:0:0:0:
320,192,114005,1,0,0:0:0:70:clap.wav
448,192,114192,1,0,0:0:0:0:
64,192,114380,1,2,0:0:0:0:
192,192,114380,1,0,0:0:0:70:clap.wav
64,192,114567,1,0,0:0:0:0:
192,192,114755,1,2,0:0:0:0:
320,192,114755,128,0,114942:0:0:0:70:clap.wav
448,192,114942,1,0,0:0:0:0:
64,192,115130,1,2,0:0:0:0:
192,192,115130,128,0,115317:0:0:0:70:clap.wav
320,192,115317,1,0,0:0:0:0:
64,192,115505,128,2,115692:0:0:0:0:
448,192,115505,1,0,0:0:0:70:clap.wav
192,192,115692,1,0,0:0:0:0:
64,192,115880,1,2,0:0:0:0:
448,192,115880,1,0,0:0:0:70:clap.wav
448,192,116067,1,0,0:0:0:0:
192,192,116255,1,2,0:0:0:0:
320,192,116255,1,0,0:0:0:70:clap.wav
320,192,116442,1,0,0:0:0:0:
64,192,116630,1,2,0:0:0:0:
448,192,116630,1,0,0:0:0:70:clap.wav
64,192,116817,1,0,0:0:0:0:
192,192,117005,1,2,0:0:0:0:
320,192,117005,128,0,117192:0:0:0:70:clap.wav
448,192,117192,1,0,0:0:0:0:
64,192,117380,128,2,117567:0:0:0:0:
320,192,117380,1,0,0:0:0:70:clap.wav
192,192,117567,1,0,0:0:0:0:
64,192,117755,1,2,0:0:0:0:
448,192,117755,128,0,117942:0:0:0:70:clap.wav
320,192,117942,1,0,0:0:0:0:
64,192,118130,1,2,0:0:0:0:
192,192,118130,128,0,118317:0:0:0:70:clap.wav
448,192,118317,1,0,0:0:0:0:
64,192,118505,1,2,0:0:0:0:
320,192,118505,128,0,118692:0:0:0:70:clap.wav
192,192,118692,1,0,0:0:0:0:
320,192,118880,1,2,0:0:0:0:
448,192,118880,1,0,0:0:0:70:clap.wav
448,192,119067,1,2,0:0:0:0:
64,192,119255,1,2,0:0:0:0:
192,192,119255,1,0,0:0:0:70:clap.wav
64,192,119442,1,0,0:0:0:50:soft-hitwhistle.wav
320,192,119630,1,0,0:0:0:30:soft-hitwhistle.wav
192,192,119723,1,0,0:0:0:30:soft-hitwhistle.wav
448,192,119817,1,0,0:0:0:30:soft-hitwhistle.wav
64,192,119911,1,0,0:0:0:30:soft-hitwhistle.wav
448,192,120005,1,0,0:0:0:30:soft-hitwhistle.wav
64,192,120098,1,0,0:0:0:30:soft-hitwhistle.wav
192,192,120192,1,0,0:0:0:30:soft-hitwhistle.wav
320,192,120286,1,0,0:0:0:30:soft-hitwhistle.wav
192,192,120380,128,0,120755:0:0:0:0:
448,192,120755,128,0,121130:0:0:0:0:
64,192,121130,128,0,121505:0:0:0:0:
448,192,121505,128,0,121692:0:0:0:0:
192,192,121692,128,0,121880:0:0:0:0:
64,192,121880,128,4,122067:0:0:0:0:
448,192,121880,1,0,0:0:0:0:
192,192,122067,1,0,0:0:0:0:
320,192,122161,128,0,122348:0:0:0:0:
448,192,122348,1,0,0:0:0:0:
64,192,122442,128,0,122630:0:0:0:0:
448,192,122630,128,0,122817:0:0:0:0:
320,192,122817,1,0,0:0:0:0:
192,192,122911,128,0,123098:0:0:0:0:
64,192,123098,1,0,0:0:0:0:
448,192,123192,1,0,0:0:0:0:
192,192,123286,1,0,0:0:0:0:
448,192,123380,128,0,123567:0:0:0:0:
320,192,123567,1,0,0:0:0:0:
192,192,123661,128,0,123848:0:0:0:0:
64,192,123848,1,0,0:0:0:0:
320,192,123942,128,0,124130:0:0:0:0:
64,192,124130,128,0,124317:0:0:0:0:
192,192,124317,1,0,0:0:0:0:
320,192,124411,128,0,124598:0:0:0:0:
192,192,124598,1,0,0:0:0:0:
448,192,124692,1,0,0:0:0:0:
192,192,124786,1,0,0:0:0:0:
448,192,124880,128,0,125067:0:0:0:0:
192,192,125067,1,0,0:0:0:0:
64,192,125161,128,0,125348:0:0:0:0:
320,192,125348,1,0,0:0:0:0:
192,192,125442,128,0,125630:0:0:0:0:
448,192,125630,128,0,125817:0:0:0:0:
320,192,125817,1,0,0:0:0:0:
64,192,125911,128,0,126098:0:0:0:0:
192,192,126098,1,0,0:0:0:0:
320,192,126192,128,0,126380:0:0:0:0:
448,192,126380,128,0,126567:0:0:0:0:
64,192,126567,1,0,0:0:0:0:
192,192,126661,128,0,126848:0:0:0:0:
320,192,126848,1,0,0:0:0:0:
64,192,126942,128,0,127130:0:0:0:0:
448,192,127130,128,0,127317:0:0:0:0:
192,192,127317,1,0,0:0:0:0:
320,192,127411,128,0,127598:0:0:0:0:
64,192,127598,1,0,0:0:0:0:
192,192,127692,128,0,127880:0:0:0:0:
448,192,127880,128,0,128067:0:0:0:0:
320,192,128067,1,0,0:0:0:0:
192,192,128161,128,0,128348:0:0:0:0:
64,192,128348,1,0,0:0:0:0:
448,192,128442,128,0,128630:0:0:0:0:
64,192,128630,128,0,128817:0:0:0:0:
192,192,128817,1,0,0:0:0:0:
320,192,128911,128,0,129098:0:0:0:0:
448,192,129098,1,0,0:0:0:0:
64,192,129192,1,0,0:0:0:0:
320,192,129286,1,0,0:0:0:0:
64,192,129380,128,0,129567:0:0:0:0:
192,192,129567,1,0,0:0:0:0:
320,192,129661,128,0,129848:0:0:0:0:
448,192,129848,1,0,0:0:0:0:
192,192,129942,128,0,130130:0:0:0:0:
448,192,130130,128,0,130317:0:0:0:0:
320,192,130317,1,0,0:0:0:0:
192,192,130411,128,0,130598:0:0:0:0:
320,192,130598,1,0,0:0:0:0:
64,192,130692,1,0,0:0:0:0:
320,192,130786,1,0,0:0:0:0:
64,192,130880,128,0,131067:0:0:0:0:
320,192,131067,1,0,0:0:0:0:
192,192,131161,128,0,131348:0:0:0:0:
320,192,131348,1,0,0:0:0:0:
448,192,131442,128,0,131630:0:0:0:0:
64,192,131630,128,0,131817:0:0:0:0:
192,192,131817,1,0,0:0:0:0:
320,192,131911,128,0,132098:0:0:0:0:
448,192,132098,1,0,0:0:0:0:
192,192,132192,128,0,132380:0:0:0:0:
64,192,132380,128,0,132942:0:0:0:0:
192,192,132661,128,0,132942:0:0:0:0:
320,192,132942,128,0,133317:0:0:0:0:
448,192,133130,128,0,133317:0:0:0:0:
192,192,133317,1,0,0:0:0:0:
64,192,133411,1,0,0:0:0:0:
320,192,133505,1,0,0:0:0:70:clap.wav
448,192,133505,1,0,0:0:0:0:
64,192,133692,1,0,0:0:0:70:clap.wav
192,192,133692,1,0,0:0:0:0:
64,192,133880,1,6,0:0:0:0:
448,192,133880,1,0,0:0:0:70:clap.wav
320,192,134067,1,0,0:0:0:0:
192,192,134161,1,0,0:0:0:0:
320,192,134255,128,2,134442:0:0:0:0:
448,192,134255,1,0,0:0:0:70:clap.wav
64,192,134442,1,0,0:0:0:0:
192,192,134630,128,2,134817:0:0:0:0:
320,192,134630,1,0,0:0:0:70:clap.wav
448,192,134817,1,0,0:0:0:0:
320,192,134911,1,0,0:0:0:0:
64,192,135005,128,2,135192:0:0:0:0:
192,192,135005,1,0,0:0:0:70:clap.wav
320,192,135192,1,0,0:0:0:0:
192,192,135286,1,0,0:0:0:0:
64,192,135380,1,2,0:0:0:0:
448,192,135380,1,0,0:0:0:70:clap.wav
192,192,135567,1,0,0:0:0:0:
320,192,135661,1,0,0:0:0:0:
64,192,135755,1,2,0:0:0:0:
192,192,135755,128,0,135942:0:0:0:70:clap.wav
448,192,135942,1,0,0:0:0:0:
192,192,136130,1,2,0:0:0:0:
320,192,136130,128,0,136317:0:0:0:70:clap.wav
64,192,136317,1,0,0:0:0:0:
192,192,136411,1,0,0:0:0:0:
320,192,136505,1,2,0:0:0:0:
448,192,136505,128,0,136692:0:0:0:70:clap.wav
192,192,136692,1,0,0:0:0:0:
320,192,136786,1,0,0:0:0:0:
64,192,136880,1,2,0:0:0:0:
448,192,136880,1,0,0:0:0:70:clap.wav
320,192,137067,1,0,0:0:0:0:
448,192,137161,1,0,0:0:0:0:
64,192,137255,128,2,137442:0:0:0:0:
192,192,137255,1,0,0:0:0:70:clap.wav
448,192,137442,1,0,0:0:0:0:
320,192,137630,1,2,0:0:0:0:
448,192,137630,128,0,137817:0:0:0:70:clap.wav
64,192,137817,1,0,0:0:0:0:
320,192,137911,1,0,0:0:0:0:
64,192,138005,128,2,138192:0:0:0:0:
192,192,138005,1,0,0:0:0:70:clap.wav
448,192,138192,1,0,0:0:0:0:
320,192,138380,1,2,0:0:0:0:
448,192,138380,1,0,0:0:0:70:clap.wav
64,192,138567,1,0,0:0:0:0:
320,192,138661,1,0,0:0:0:0:
192,192,138755,128,2,138942:0:0:0:0:
448,192,138755,1,0,0:0:0:70:clap.wav
320,192,138942,1,0,0:0:0:0:
64,192,139130,1,2,0:0:0:0:
320,192,139130,128,0,139317:0:0:0:70:clap.wav
192,192,139317,1,0,0:0:0:0:
192,192,139505,128,2,139692:0:0:0:0:
448,192,139505,1,0,0:0:0:70:clap.wav
320,192,139692,1,0,0:0:0:0:
64,192,139880,1,4,0:0:0:0:
448,192,139880,1,0,0:0:0:60:snare1.wav
320,192,140067,1,0,0:0:0:60:snare1.wav
448,192,140067,1,0,0:0:0:0:
64,192,140255,1,0,0:0:0:60:snare1.wav
320,192,140255,1,0,0:0:0:0:
64,192,140442,1,0,0:0:0:60:snare1.wav
192,192,140442,1,0,0:0:0:0:
192,192,140630,1,0,0:0:0:60:snare1.wav
448,192,140630,1,0,0:0:0:0:
320,192,140817,1,0,0:0:0:60:snare1.wav
448,192,140817,1,0,0:0:0:0:
64,192,141005,128,0,141192:0:0:0:60:snare1.wav
192,192,141005,1,0,0:0:0:0:
320,192,141192,1,0,0:0:0:60:snare1.wav
192,192,141286,1,0,0:0:0:0:
64,192,141380,1,4,0:0:0:0:
448,192,141380,128,0,141567:0:0:0:60:snare1.wav
192,192,141567,1,0,0:0:0:60:snare1.wav
320,192,141567,1,0,0:0:0:0:
192,192,141755,128,0,141942:0:0:0:60:snare1.wav
448,192,141755,1,0,0:0:0:0:
320,192,141942,1,0,0:0:0:60:snare1.wav
448,192,141942,1,0,0:0:0:0:
64,192,142130,128,0,142317:0:0:0:60:snare1.wav
192,192,142130,1,0,0:0:0:0:
192,192,142317,1,0,0:0:0:60:snare1.wav
448,192,142317,1,0,0:0:0:0:
64,192,142505,1,0,0:0:0:60:snare1.wav
320,192,142505,128,0,142692:0:0:0:0:
64,192,142692,1,0,0:0:0:60:snare1.wav
192,192,142692,1,0,0:0:0:0:
192,192,142880,1,4,0:0:0:0:
448,192,142880,1,0,0:0:0:60:snare1.wav
320,192,142973,1,0,0:0:0:60:snare1.wav
192,192,143067,1,0,0:0:0:60:snare1.wav
448,192,143161,1,0,0:0:0:60:snare1.wav
64,192,143255,1,4,0:0:0:0:
320,192,143255,1,0,0:0:0:60:snare1.wav
192,192,143348,1,0,0:0:0:60:snare1.wav
320,192,143442,1,0,0:0:0:60:snare1.wav
64,192,143536,1,0,0:0:0:60:snare1.wav
192,192,143630,1,4,0:0:0:0:
448,192,143630,1,0,0:0:0:60:snare1.wav
320,192,143723,1,0,0:0:0:60:snare1.wav
192,192,143817,1,0,0:0:0:60:snare1.wav
320,192,143911,1,0,0:0:0:60:snare1.wav
64,192,144005,1,4,0:0:0:0:
448,192,144005,1,0,0:0:0:60:snare1.wav
192,192,144098,1,0,0:0:0:60:snare1.wav
320,192,144192,1,0,0:0:0:60:snare1.wav
192,192,144286,1,0,0:0:0:60:snare1.wav
320,192,144380,1,0,0:0:0:60:snare1.wav
448,192,144380,1,0,0:0:0:0:
320,192,144755,1,0,0:0:0:60:snare1.wav
448,192,144755,1,0,0:0:0:0:
64,192,144942,1,0,0:0:0:60:snare1.wav
192,192,144942,1,0,0:0:0:0:
320,192,145036,1,0,0:0:0:60:snare1.wav
448,192,145036,1,0,0:0:0:0:
64,192,145130,1,0,0:0:0:60:snare1.wav
192,192,145130,1,0,0:0:0:0:
320,192,145223,1,0,0:0:0:60:snare1.wav
448,192,145223,1,0,0:0:0:0:
64,192,145317,1,0,0:0:0:60:snare1.wav
192,192,145317,1,0,0:0:0:0:
320,192,145411,1,0,0:0:0:0:
448,192,145505,128,0,145692:0:0:0:0:
64,192,145598,1,0,0:0:0:0:
192,192,145692,1,0,0:0:0:0:
320,192,145786,1,0,0:0:0:0:
64,192,145880,128,4,146067:0:0:0:0:
448,192,145880,1,0,0:0:0:60:kick.wav
320,192,146067,1,0,0:0:0:0:
192,192,146161,1,0,0:0:0:0:
448,192,146161,1,0,0:0:0:0:
64,192,146255,1,0,0:0:0:60:kick.wav
320,192,146255,1,0,0:0:0:0:
320,192,146442,1,0,0:0:0:0:
448,192,146442,128,0,146630:0:0:0:0:
64,192,146630,1,0,0:0:0:60:kick.wav
192,192,146630,128,0,146817:0:0:0:0:
320,192,146817,1,0,0:0:0:0:
64,192,146911,1,0,0:0:0:0:
192,192,146911,1,0,0:0:0:0:
320,192,147005,1,0,0:0:0:60:kick.wav
448,192,147005,1,0,0:0:0:0:
64,192,147192,1,0,0:0:0:0:
448,192,147192,1,0,0:0:0:0:
192,192,147286,1,0,0:0:0:0:
320,192,147286,1,0,0:0:0:0:
64,192,147380,128,0,147567:0:0:0:60:kick.wav
448,192,147380,1,0,0:0:0:0:
320,192,147567,1,0,0:0:0:0:
192,192,147661,128,0,147848:0:0:0:0:
320,192,147755,1,0,0:0:0:60:kick.wav
448,192,147755,1,0,0:0:0:0:
64,192,147848,1,0,0:0:0:0:
320,192,147942,128,0,148130:0:0:0:0:
192,192,148036,1,0,0:0:0:0:
64,192,148130,128,0,148317:0:0:0:60:kick.wav
448,192,148130,1,0,0:0:0:0:
320,192,148317,1,0,0:0:0:0:
448,192,148411,128,0,148598:0:0:0:0:
64,192,148505,1,0,0:0:0:60:kick.wav
192,192,148505,1,0,0:0:0:0:
320,192,148598,1,0,0:0:0:0:
64,192,148692,1,0,0:0:0:60:kick.wav
192,192,148692,1,0,0:0:0:0:
320,192,148786,1,0,0:0:0:0:
448,192,148786,1,0,0:0:0:0:
64,192,148880,1,0,0:0:0:60:kick.wav
192,192,148880,128,0,149067:0:0:0:0:
320,192,149067,1,0,0:0:0:0:
64,192,149161,1,0,0:0:0:0:
448,192,149161,1,0,0:0:0:0:
192,192,149255,1,0,0:0:0:60:kick.wav
320,192,149255,1,0,0:0:0:0:
320,192,149442,1,0,0:0:0:0:
448,192,149442,128,0,149630:0:0:0:0:
64,192,149630,128,0,149817:0:0:0:60:kick.wav
192,192,149630,1,0,0:0:0:0:
320,192,149817,1,0,0:0:0:0:
64,192,149911,1,0,0:0:0:0:
192,192,149911,1,0,0:0:0:0:
320,192,150005,1,0,0:0:0:60:kick.wav
448,192,150005,1,0,0:0:0:0:
192,192,150192,1,0,0:0:0:0:
448,192,150192,1,0,0:0:0:0:
64,192,150380,1,0,0:0:0:60:kick.wav
192,192,150380,128,0,150567:0:0:0:0:
320,192,150567,1,0,0:0:0:0:
448,192,150661,128,0,150848:0:0:0:0:
64,192,150755,1,0,0:0:0:60:kick.wav
192,192,150755,1,0,0:0:0:0:
320,192,150848,1,0,0:0:0:0:
64,192,150942,128,0,151130:0:0:0:0:
320,192,151130,128,0,151317:0:0:0:60:kick.wav
448,192,151130,1,0,0:0:0:0:
192,192,151317,1,0,0:0:0:0:
64,192,151411,1,0,0:0:0:60:kick.wav
448,192,151411,1,0,0:0:0:0:
192,192,151505,1,0,0:0:0:60:kick.wav
320,192,151505,1,0,0:0:0:0:
320,192,151692,1,0,0:0:0:60:kick.wav
448,192,151692,1,0,0:0:0:0:
64,192,151880,128,0,152067:0:0:0:60:kick.wav
448,192,151880,1,0,0:0:0:0:
320,192,152067,1,0,0:0:0:0:
192,192,152161,1,0,0:0:0:0:
448,192,152161,1,0,0:0:0:0:
64,192,152255,1,0,0:0:0:60:kick.wav
320,192,152255,1,0,0:0:0:0:
320,192,152442,1,0,0:0:0:0:
448,192,152442,128,0,152630:0:0:0:0:
64,192,152630,1,0,0:0:0:60:kick.wav
192,192,152630,128,0,152817:0:0:0:0:
320,192,152817,1,0,0:0:0:0:
64,192,152911,1,0,0:0:0:0:
192,192,152911,1,0,0:0:0:0:
320,192,153005,1,0,0:0:0:60:kick.wav
448,192,153005,1,0,0:0:0:0:
64,192,153192,1,0,0:0:0:0:
448,192,153192,1,0,0:0:0:0:
192,192,153286,1,0,0:0:0:0:
320,192,153286,1,0,0:0:0:0:
64,192,153380,128,0,153567:0:0:0:60:kick.wav
448,192,153380,1,0,0:0:0:0:
320,192,153567,1,0,0:0:0:0:
192,192,153661,128,0,153848:0:0:0:0:
320,192,153755,1,0,0:0:0:60:kick.wav
448,192,153755,1,0,0:0:0:0:
64,192,153848,1,0,0:0:0:0:
320,192,153942,128,0,154130:0:0:0:0:
192,192,154036,1,0,0:0:0:0:
64,192,154130,128,0,154317:0:0:0:60:kick.wav
448,192,154130,1,0,0:0:0:0:
320,192,154317,1,0,0:0:0:0:
448,192,154411,128,0,154598:0:0:0:0:
64,192,154505,1,0,0:0:0:60:kick.wav
192,192,154505,1,0,0:0:0:0:
320,192,154598,1,0,0:0:0:0:
64,192,154692,1,0,0:0:0:60:kick.wav
192,192,154692,1,0,0:0:0:0:
320,192,154786,1,0,0:0:0:0:
448,192,154786,1,0,0:0:0:0:
64,192,154880,1,0,0:0:0:60:kick.wav
192,192,154880,128,0,155067:0:0:0:0:
320,192,155067,1,0,0:0:0:0:
64,192,155161,1,0,0:0:0:0:
448,192,155161,1,0,0:0:0:0:
192,192,155255,1,0,0:0:0:60:kick.wav
320,192,155255,1,0,0:0:0:0:
320,192,155442,1,0,0:0:0:0:
448,192,155442,128,0,155630:0:0:0:0:
64,192,155630,1,0,0:0:0:60:kick.wav
192,192,155630,1,0,0:0:0:0:
192,192,155817,1,0,0:0:0:60:kick.wav
448,192,155817,1,0,0:0:0:0:
320,192,156005,1,0,0:0:0:60:kick.wav
448,192,156005,1,0,0:0:0:0:
64,192,156192,1,0,0:0:0:60:kick.wav
320,192,156192,1,0,0:0:0:0:
64,192,156380,1,2,0:0:0:0:
192,192,156380,1,0,0:0:0:70:cymbal_short.wav
64,192,156567,1,2,0:0:0:0:
192,192,156567,1,0,0:0:0:70:cymbal_short.wav
320,192,156661,1,2,0:0:0:0:
448,192,156661,1,0,0:0:0:70:cymbal_short.wav
64,192,156848,1,2,0:0:0:0:
192,192,156848,1,0,0:0:0:70:cymbal_short.wav
320,192,156942,1,2,0:0:0:0:
448,192,156942,1,0,0:0:0:70:cymbal_short.wav
64,192,157036,1,2,0:0:0:0:
192,192,157036,1,0,0:0:0:70:cymbal_short.wav
320,192,157130,1,2,0:0:0:0:
448,192,157130,128,0,157505:0:0:0:70:cymbal_short.wav
192,192,157317,1,2,0:0:0:0:
320,192,157411,1,0,0:0:0:0:
64,192,157505,1,0,0:0:0:0:
192,192,157598,1,0,0:0:0:0:
320,192,157692,1,0,0:0:0:0:
192,192,157786,1,0,0:0:0:0:
64,192,157880,1,4,0:0:0:0:
448,192,157880,128,0,158067:0:0:0:60:kick.wav
320,192,157973,1,0,0:0:0:0:
64,192,158067,1,0,0:0:0:0:
192,192,158161,1,0,0:0:0:0:
320,192,158255,128,0,158442:0:0:0:60:kick.wav
448,192,158255,1,0,0:0:0:0:
64,192,158442,128,0,158630:0:0:0:0:
320,192,158630,1,0,0:0:0:60:kick.wav
448,192,158630,1,0,0:0:0:0:
192,192,158723,1,0,0:0:0:0:
448,192,158817,128,0,159005:0:0:0:0:
320,192,158911,1,0,0:0:0:0:
64,192,159005,1,0,0:0:0:60:kick.wav
192,192,159005,1,0,0:0:0:0:
64,192,159192,128,0,159380:0:0:0:0:
320,192,159286,1,0,0:0:0:0:
192,192,159380,1,0,0:0:0:60:kick.wav
448,192,159380,1,0,0:0:0:0:
320,192,159567,1,0,0:0:0:0:
64,192,159661,1,0,0:0:0:0:
192,192,159661,1,0,0:0:0:0:
320,192,159755,1,0,0:0:0:60:kick.wav
448,192,159755,1,0,0:0:0:0:
64,192,159848,1,0,0:0:0:0:
192,192,159942,1,0,0:0:0:0:
448,192,159942,1,0,0:0:0:0:
320,192,160036,1,0,0:0:0:0:
64,192,160130,128,0,160317:0:0:0:60:kick.wav
192,192,160130,1,0,0:0:0:0:
320,192,160317,1,0,0:0:0:0:
192,192,160411,1,0,0:0:0:0:
448,192,160411,1,0,0:0:0:0:
64,192,160505,1,0,0:0:0:60:kick.wav
320,192,160505,1,0,0:0:0:0:
192,192,160692,1,0,0:0:0:60:kick.wav
448,192,160692,1,0,0:0:0:0:
64,192,160786,1,0,0:0:0:0:
320,192,160880,128,0,161067:0:0:0:60:kick.wav
448,192,160880,1,0,0:0:0:0:
64,192,160973,1,0,0:0:0:0:
192,192,161067,1,0,0:0:0:0:
448,192,161161,1,0,0:0:0:0:
64,192,161255,128,0,161442:0:0:0:60:kick.wav
192,192,161255,1,0,0:0:0:0:
448,192,161348,1,0,0:0:0:0:
320,192,161442,1,0,0:0:0:0:
64,192,161630,1,0,0:0:0:60:kick.wav
448,192,161630,128,0,161817:0:0:0:0:
320,192,161817,1,0,0:0:0:0:
64,192,161911,1,0,0:0:0:0:
192,192,161911,1,0,0:0:0:0:
320,192,162005,1,0,0:0:0:60:kick.wav
448,192,162005,1,0,0:0:0:0:
64,192,162098,1,0,0:0:0:0:
192,192,162192,1,0,0:0:0:0:
448,192,162286,1,0,0:0:0:0:
64,192,162380,1,0,0:0:0:60:kick.wav
320,192,162380,128,0,162567:0:0:0:0:
448,192,162567,1,0,0:0:0:0:
64,192,162661,1,0,0:0:0:0:
192,192,162661,1,0,0:0:0:0:
320,192,162755,1,0,0:0:0:60:kick.wav
448,192,162755,1,0,0:0:0:0:
64,192,162848,1,0,0:0:0:0:
192,192,162942,1,0,0:0:0:0:
448,192,162942,1,0,0:0:0:0:
320,192,163036,1,0,0:0:0:0:
64,192,163130,1,0,0:0:0:60:kick.wav
192,192,163130,128,0,163317:0:0:0:0:
448,192,163317,1,0,0:0:0:0:
64,192,163411,1,0,0:0:0:60:kick.wav
320,192,163411,1,0,0:0:0:0:
192,192,163505,1,0,0:0:0:60:kick.wav
448,192,163505,1,0,0:0:0:0:
64,192,163692,1,0,0:0:0:60:kick.wav
320,192,163692,1,0,0:0:0:0:
64,192,163880,128,0,164067:0:0:0:60:kick.wav
192,192,163880,1,0,0:0:0:0:
448,192,164067,1,2,0:0:0:0:
320,192,164161,1,0,0:0:0:0:
64,192,164255,1,0,0:0:0:60:kick.wav
192,192,164255,128,0,164442:0:0:0:0:
448,192,164442,128,2,164630:0:0:0:0:
64,192,164630,1,0,0:0:0:60:kick.wav
192,192,164630,1,0,0:0:0:0:
64,192,164817,128,2,165005:0:0:0:0:
320,192,164911,1,0,0:0:0:0:
192,192,165005,1,0,0:0:0:60:kick.wav
448,192,165005,1,0,0:0:0:0:
448,192,165192,128,2,165380:0:0:0:0:
192,192,165286,1,0,0:0:0:0:
64,192,165380,1,0,0:0:0:60:kick.wav
320,192,165380,1,0,0:0:0:0:
192,192,165567,1,2,0:0:0:0:
320,192,165661,1,0,0:0:0:0:
448,192,165661,1,0,0:0:0:0:
64,192,165755,1,0,0:0:0:60:kick.wav
192,192,165755,1,0,0:0:0:0:
448,192,165848,1,0,0:0:0:0:
64,192,165942,1,2,0:0:0:0:
320,192,165942,1,0,0:0:0:0:
192,192,166036,1,0,0:0:0:0:
320,192,166130,1,0,0:0:0:60:kick.wav
448,192,166130,128,0,166317:0:0:0:0:
192,192,166317,1,2,0:0:0:0:
64,192,166411,1,0,0:0:0:0:
320,192,166411,1,0,0:0:0:0:
192,192,166505,1,0,0:0:0:60:kick.wav
448,192,166505,1,0,0:0:0:0:
320,192,166692,1,2,0:0:0:0:
448,192,166692,1,0,0:0:0:60:kick.wav
64,192,166786,1,0,0:0:0:0:
192,192,166880,1,2,0:0:0:0:
448,192,166880,1,0,0:0:0:60:kick.wav
320,192,166973,1,2,0:0:0:0:
64,192,167067,1,2,0:0:0:0:
192,192,167161,1,2,0:0:0:0:
64,192,167255,1,2,0:0:0:0:
320,192,167255,1,0,0:0:0:60:kick.wav
192,192,167348,1,2,0:0:0:0:
448,192,167442,1,2,0:0:0:0:
320,192,167536,1,2,0:0:0:0:
64,192,167630,1,2,0:0:0:0:
192,192,167630,1,0,0:0:0:60:kick.wav
448,192,167723,1,2,0:0:0:0:
192,192,167817,1,2,0:0:0:0:
320,192,167817,1,0,0:0:0:60:kick.wav
64,192,167911,1,2,0:0:0:0:
320,192,168005,1,2,0:0:0:0:
448,192,168005,1,0,0:0:0:60:kick.wav
192,192,168098,1,2,0:0:0:0:
64,192,168192,1,2,0:0:0:0:
448,192,168192,1,0,0:0:0:60:kick.wav
320,192,168286,1,2,0:0:0:0:
64,192,168380,1,2,0:0:0:0:
192,192,168380,1,0,0:0:0:70:cymbal_short.wav
320,192,168567,1,2,0:0:0:0:
448,192,168567,1,0,0:0:0:70:cymbal_short.wav
64,192,168661,1,2,0:0:0:0:
192,192,168661,1,0,0:0:0:70:cymbal_short.wav
320,192,168848,1,2,0:0:0:0:
448,192,168848,1,0,0:0:0:70:cymbal_short.wav
64,192,168942,1,2,0:0:0:0:
192,192,168942,1,0,0:0:0:70:cymbal_short.wav
320,192,169036,1,2,0:0:0:0:
448,192,169036,1,0,0:0:0:70:cymbal_short.wav
64,192,169130,1,2,0:0:0:0:
192,192,169130,1,0,0:0:0:70:cymbal_short.wav
192,192,169317,1,2,0:0:0:0:
448,192,169317,1,0,0:0:0:70:cymbal_short.wav
320,192,169505,1,0,0:0:0:0:
320,192,169692,1,0,0:0:0:0:
192,192,169786,1,0,0:0:0:0:
64,192,169880,1,4,0:0:0:0:
320,192,169880,128,0,170067:0:0:0:60:kick.wav
448,192,169880,128,0,170255:0:0:0:0:
