osu file format v14

[General]
AudioFilename: BEMANI -PHQ remix- - PHQUASE.mp3
AudioLeadIn: 0
PreviewTime: 34935
Countdown: 0
SampleSet: Normal
StackLeniency: 0.7
Mode: 1
LetterboxInBreaks: 0
WidescreenStoryboard: 0

[Editor]
DistanceSpacing: 0.8
BeatDivisor: 2
GridSize: 32
TimelineZoom: 1.4

[Metadata]
Title:Plain Asia -PHQ remix-
TitleUnicode:プレインエイジア -PHQ remix-
Artist:PHQUASE
ArtistUnicode:PHQUASE
Creator:kanpakyin
Version:Kantan
Source:SOUND VOLTEX III GRAVITY WARS
Tags:東方永夜抄 ~ Imperishable Night. Touhou Eiyashou Eternal Night Vignette 上白沢慧音 Keine Kamishirasawa jubeat prop REFLEC BEAT groovin'!! upper BeatStream BEMANI×TOHO REITAISAI 2015 project roger ][ -gh- ][ Ultimate MasterPieces rhythm video game instrumental electronic Takahiro Fukase ふかせ DanceDanceRevolution DDR A
BeatmapID:2228415
BeatmapSetID:322149

[Difficulty]
HPDrainRate:8
CircleSize:2
OverallDifficulty:2
ApproachRate:0
SliderMultiplier:1.4
SliderTickRate:1

[Events]
//Background and Video events
0,0,"BG.jpg",0,90
//Break Periods
2,56934,60209
//Storyboard Layer 0 (Background)
//Storyboard Layer 1 (Fail)
//Storyboard Layer 2 (Pass)
//Storyboard Layer 3 (Foreground)
//Storyboard Layer 4 (Overlay)
//Storyboard Sound Samples

[TimingPoints]
1350,329.67032967033,4,1,1,55,1,0
1350,-125,4,1,1,55,0,0
94811,-125,4,1,1,55,0,1
98932,-125,4,1,1,55,0,0
100086,-125,4,1,1,55,0,1
104207,-125,4,1,1,55,0,0
105360,-125,4,1,1,55,0,1
109481,-125,4,1,1,55,0,0

[HitObjects]
448,96,1350,5,0,0:0:0:0:
448,96,1679,1,8,0:0:0:0:
448,96,2339,1,8,0:0:0:0:
448,96,2668,1,12,0:0:0:0:
448,96,3328,1,0,0:0:0:0:
448,96,3987,1,4,0:0:0:0:
448,96,4646,1,12,0:0:0:0:
448,96,6624,1,0,0:0:0:0:
448,96,7778,1,0,0:0:0:0:
416,128,8932,1,8,0:0:0:0:
448,128,9262,5,4,0:0:0:0:
448,96,9921,1,12,0:0:0:0:
448,128,10415,1,0,0:0:0:0:
448,128,11569,1,8,0:0:0:0:
451,121,11899,1,0,0:0:0:0:
448,128,12229,1,0,0:0:0:0:
433,124,12558,1,8,0:0:0:0:
448,128,13218,1,8,0:0:0:0:
448,128,14207,1,8,0:0:0:0:
448,128,14536,1,4,0:0:0:0:
433,108,14866,1,4,0:0:0:0:
461,123,15855,1,0,0:0:0:0:
416,128,16185,1,0,0:0:0:0:
448,128,16514,1,0,0:0:0:0:
452,125,16844,1,8,0:0:0:0:
448,128,17339,1,8,0:0:0:0:
448,128,18163,1,12,0:0:0:0:
448,128,18492,1,0,0:0:0:0:
384,96,18822,1,8,0:0:0:0:
440,123,19481,1,8,0:0:0:0:
448,128,19811,1,4,0:0:0:0:
448,128,20141,1,4,0:0:0:0:
448,128,21295,1,0,0:0:0:0:
448,128,21789,1,0,0:0:0:0:
448,128,22119,1,8,0:0:0:0:
448,128,22778,1,8,0:0:0:0:
448,128,23437,1,8,0:0:0:0:
429,115,23767,1,8,0:0:0:0:
448,128,24426,1,0,0:0:0:0:
448,128,24756,1,8,0:0:0:0:
448,128,25086,1,4,0:0:0:0:
448,128,25415,1,4,0:0:0:0:
448,128,26404,1,0,0:0:0:0:
448,128,26734,1,0,0:0:0:0:
448,128,27064,1,8,0:0:0:0:
455,132,27888,1,8,0:0:0:0:
440,131,28712,1,12,0:0:0:0:
448,128,29042,1,0,0:0:0:0:
455,132,29371,1,8,0:0:0:0:
455,132,30031,1,8,0:0:0:0:
453,135,30360,1,4,0:0:0:0:
416,128,30690,1,4,0:0:0:0:
430,150,31020,1,0,0:0:0:0:
432,142,31679,1,0,0:0:0:0:
429,148,32339,1,0,0:0:0:0:
442,128,32998,1,0,0:0:0:0:
429,146,33657,1,0,0:0:0:0:
448,160,33987,1,0,0:0:0:0:
431,151,34317,1,0,0:0:0:0:
418,141,34976,1,8,0:0:0:0:
438,150,35635,1,4,0:0:0:0:
438,150,36789,1,4,0:0:0:0:
442,154,37284,1,8,0:0:0:0:
409,136,37613,1,0,0:0:0:0:
421,138,38273,1,0,0:0:0:0:
421,145,38932,1,8,0:0:0:0:
421,145,39591,1,8,0:0:0:0:
406,140,40251,1,8,0:0:0:0:
381,124,40580,1,8,0:0:0:0:
413,143,40910,1,4,0:0:0:0:
396,153,42064,1,4,0:0:0:0:
406,146,42558,1,8,0:0:0:0:
407,143,42888,1,0,0:0:0:0:
392,156,43547,1,0,0:0:0:0:
373,141,44207,1,8,0:0:0:0:
392,156,44866,1,0,0:0:0:0:
386,143,45196,1,8,0:0:0:0:
377,148,45525,1,8,0:0:0:0:
399,165,46185,1,4,0:0:0:0:
400,158,47339,1,4,0:0:0:0:
400,165,47833,1,8,0:0:0:0:
400,158,48163,1,0,0:0:0:0:
402,162,48822,1,0,0:0:0:0:
371,156,49152,1,8,0:0:0:0:
363,142,49481,1,0,0:0:0:0:
388,162,50141,1,8,0:0:0:0:
374,148,50470,1,8,0:0:0:0:
376,162,51130,1,8,0:0:0:0:
388,162,51459,1,4,0:0:0:0:
390,165,52613,1,4,0:0:0:0:
386,157,53108,1,8,0:0:0:0:
388,162,53437,1,0,0:0:0:0:
372,173,54097,1,0,0:0:0:0:
384,191,54426,1,0,0:0:0:0:
373,154,54756,1,8,0:0:0:0:
368,172,55415,1,0,0:0:0:0:
357,170,56240,1,4,0:0:0:0:
357,170,56734,1,0,0:0:0:0:
355,156,62009,5,0,0:0:0:0:
346,154,62668,1,0,0:0:0:0:
346,154,63328,1,0,0:0:0:0:
346,154,63987,1,0,0:0:0:0:
346,154,64646,1,0,0:0:0:0:
346,154,65306,1,0,0:0:0:0:
346,154,65635,1,0,0:0:0:0:
346,154,65965,1,0,0:0:0:0:
346,154,66295,1,8,0:0:0:0:
346,154,66954,1,12,0:0:0:0:
256,192,67284,1,0,0:0:0:0:
256,192,67943,1,8,0:0:0:0:
256,192,68602,1,0,0:0:0:0:
256,192,69262,1,0,0:0:0:0:
256,192,69591,1,8,0:0:0:0:
256,192,69921,1,0,0:0:0:0:
256,192,70580,1,8,0:0:0:0:
256,192,71240,1,0,0:0:0:0:
256,192,71899,1,8,0:0:0:0:
256,192,72229,1,8,0:0:0:0:
256,192,72558,1,0,0:0:0:0:
256,192,73218,1,8,0:0:0:0:
256,192,73877,1,0,0:0:0:0:
256,192,74207,1,8,0:0:0:0:
256,192,74536,1,0,0:0:0:0:
256,192,75196,1,0,0:0:0:0:
256,192,75855,1,8,0:0:0:0:
256,192,76185,1,8,0:0:0:0:
256,192,76514,1,0,0:0:0:0:
256,192,77833,1,0,0:0:0:0:
256,192,78328,1,8,0:0:0:0:
256,192,78657,1,8,0:0:0:0:
256,192,79152,1,0,0:0:0:0:
256,192,79811,1,8,0:0:0:0:
256,192,80470,1,0,0:0:0:0:
256,192,80965,1,8,0:0:0:0:
256,192,81295,1,0,0:0:0:0:
256,192,81789,1,0,0:0:0:0:
256,192,82448,1,8,0:0:0:0:
256,192,83108,5,4,0:0:0:0:
329,169,84262,5,8,0:0:0:0:
329,169,85086,1,0,0:0:0:0:
256,192,85415,1,8,0:0:0:0:
256,192,86075,1,0,0:0:0:0:
256,192,86569,1,8,0:0:0:0:
256,192,87064,1,4,0:0:0:0:
335,173,87723,1,0,0:0:0:0:
333,164,88382,1,4,0:0:0:0:
333,164,89536,1,4,0:0:0:0:
334,172,90360,1,8,0:0:0:0:
334,172,90855,1,4,0:0:0:0:
334,172,91679,1,8,0:0:0:0:
334,172,92174,1,4,0:0:0:0:
322,180,92998,1,8,0:0:0:0:
311,179,93657,1,4,0:0:0:0:
322,180,94811,1,4,0:0:0:0:
315,183,95306,1,8,0:0:0:0:
325,185,95635,1,0,0:0:0:0:
312,183,96295,1,0,0:0:0:0:
314,184,96624,1,0,0:0:0:0:
312,183,96954,1,8,0:0:0:0:
317,178,97613,1,8,0:0:0:0:
311,190,98273,1,8,0:0:0:0:
315,183,98602,1,8,0:0:0:0:
328,189,98932,1,4,0:0:0:0:
317,178,100086,1,4,0:0:0:0:
303,172,100580,1,8,0:0:0:0:
311,168,100910,1,0,0:0:0:0:
303,180,101569,1,0,0:0:0:0:
282,168,102229,1,0,0:0:0:0:
295,170,102558,1,0,0:0:0:0:
303,180,102888,1,8,0:0:0:0:
303,180,103547,1,8,0:0:0:0:
295,173,103877,1,8,0:0:0:0:
312,169,104207,1,4,0:0:0:0:
298,181,105360,1,4,0:0:0:0:
278,180,105855,1,8,0:0:0:0:
301,179,106185,1,8,0:0:0:0:
292,177,106844,1,0,0:0:0:0:
290,177,107174,1,0,0:0:0:0:
302,169,107503,1,8,0:0:0:0:
300,169,108163,1,8,0:0:0:0:
318,157,108492,1,0,0:0:0:0:
314,169,108987,1,4,0:0:0:0:
295,176,109481,1,0,0:0:0:0:
287,177,110470,1,0,0:0:0:0:
273,166,110800,1,12,0:0:0:0:
