osu file format v14

[General]
AudioFilename: BEMANI -PHQ remix- - PHQUASE.mp3
AudioLeadIn: 0
PreviewTime: 34935
Countdown: 0
SampleSet: Normal
StackLeniency: 0.7
Mode: 1
LetterboxInBreaks: 0
WidescreenStoryboard: 0

[Editor]
DistanceSpacing: 0.8
BeatDivisor: 4
GridSize: 32
TimelineZoom: 2.799999

[Metadata]
Title:Plain Asia -PHQ remix-
TitleUnicode:プレインエイジア -PHQ remix-
Artist:PHQUASE
ArtistUnicode:PHQUASE
Creator:kanpakyin
Version:Inner Oni
Source:SOUND VOLTEX III GRAVITY WARS
Tags:東方永夜抄 ~ Imperishable Night. Touhou Eiyashou Eternal Night Vignette 上白沢慧音 Keine Kamishirasawa jubeat prop REFLEC BEAT groovin'!! upper BeatStream BEMANI×TOHO REITAISAI 2015 project roger ][ -gh- ][ Ultimate MasterPieces rhythm video game instrumental electronic Takahiro Fukase ふかせ DanceDanceRevolution DDR A
BeatmapID:716318
BeatmapSetID:322149

[Difficulty]
HPDrainRate:6
CircleSize:5
OverallDifficulty:6.5
ApproachRate:5
SliderMultiplier:1.4
SliderTickRate:1

[Events]
//Background and Video events
0,0,"BG.jpg",0,90
//Break Periods
2,56934,60809
//Storyboard Layer 0 (Background)
//Storyboard Layer 1 (Fail)
//Storyboard Layer 2 (Pass)
//Storyboard Layer 3 (Foreground)
//Storyboard Layer 4 (Overlay)
//Storyboard Sound Samples

[TimingPoints]
1350,329.67032967033,4,1,1,55,1,0
89536,-95.2380952380952,4,1,1,55,0,0
90855,-90.9090909090909,4,1,1,55,0,0
92174,-83.3333333333333,4,1,1,55,0,0
94811,-76.9230769230769,4,1,1,55,0,1
98932,-76.9230769230769,4,1,1,55,0,0
100086,-71.4285714285714,4,1,1,55,0,1
104207,-71.4285714285714,4,1,1,55,0,0
105360,-66.6666666666667,4,1,1,55,0,1
109481,-83.3333333333333,4,1,1,55,0,0
110800,-58.8235294117647,4,1,1,55,0,0

[HitObjects]
448,96,1350,5,0,0:0:0:0:
448,96,1514,1,0,0:0:0:0:
448,96,1679,1,8,0:0:0:0:
448,96,1844,1,8,0:0:0:0:
448,96,1926,1,8,0:0:0:0:
448,96,2009,1,0,0:0:0:0:
448,96,2091,1,8,0:0:0:0:
448,96,2174,1,0,0:0:0:0:
448,96,2256,1,0,0:0:0:0:
448,96,2339,1,8,0:0:0:0:
448,96,2503,1,0,0:0:0:0:
448,96,2668,1,12,0:0:0:0:
448,96,3328,1,0,0:0:0:0:
448,96,3492,1,0,0:0:0:0:
448,96,3657,1,8,0:0:0:0:
448,96,3822,1,8,0:0:0:0:
448,96,3987,1,4,0:0:0:0:
448,96,4317,1,12,0:0:0:0:
448,96,4646,1,4,0:0:0:0:
448,96,5141,1,0,0:0:0:0:
448,96,6624,1,0,0:0:0:0:
448,96,7778,1,0,0:0:0:0:
448,96,8767,1,0,0:0:0:0:
448,96,8932,1,8,0:0:0:0:
448,128,9262,5,4,0:0:0:0:
448,96,9591,1,12,0:0:0:0:
448,96,9921,1,4,0:0:0:0:
448,128,10251,1,8,0:0:0:0:
448,128,10415,1,0,0:0:0:0:
448,128,10498,1,0,0:0:0:0:
448,128,10580,1,0,0:0:0:0:
448,128,10745,1,0,0:0:0:0:
448,128,10910,1,8,0:0:0:0:
448,128,11075,1,0,0:0:0:0:
448,128,11240,1,0,0:0:0:0:
448,128,11404,1,0,0:0:0:0:
448,128,11569,1,8,0:0:0:0:
448,128,11734,1,8,0:0:0:0:
448,128,11899,1,0,0:0:0:0:
448,128,12229,1,8,0:0:0:0:
448,128,12558,1,8,0:0:0:0:
448,128,12723,1,0,0:0:0:0:
448,128,12888,1,8,0:0:0:0:
448,128,13053,1,0,0:0:0:0:
448,128,13218,1,8,0:0:0:0:
448,128,13382,1,8,0:0:0:0:
448,128,13547,1,8,0:0:0:0:
448,128,13712,1,8,0:0:0:0:
448,128,13877,1,8,0:0:0:0:
448,128,13959,1,8,0:0:0:0:
448,128,14042,1,0,0:0:0:0:
448,128,14124,1,8,0:0:0:0:
448,128,14207,1,0,0:0:0:0:
448,128,14536,1,4,0:0:0:0:
448,128,14866,1,4,0:0:0:0:
448,128,15196,1,8,0:0:0:0:
448,128,15278,1,0,0:0:0:0:
448,128,15360,1,0,0:0:0:0:
448,128,15443,1,8,0:0:0:0:
442,130,15525,1,0,0:0:0:0:
448,128,15608,1,8,0:0:0:0:
448,128,15773,1,8,0:0:0:0:
448,128,15855,1,0,0:0:0:0:
425,122,15937,1,0,0:0:0:0:
431,111,16020,1,0,0:0:0:0:
425,122,16185,1,0,0:0:0:0:
448,128,16350,1,0,0:0:0:0:
448,128,16432,1,0,0:0:0:0:
448,128,16514,1,8,0:0:0:0:
448,128,16679,1,0,0:0:0:0:
448,128,16844,1,8,0:0:0:0:
448,128,17009,1,0,0:0:0:0:
448,128,17174,1,0,0:0:0:0:
448,128,17339,1,8,0:0:0:0:
448,128,17668,1,8,0:0:0:0:
448,128,17751,1,8,0:0:0:0:
448,128,17833,1,8,0:0:0:0:
448,128,17998,1,0,0:0:0:0:
448,128,18163,1,12,0:0:0:0:
448,128,18410,1,0,0:0:0:0:
448,128,18492,1,8,0:0:0:0:
458,129,18575,1,0,0:0:0:0:
448,128,18657,1,0,0:0:0:0:
448,128,18740,1,0,0:0:0:0:
448,128,18822,1,8,0:0:0:0:
458,127,18904,1,0,0:0:0:0:
448,128,18987,1,8,0:0:0:0:
448,128,19069,1,0,0:0:0:0:
448,128,19152,1,8,0:0:0:0:
448,128,19234,1,8,0:0:0:0:
448,128,19317,1,8,0:0:0:0:
448,128,19399,1,0,0:0:0:0:
448,128,19481,1,8,0:0:0:0:
448,128,19564,1,0,0:0:0:0:
448,128,19646,1,8,0:0:0:0:
444,122,19729,1,8,0:0:0:0:
448,128,19811,1,4,0:0:0:0:
448,128,20141,1,4,0:0:0:0:
448,128,20470,1,8,0:0:0:0:
448,128,20553,1,8,0:0:0:0:
448,128,20635,1,0,0:0:0:0:
448,128,20718,1,8,0:0:0:0:
448,128,20882,1,8,0:0:0:0:
448,128,21047,1,8,0:0:0:0:
448,128,21130,1,0,0:0:0:0:
448,128,21295,1,0,0:0:0:0:
484,144,21350,1,0,0:0:0:0:
476,138,21404,1,0,0:0:0:0:
484,144,21459,1,0,0:0:0:0:
448,128,21542,1,0,0:0:0:0:
448,128,21624,1,0,0:0:0:0:
448,128,21707,1,0,0:0:0:0:
448,128,21789,1,8,0:0:0:0:
448,128,21954,1,0,0:0:0:0:
448,128,22119,1,8,0:0:0:0:
448,128,22284,1,8,0:0:0:0:
448,128,22448,1,0,0:0:0:0:
448,128,22668,1,8,0:0:0:0:
448,128,22778,1,8,0:0:0:0:
448,128,22998,1,0,0:0:0:0:
448,128,23108,1,0,0:0:0:0:
448,128,23328,1,8,0:0:0:0:
448,128,23437,1,8,0:0:0:0:
448,128,23657,1,0,0:0:0:0:
448,128,23767,1,8,0:0:0:0:
448,128,24426,1,0,0:0:0:0:
448,128,24591,1,8,0:0:0:0:
448,128,24756,1,8,0:0:0:0:
448,128,24921,1,8,0:0:0:0:
448,128,25086,1,4,0:0:0:0:
448,128,25415,1,4,0:0:0:0:
448,128,25745,1,8,0:0:0:0:
448,128,25828,1,0,0:0:0:0:
448,128,25910,1,8,0:0:0:0:
448,128,25992,1,0,0:0:0:0:
448,128,26157,1,8,0:0:0:0:
448,128,26240,1,0,0:0:0:0:
451,133,26322,1,8,0:0:0:0:
448,128,26404,1,0,0:0:0:0:
448,128,26487,1,0,0:0:0:0:
448,128,26569,1,0,0:0:0:0:
448,128,26652,1,8,0:0:0:0:
448,128,26734,1,0,0:0:0:0:
448,128,26899,1,0,0:0:0:0:
448,128,26954,1,0,0:0:0:0:
448,128,27009,1,0,0:0:0:0:
448,128,27064,1,8,0:0:0:0:
448,128,27229,1,0,0:0:0:0:
448,128,27393,1,8,0:0:0:0:
448,128,27558,1,0,0:0:0:0:
455,132,27723,1,0,0:0:0:0:
455,132,27806,1,8,0:0:0:0:
455,132,27888,1,8,0:0:0:0:
455,132,27970,1,0,0:0:0:0:
455,132,28053,1,0,0:0:0:0:
455,132,28218,1,0,0:0:0:0:
451,135,28300,1,8,0:0:0:0:
448,128,28382,1,0,0:0:0:0:
455,132,28465,1,0,0:0:0:0:
440,131,28547,1,8,0:0:0:0:
440,131,28712,1,12,0:0:0:0:
440,131,28877,1,0,0:0:0:0:
444,134,29042,1,8,0:0:0:0:
439,134,29124,1,0,0:0:0:0:
452,134,29207,1,8,0:0:0:0:
452,134,29289,1,8,0:0:0:0:
444,133,29371,1,0,0:0:0:0:
455,132,29454,1,8,0:0:0:0:
455,132,29536,1,8,0:0:0:0:
455,132,29619,1,0,0:0:0:0:
455,132,29701,1,8,0:0:0:0:
455,132,29784,1,0,0:0:0:0:
455,132,29866,1,0,0:0:0:0:
455,132,29948,1,0,0:0:0:0:
455,132,30031,1,8,0:0:0:0:
451,135,30113,1,0,0:0:0:0:
455,132,30196,1,8,0:0:0:0:
455,132,30278,1,8,0:0:0:0:
453,135,30360,1,4,0:0:0:0:
453,135,30690,1,4,0:0:0:0:
447,138,31020,1,0,0:0:0:0:
447,138,31185,1,0,0:0:0:0:
447,138,31350,1,8,0:0:0:0:
455,141,31514,1,0,0:0:0:0:
439,152,31597,1,0,0:0:0:0:
455,141,31679,1,0,0:0:0:0:
458,140,31844,1,0,0:0:0:0:
458,140,32009,1,8,0:0:0:0:
437,148,32091,1,0,0:0:0:0:
455,141,32174,1,0,0:0:0:0:
436,148,32256,1,0,0:0:0:0:
436,148,32339,1,0,0:0:0:0:
458,140,32503,1,0,0:0:0:0:
458,140,32668,1,8,0:0:0:0:
458,140,32833,1,0,0:0:0:0:
458,140,32998,1,0,0:0:0:0:
458,140,33163,1,8,0:0:0:0:
427,149,33245,1,0,0:0:0:0:
458,140,33328,1,8,0:0:0:0:
427,149,33410,1,8,0:0:0:0:
431,151,33492,1,0,0:0:0:0:
431,151,33575,1,0,0:0:0:0:
431,151,33657,1,8,0:0:0:0:
431,151,33740,1,0,0:0:0:0:
431,151,33822,1,0,0:0:0:0:
431,151,33904,1,0,0:0:0:0:
431,151,33987,1,8,0:0:0:0:
431,151,34069,1,0,0:0:0:0:
431,151,34152,1,0,0:0:0:0:
431,151,34234,1,0,0:0:0:0:
431,151,34317,1,8,0:0:0:0:
431,151,34399,1,0,0:0:0:0:
431,151,34481,1,8,0:0:0:0:
431,151,34564,1,8,0:0:0:0:
438,150,34646,1,0,0:0:0:0:
438,150,34729,1,0,0:0:0:0:
438,150,34811,1,8,0:0:0:0:
438,150,34893,1,8,0:0:0:0:
438,150,34976,1,0,0:0:0:0:
438,150,35141,1,0,0:0:0:0:
438,150,35306,1,8,0:0:0:0:
438,150,35470,1,8,0:0:0:0:
438,150,35635,1,4,0:0:0:0:
438,150,35965,1,12,0:0:0:0:
438,150,36295,1,4,0:0:0:0:
438,150,36459,1,8,0:0:0:0:
438,150,36624,1,8,0:0:0:0:
438,150,36789,1,4,0:0:0:0:
432,145,37119,1,0,0:0:0:0:
432,145,37284,1,8,0:0:0:0:
432,145,37448,1,8,0:0:0:0:
432,145,37613,1,0,0:0:0:0:
421,145,37778,1,0,0:0:0:0:
421,145,37860,1,0,0:0:0:0:
421,145,37943,1,8,0:0:0:0:
421,145,38108,1,8,0:0:0:0:
421,145,38273,1,0,0:0:0:0:
419,140,38602,1,8,0:0:0:0:
421,145,38932,1,8,0:0:0:0:
421,145,39097,1,0,0:0:0:0:
421,145,39262,1,8,0:0:0:0:
421,145,39426,1,8,0:0:0:0:
407,138,39509,1,0,0:0:0:0:
421,145,39591,1,8,0:0:0:0:
421,145,39756,1,0,0:0:0:0:
421,145,39921,1,8,0:0:0:0:
421,145,40086,1,0,0:0:0:0:
414,143,40251,1,8,0:0:0:0:
414,143,40333,1,8,0:0:0:0:
414,143,40415,1,8,0:0:0:0:
414,143,40580,1,0,0:0:0:0:
413,143,40745,1,8,0:0:0:0:
411,144,40828,1,8,0:0:0:0:
413,143,40910,1,4,0:0:0:0:
407,143,41240,1,12,0:0:0:0:
409,143,41569,1,4,0:0:0:0:
405,141,41734,1,8,0:0:0:0:
405,141,41899,1,8,0:0:0:0:
396,153,42064,1,4,0:0:0:0:
406,146,42393,1,0,0:0:0:0:
406,146,42558,1,8,0:0:0:0:
406,146,42723,1,0,0:0:0:0:
403,154,42806,1,0,0:0:0:0:
407,143,42888,1,8,0:0:0:0:
403,154,43053,1,0,0:0:0:0:
404,153,43218,1,8,0:0:0:0:
392,156,43382,1,8,0:0:0:0:
392,156,43547,1,0,0:0:0:0:
396,153,43877,1,8,0:0:0:0:
373,141,44207,1,0,0:0:0:0:
383,156,44371,1,0,0:0:0:0:
386,156,44536,1,8,0:0:0:0:
386,156,44701,1,0,0:0:0:0:
386,156,44784,1,0,0:0:0:0:
386,156,44866,1,8,0:0:0:0:
386,157,45031,1,0,0:0:0:0:
392,156,45196,1,8,0:0:0:0:
399,164,45360,1,0,0:0:0:0:
399,164,45443,1,0,0:0:0:0:
399,164,45525,1,8,0:0:0:0:
399,164,45608,1,0,0:0:0:0:
399,164,45690,1,0,0:0:0:0:
399,164,45773,1,0,0:0:0:0:
399,164,45855,1,8,0:0:0:0:
399,165,46185,1,4,0:0:0:0:
400,165,46514,1,12,0:0:0:0:
400,165,46844,1,4,0:0:0:0:
399,156,47009,1,8,0:0:0:0:
399,156,47174,1,8,0:0:0:0:
400,158,47339,1,4,0:0:0:0:
399,164,47668,1,0,0:0:0:0:
399,165,47833,1,8,0:0:0:0:
399,165,47998,1,0,0:0:0:0:
400,165,48163,1,8,0:0:0:0:
400,165,48328,1,0,0:0:0:0:
400,165,48410,1,0,0:0:0:0:
400,165,48492,1,8,0:0:0:0:
400,165,48657,1,8,0:0:0:0:
402,162,48822,1,0,0:0:0:0:
388,162,48987,1,0,0:0:0:0:
388,162,49152,1,8,0:0:0:0:
388,162,49317,1,0,0:0:0:0:
388,162,49399,1,0,0:0:0:0:
388,162,49481,1,8,0:0:0:0:
388,162,49564,1,8,0:0:0:0:
388,162,49646,1,0,0:0:0:0:
388,162,49811,1,8,0:0:0:0:
388,162,49976,1,0,0:0:0:0:
388,162,50058,1,0,0:0:0:0:
388,162,50141,1,8,0:0:0:0:
388,162,50306,1,0,0:0:0:0:
388,162,50470,1,8,0:0:0:0:
388,162,50635,1,8,0:0:0:0:
388,162,50718,1,8,0:0:0:0:
388,162,50800,1,0,0:0:0:0:
388,162,50882,1,8,0:0:0:0:
388,162,50965,1,0,0:0:0:0:
388,162,51047,1,0,0:0:0:0:
388,162,51130,1,8,0:0:0:0:
388,162,51459,1,4,0:0:0:0:
390,165,51789,1,12,0:0:0:0:
390,165,52119,1,4,0:0:0:0:
390,165,52284,1,8,0:0:0:0:
390,165,52448,1,8,0:0:0:0:
390,165,52613,1,4,0:0:0:0:
388,162,52943,1,0,0:0:0:0:
388,162,53108,1,8,0:0:0:0:
390,165,53273,1,0,0:0:0:0:
390,165,53437,1,0,0:0:0:0:
390,165,53602,1,8,0:0:0:0:
372,171,53767,1,8,0:0:0:0:
371,171,53932,1,0,0:0:0:0:
371,171,54097,1,8,0:0:0:0:
381,179,54262,1,0,0:0:0:0:
346,158,54344,1,0,0:0:0:0:
371,171,54426,1,8,0:0:0:0:
371,171,54591,1,0,0:0:0:0:
368,172,54756,1,8,0:0:0:0:
368,172,54839,1,8,0:0:0:0:
368,172,54921,1,0,0:0:0:0:
368,172,55003,1,0,0:0:0:0:
368,172,55086,1,8,0:0:0:0:
368,172,55251,1,0,0:0:0:0:
380,176,55415,1,8,0:0:0:0:
382,176,55580,1,0,0:0:0:0:
382,176,55663,1,0,0:0:0:0:
382,176,55745,1,8,0:0:0:0:
357,156,55828,1,8,0:0:0:0:
371,171,55910,1,0,0:0:0:0:
371,171,55992,1,0,0:0:0:0:
371,171,56075,1,8,0:0:0:0:
371,171,56240,1,4,0:0:0:0:
357,170,56734,5,0,0:0:0:0:
355,156,62009,5,0,0:0:0:0:
346,154,62668,1,0,0:0:0:0:
346,154,63328,1,0,0:0:0:0:
346,154,63987,1,0,0:0:0:0:
346,154,64646,1,0,0:0:0:0:
346,154,64976,1,0,0:0:0:0:
346,154,65306,1,0,0:0:0:0:
346,154,65635,1,0,0:0:0:0:
346,154,65965,1,0,0:0:0:0:
346,154,66130,1,0,0:0:0:0:
346,154,66212,1,0,0:0:0:0:
346,154,66295,1,8,0:0:0:0:
346,154,66459,1,0,0:0:0:0:
346,154,66542,1,8,0:0:0:0:
346,154,66624,1,8,0:0:0:0:
346,154,66707,1,8,0:0:0:0:
346,154,66789,1,0,0:0:0:0:
365,155,66871,1,0,0:0:0:0:
346,154,66954,1,12,0:0:0:0:
339,157,67284,1,0,0:0:0:0:
339,157,67366,1,8,0:0:0:0:
349,149,67448,1,8,0:0:0:0:
349,149,67531,1,8,0:0:0:0:
349,149,67613,1,0,0:0:0:0:
349,149,67696,1,8,0:0:0:0:
349,149,67778,1,8,0:0:0:0:
349,149,67860,1,8,0:0:0:0:
349,149,67943,1,0,0:0:0:0:
349,149,68025,1,8,0:0:0:0:
349,149,68108,1,0,0:0:0:0:
349,149,68190,1,8,0:0:0:0:
349,149,68273,1,0,0:0:0:0:
349,149,68355,1,0,0:0:0:0:
349,149,68437,1,8,0:0:0:0:
350,149,68520,1,8,0:0:0:0:
350,149,68602,1,0,0:0:0:0:
350,149,68685,1,0,0:0:0:0:
350,149,68767,1,8,0:0:0:0:
350,149,68850,1,8,0:0:0:0:
350,149,68932,1,0,0:0:0:0:
350,149,69014,1,8,0:0:0:0:
350,149,69097,1,8,0:0:0:0:
350,149,69179,1,8,0:0:0:0:
349,149,69262,1,0,0:0:0:0:
349,149,69344,1,8,0:0:0:0:
349,149,69426,1,8,0:0:0:0:
349,149,69509,1,8,0:0:0:0:
349,149,69591,1,0,0:0:0:0:
349,149,69674,1,8,0:0:0:0:
349,149,69756,1,8,0:0:0:0:
349,149,69839,1,8,0:0:0:0:
349,149,69921,1,0,0:0:0:0:
349,149,70003,1,8,0:0:0:0:
349,149,70086,1,8,0:0:0:0:
349,149,70168,1,0,0:0:0:0:
349,149,70251,1,0,0:0:0:0:
350,149,70333,1,8,0:0:0:0:
350,149,70415,1,8,0:0:0:0:
350,149,70498,1,8,0:0:0:0:
350,149,70580,1,0,0:0:0:0:
350,149,70663,1,8,0:0:0:0:
350,149,70745,1,0,0:0:0:0:
350,149,70828,1,8,0:0:0:0:
350,149,70910,1,0,0:0:0:0:
350,149,70992,1,8,0:0:0:0:
349,149,71075,1,8,0:0:0:0:
349,149,71157,1,8,0:0:0:0:
349,149,71240,1,0,0:0:0:0:
349,149,71322,1,8,0:0:0:0:
349,149,71404,1,8,0:0:0:0:
349,149,71487,1,8,0:0:0:0:
349,149,71569,1,0,0:0:0:0:
349,149,71652,1,8,0:0:0:0:
349,149,71734,1,0,0:0:0:0:
349,149,71817,1,8,0:0:0:0:
349,149,71899,1,0,0:0:0:0:
353,153,71981,1,8,0:0:0:0:
353,153,72064,1,8,0:0:0:0:
353,153,72146,1,8,0:0:0:0:
353,153,72229,1,0,0:0:0:0:
353,153,72311,1,0,0:0:0:0:
353,153,72393,1,8,0:0:0:0:
353,153,72476,1,8,0:0:0:0:
353,153,72558,1,0,0:0:0:0:
353,153,72641,1,8,0:0:0:0:
350,149,72723,1,8,0:0:0:0:
350,149,72806,1,8,0:0:0:0:
349,149,72888,1,0,0:0:0:0:
349,149,72970,1,8,0:0:0:0:
349,149,73053,1,8,0:0:0:0:
349,149,73135,1,8,0:0:0:0:
349,149,73218,1,0,0:0:0:0:
349,149,73300,1,0,0:0:0:0:
349,149,73382,1,8,0:0:0:0:
349,149,73465,1,8,0:0:0:0:
349,149,73547,1,0,0:0:0:0:
349,149,73630,1,0,0:0:0:0:
349,149,73712,1,8,0:0:0:0:
353,153,73795,1,8,0:0:0:0:
353,153,73877,1,0,0:0:0:0:
353,153,73959,1,0,0:0:0:0:
353,153,74042,1,8,0:0:0:0:
353,153,74124,1,8,0:0:0:0:
353,153,74207,1,0,0:0:0:0:
353,153,74289,1,8,0:0:0:0:
353,153,74371,1,8,0:0:0:0:
353,153,74454,1,8,0:0:0:0:
350,149,74536,1,0,0:0:0:0:
350,149,74619,1,0,0:0:0:0:
349,149,74701,1,8,0:0:0:0:
349,149,74784,1,8,0:0:0:0:
349,149,74866,1,0,0:0:0:0:
349,149,74948,1,8,0:0:0:0:
349,149,75031,1,8,0:0:0:0:
349,149,75113,1,8,0:0:0:0:
349,149,75196,1,0,0:0:0:0:
349,149,75278,1,8,0:0:0:0:
349,149,75360,1,0,0:0:0:0:
349,149,75443,1,8,0:0:0:0:
349,149,75525,1,0,0:0:0:0:
353,153,75608,1,0,0:0:0:0:
353,153,75690,1,8,0:0:0:0:
353,153,75773,1,8,0:0:0:0:
353,153,75855,1,0,0:0:0:0:
353,153,75937,1,8,0:0:0:0:
353,153,76020,1,8,0:0:0:0:
353,153,76102,1,8,0:0:0:0:
353,153,76185,1,0,0:0:0:0:
353,153,76267,1,8,0:0:0:0:
353,152,76350,1,0,0:0:0:0:
344,160,76514,1,0,0:0:0:0:
344,160,76679,1,0,0:0:0:0:
344,160,76762,1,0,0:0:0:0:
344,160,76844,1,8,0:0:0:0:
355,143,76926,1,8,0:0:0:0:
344,160,77009,1,0,0:0:0:0:
344,160,77174,1,0,0:0:0:0:
344,160,77256,1,8,0:0:0:0:
344,160,77339,1,0,0:0:0:0:
344,160,77421,1,0,0:0:0:0:
344,160,77503,1,8,0:0:0:0:
344,160,77668,1,8,0:0:0:0:
361,147,77833,1,0,0:0:0:0:
355,148,77915,1,0,0:0:0:0:
355,148,77998,1,8,0:0:0:0:
353,152,78080,1,8,0:0:0:0:
353,152,78163,1,0,0:0:0:0:
355,148,78245,1,0,0:0:0:0:
355,148,78328,1,8,0:0:0:0:
355,148,78410,1,8,0:0:0:0:
355,148,78492,1,0,0:0:0:0:
355,148,78575,1,8,0:0:0:0:
355,148,78657,1,8,0:0:0:0:
355,148,78740,1,8,0:0:0:0:
355,148,78822,1,0,0:0:0:0:
355,148,78904,1,0,0:0:0:0:
355,148,78987,1,8,0:0:0:0:
355,148,79069,1,8,0:0:0:0:
355,148,79152,1,0,0:0:0:0:
355,148,79234,1,0,0:0:0:0:
351,159,79317,1,8,0:0:0:0:
351,159,79399,1,8,0:0:0:0:
351,159,79481,1,0,0:0:0:0:
351,159,79564,1,0,0:0:0:0:
351,159,79646,1,8,0:0:0:0:
351,159,79729,1,8,0:0:0:0:
351,159,79811,1,8,0:0:0:0:
347,159,79893,1,0,0:0:0:0:
347,159,79976,1,8,0:0:0:0:
347,159,80058,1,8,0:0:0:0:
347,159,80141,1,0,0:0:0:0:
347,159,80223,1,0,0:0:0:0:
347,159,80306,1,8,0:0:0:0:
351,159,80388,1,8,0:0:0:0:
347,159,80470,1,0,0:0:0:0:
346,165,80553,1,8,0:0:0:0:
346,165,80635,1,8,0:0:0:0:
346,165,80718,1,8,0:0:0:0:
346,165,80800,1,0,0:0:0:0:
346,165,80882,1,0,0:0:0:0:
341,170,80965,1,8,0:0:0:0:
336,168,81020,1,8,0:0:0:0:
337,168,81075,1,8,0:0:0:0:
337,168,81130,1,0,0:0:0:0:
333,162,81212,1,8,0:0:0:0:
330,161,81295,1,8,0:0:0:0:
333,162,81377,1,8,0:0:0:0:
330,161,81459,1,0,0:0:0:0:
330,161,81542,1,0,0:0:0:0:
330,161,81624,1,8,0:0:0:0:
343,163,81707,1,8,0:0:0:0:
341,162,81789,1,0,0:0:0:0:
334,175,81871,1,0,0:0:0:0:
335,173,81954,1,8,0:0:0:0:
335,173,82036,1,8,0:0:0:0:
326,163,82119,1,8,0:0:0:0:
326,163,82201,1,0,0:0:0:0:
326,163,82284,1,8,0:0:0:0:
338,168,82339,1,0,0:0:0:0:
338,168,82393,1,0,0:0:0:0:
338,168,82448,1,8,0:0:0:0:
327,169,82531,1,0,0:0:0:0:
327,169,82613,1,8,0:0:0:0:
327,169,82696,1,8,0:0:0:0:
329,169,82778,1,0,0:0:0:0:
329,169,82860,1,0,0:0:0:0:
329,169,82943,1,8,0:0:0:0:
329,169,83025,1,8,0:0:0:0:
329,169,83108,1,4,0:0:0:0:
329,169,83932,1,0,0:0:0:0:
329,169,84097,1,0,0:0:0:0:
329,169,84262,1,8,0:0:0:0:
329,169,85086,1,0,0:0:0:0:
329,169,85415,1,0,0:0:0:0:
329,169,85745,1,8,0:0:0:0:
329,169,86075,1,4,0:0:0:0:
329,169,86322,1,4,0:0:0:0:
329,169,86569,1,12,0:0:0:0:
329,169,86817,1,4,0:0:0:0:
329,169,87064,1,12,0:0:0:0:
335,173,87723,1,0,0:0:0:0:
333,164,87888,1,8,0:0:0:0:
333,164,88053,1,8,0:0:0:0:
333,164,88218,1,0,0:0:0:0:
333,164,88382,1,4,0:0:0:0:
333,165,88712,1,12,0:0:0:0:
332,165,89042,1,4,0:0:0:0:
332,165,89207,1,8,0:0:0:0:
332,165,89371,1,8,0:0:0:0:
333,164,89536,1,4,0:0:0:0:
327,162,89866,1,0,0:0:0:0:
334,172,90031,1,8,0:0:0:0:
334,172,90196,1,0,0:0:0:0:
334,172,90360,1,8,0:0:0:0:
334,172,90525,1,0,0:0:0:0:
334,172,90608,1,0,0:0:0:0:
334,172,90690,1,0,0:0:0:0:
334,172,90855,1,4,0:0:0:0:
334,172,91185,1,0,0:0:0:0:
334,172,91350,1,8,0:0:0:0:
334,172,91514,1,0,0:0:0:0:
334,172,91679,1,8,0:0:0:0:
334,172,91844,1,8,0:0:0:0:
334,172,91926,1,0,0:0:0:0:
334,172,92009,1,0,0:0:0:0:
334,172,92174,1,4,0:0:0:0:
328,180,92503,1,0,0:0:0:0:
321,180,92668,1,8,0:0:0:0:
322,180,92833,1,8,0:0:0:0:
322,180,92998,1,8,0:0:0:0:
311,179,93163,1,0,0:0:0:0:
311,179,93328,1,8,0:0:0:0:
311,179,93492,1,8,0:0:0:0:
311,179,93657,1,4,0:0:0:0:
311,179,93987,1,12,0:0:0:0:
320,181,94317,1,4,0:0:0:0:
321,180,94481,1,8,0:0:0:0:
322,180,94646,1,8,0:0:0:0:
322,180,94811,1,4,0:0:0:0:
311,179,95141,1,0,0:0:0:0:
315,183,95306,1,8,0:0:0:0:
312,183,95470,1,0,0:0:0:0:
312,183,95553,1,0,0:0:0:0:
312,183,95635,1,8,0:0:0:0:
312,183,95800,1,0,0:0:0:0:
312,183,95965,1,8,0:0:0:0:
313,183,96047,1,8,0:0:0:0:
313,183,96130,1,0,0:0:0:0:
313,183,96212,1,0,0:0:0:0:
313,183,96295,1,8,0:0:0:0:
312,181,96459,1,0,0:0:0:0:
312,181,96624,1,8,0:0:0:0:
311,179,96789,1,0,0:0:0:0:
311,179,96871,1,0,0:0:0:0:
314,184,96954,1,8,0:0:0:0:
315,183,97119,1,0,0:0:0:0:
312,183,97284,1,8,0:0:0:0:
312,183,97448,1,8,0:0:0:0:
312,183,97531,1,8,0:0:0:0:
312,183,97613,1,0,0:0:0:0:
317,178,97778,1,0,0:0:0:0:
317,178,97943,1,8,0:0:0:0:
317,178,98025,1,0,0:0:0:0:
317,178,98108,1,8,0:0:0:0:
317,178,98190,1,0,0:0:0:0:
317,178,98273,1,8,0:0:0:0:
317,178,98437,1,0,0:0:0:0:
317,178,98602,1,8,0:0:0:0:
315,183,98932,1,4,0:0:0:0:
319,178,99262,1,12,0:0:0:0:
319,178,99591,1,4,0:0:0:0:
317,178,99756,1,8,0:0:0:0:
317,178,99921,1,8,0:0:0:0:
317,178,100086,1,4,0:0:0:0:
317,178,100415,1,0,0:0:0:0:
320,178,100580,1,8,0:0:0:0:
320,178,100745,1,0,0:0:0:0:
308,177,100828,1,0,0:0:0:0:
308,177,100910,1,8,0:0:0:0:
308,177,101075,1,0,0:0:0:0:
308,177,101240,1,8,0:0:0:0:
317,178,101322,1,8,0:0:0:0:
317,178,101404,1,0,0:0:0:0:
317,178,101569,1,8,0:0:0:0:
317,178,101734,1,0,0:0:0:0:
303,180,101899,1,8,0:0:0:0:
303,180,102064,1,0,0:0:0:0:
303,180,102146,1,0,0:0:0:0:
303,180,102229,1,8,0:0:0:0:
303,180,102311,1,8,0:0:0:0:
303,180,102393,1,0,0:0:0:0:
303,180,102558,1,8,0:0:0:0:
303,180,102723,1,0,0:0:0:0:
303,180,102888,1,8,0:0:0:0:
303,180,103053,1,0,0:0:0:0:
303,180,103135,1,0,0:0:0:0:
303,180,103218,1,8,0:0:0:0:
294,169,103382,1,8,0:0:0:0:
294,169,103547,1,8,0:0:0:0:
294,169,103630,1,8,0:0:0:0:
294,169,103712,1,0,0:0:0:0:
294,169,103795,1,0,0:0:0:0:
294,169,103877,1,8,0:0:0:0:
312,171,104042,1,8,0:0:0:0:
312,170,104124,1,8,0:0:0:0:
312,169,104207,1,4,0:0:0:0:
299,170,104536,1,12,0:0:0:0:
299,170,104866,1,4,0:0:0:0:
296,169,105031,1,8,0:0:0:0:
295,182,105196,1,8,0:0:0:0:
298,181,105360,1,4,0:0:0:0:
309,176,105690,1,0,0:0:0:0:
313,178,105773,1,0,0:0:0:0:
309,176,105855,1,8,0:0:0:0:
306,179,106020,1,0,0:0:0:0:
301,179,106185,1,8,0:0:0:0:
301,179,106267,1,8,0:0:0:0:
301,179,106350,1,0,0:0:0:0:
303,179,106432,1,0,0:0:0:0:
301,179,106514,1,8,0:0:0:0:
309,179,106679,1,8,0:0:0:0:
292,177,106844,1,8,0:0:0:0:
300,164,106926,1,0,0:0:0:0:
299,156,107009,1,0,0:0:0:0:
299,156,107091,1,0,0:0:0:0:
299,156,107174,1,8,0:0:0:0:
299,156,107256,1,0,0:0:0:0:
297,156,107339,1,0,0:0:0:0:
299,156,107421,1,0,0:0:0:0:
302,169,107503,1,8,0:0:0:0:
302,169,107586,1,0,0:0:0:0:
302,169,107668,1,8,0:0:0:0:
302,169,107751,1,0,0:0:0:0:
302,169,107833,1,8,0:0:0:0:
302,169,107915,1,8,0:0:0:0:
302,169,107998,1,0,0:0:0:0:
302,169,108080,1,0,0:0:0:0:
302,169,108163,1,8,0:0:0:0:
302,169,108328,1,8,0:0:0:0:
302,169,108410,1,0,0:0:0:0:
302,169,108492,1,8,0:0:0:0:
314,169,108657,1,8,0:0:0:0:
314,169,108712,1,8,0:0:0:0:
314,169,108767,1,8,0:0:0:0:
314,169,108822,1,0,0:0:0:0:
304,162,108987,1,4,0:0:0:0:
295,176,109481,1,0,0:0:0:0:
292,175,109646,1,0,0:0:0:0:
292,175,109811,1,8,0:0:0:0:
292,175,109976,1,8,0:0:0:0:
294,174,110058,1,8,0:0:0:0:
294,174,110141,1,0,0:0:0:0:
294,174,110223,1,8,0:0:0:0:
294,174,110306,1,0,0:0:0:0:
322,174,110388,1,0,0:0:0:0:
294,174,110470,1,8,0:0:0:0:
294,174,110635,1,0,0:0:0:0:
273,166,110800,1,12,0:0:0:0:
