osu file format v14

[General]
AudioFilename: audio.mp3
AudioLeadIn: 0
PreviewTime: 51049
Countdown: 0
SampleSet: Soft
StackLeniency: 0.5
Mode: 0
LetterboxInBreaks: 0
WidescreenStoryboard: 1

[Editor]
Bookmarks: 1736,8010,14285,20559,26834,33108,39383,45657,51932,64481,67618,75461,77030,83304,89579,95853,102128,108402,114677,120951,127226,133500,139775,146049,152324,158598,164677,168010,174285,180559,192716,193108,204088,205657,211932,216637,218108
DistanceSpacing: 0.2
BeatDivisor: 4
GridSize: 32
TimelineZoom: 2.1

[Metadata]
Title:Phantom Chain
TitleUnicode:Phantom Chain
Artist:PHAZE
ArtistUnicode:PHAZE
Creator:Stompy_
Version:annabel's Fairy Tale
Source:
Tags:daycore eiri- ayyri annabel tomatas95 heroine featured artist fa japanese pop electronic j-pop jpop female vocals vocalist
BeatmapID:4417037
BeatmapSetID:2105111

[Difficulty]
HPDrainRate:5
CircleSize:4.5
OverallDifficulty:8.5
ApproachRate:9
SliderMultiplier:1.8
SliderTickRate:1

[Events]
//Background and Video events
0,0,"beauiful bg.jpg",0,0
//Break Periods
//Storyboard Layer 0 (Background)
//Storyboard Layer 1 (Fail)
//Storyboard Layer 2 (Pass)
//Storyboard Layer 3 (Foreground)
//Storyboard Layer 4 (Overlay)
//Storyboard Sound Samples

[TimingPoints]
1736,392.156862745098,4,2,1,50,1,0
8010,-133.333333333333,4,2,1,50,0,0
20559,-100,4,2,1,65,0,0
32324,-400,4,2,1,65,0,0
33108,-66.6666666666667,4,2,2,75,0,0
33892,-80,4,2,2,75,0,0
36245,-66.6666666666667,4,2,2,75,0,0
37030,-80,4,2,2,75,0,0
39383,-76.9230769230769,4,2,2,75,0,0
43500,-66.6666666666667,4,2,2,75,0,0
44088,-200,4,2,2,50,0,0
45657,-71.4285714285714,4,2,2,75,0,0
51147,-100,4,2,2,75,0,0
51539,-80,4,2,2,75,0,0
51932,-66.6666666666667,4,2,2,90,0,1
62912,-100,4,2,2,90,0,1
63304,-80,4,2,2,90,0,1
63696,-66.6666666666667,4,2,2,90,0,1
64088,-57.1428571428571,4,2,2,90,0,1
64481,-80,4,2,2,70,0,0
66049,-50,4,2,2,70,0,0
67030,-100,4,2,2,70,0,0
67226,-50,4,2,2,70,0,0
67618,-66.6666666666667,4,2,2,90,0,1
75461,-66.6666666666667,4,2,2,70,0,0
75853,-100,4,2,2,70,0,0
76245,-133.333333333333,4,2,2,70,0,0
76637,-200,4,2,2,70,0,0
77030,-66.6666666666667,4,2,2,80,0,0
89579,-133.333333333333,4,2,1,60,0,0
102128,-100,4,2,1,60,0,0
113892,-400,4,2,1,60,0,0
114677,-66.6666666666667,4,2,2,75,0,0
115461,-80,4,2,2,75,0,0
117814,-66.6666666666667,4,2,2,75,0,0
118598,-80,4,2,2,75,0,0
120951,-76.9230769230769,4,2,2,75,0,0
125069,-66.6666666666667,4,2,2,75,0,0
125657,-100,4,2,2,75,0,0
126834,-66.6666666666667,4,2,2,75,0,0
127226,-200,4,2,2,65,0,0
133500,-133.333333333333,4,2,2,65,0,0
139775,-100,4,2,2,70,0,0
150755,-200,4,2,2,70,0,0
152324,-66.6666666666667,4,2,2,80,0,0
158598,-57.1428571428571,4,2,2,80,0,0
163304,-50,4,2,2,80,0,0
164677,-133.333333333333,4,2,2,80,0,0
167618,-133.333333333333,4,2,2,50,0,0
168010,-200,4,2,3,60,0,0
179775,-100,4,2,2,80,0,0
180167,-80,4,2,2,80,0,0
180559,-66.6666666666667,4,2,2,90,0,1
191539,-100,4,2,2,90,0,1
191932,-80,4,2,2,90,0,1
192324,-66.6666666666667,4,2,2,90,0,1
192716,-57.1428571428571,4,2,2,90,0,0
193108,-66.6666666666667,4,2,2,90,0,1
204088,-66.6666666666667,4,2,2,90,0,0
204481,-100,4,2,2,90,0,0
204873,-133.333333333333,4,2,2,90,0,0
205265,-200,4,2,2,90,0,0
205657,-66.6666666666667,4,2,2,80,0,0
216637,-66.6666666666667,4,2,2,65,0,0

[Colours]
Combo1 : 255,255,183
Combo2 : 184,113,255
Combo3 : 183,176,255

[HitObjects]
442,328,8010,5,6,0:1:0:0:
442,328,8598,5,2,0:2:0:0:
384,364,8794,2,0,B|374:295|454:323|446:229,1,135.000005149842,2|2,0:2|0:2,0:0:0:0:
419,167,9383,6,0,B|400:126|337:143|318:195|348:251|403:243,1,168.750006437302,2|0,0:2|0:0,0:0:0:0:
388,198,9971,2,0,P|336:173|298:171,1,67.5000025749208,2|0,0:2|0:0,0:0:0:0:
245,266,10363,2,0,P|277:256|306:239,1,67.5000025749208,2|0,0:2|0:0,0:0:0:0:
215,154,10755,2,0,P|163:129|125:127,1,67.5000025749208,2|0,0:2|0:0,0:0:0:0:
31,189,11147,6,0,B|52:241|-11:241|17:295,1,101.250003862381,2|0,0:1|0:0,0:0:0:0:
37,320,11539,2,0,P|95:328|182:354,2,135.000005149842,2|2|2,0:2|0:2|0:2,0:0:0:0:
242,219,12716,6,0,P|235:264|221:304,1,67.5000025749208,2|0,0:1|0:0,0:0:0:0:
233,297,13010,1,2,0:2:0:0:
190,353,13304,1,2,0:2:0:0:
190,353,13500,2,0,P|158:341|124:337,2,67.5000025749208,2|2|2,0:2|0:2|0:2,0:0:0:0:
210,364,14285,6,0,P|279:337|345:339,1,135.000005149842,2|2,0:1|0:2,0:0:0:0:
403,256,14873,2,0,P|344:262|340:342,1,135.000005149842,2|0,0:2|0:0,0:0:0:0:
416,241,15461,1,2,0:2:0:0:
416,241,15657,6,0,B|382:173|468:159|412:93,1,135.000005149842,2|0,0:2|0:0,0:0:0:0:
314,50,16245,2,0,P|367:38|430:15,1,101.250003862381,2|0,0:2|0:0,0:0:0:0:
430,17,16637,2,0,P|473:40|478:62,1,67.5000025749208,2|0,0:2|0:0,0:0:0:0:
380,127,17030,2,0,P|337:104|346:48,1,101.250003862381,2|0,0:2|0:0,0:0:0:0:
350,66,17422,6,0,P|366:30|361:-5,1,67.5000025749208,2|0,0:1|0:0,0:0:0:0:
268,92,17814,2,0,P|230:59|205:3,1,101.250003862381,2|0,0:2|0:0,0:0:0:0:
195,7,18206,2,0,P|135:44|112:116,1,135.000005149842,2|2,0:1|0:1,0:0:0:0:
232,231,18990,6,0,B|355:197|219:121|365:72,1,202.500007724762,2|0,0:1|0:0,0:0:0:0:
370,96,19677,1,2,0:2:0:0:
351,124,19775,6,0,P|306:110|260:105,1,67.5000025749208,2|2,0:2|0:0,0:0:0:0:
268,171,20167,2,0,P|313:185|359:190,1,67.5000025749208,2|2,0:0|0:0,0:0:0:0:
218,116,20559,6,0,P|140:128|98:221,1,180,2|0,3:1|0:0,0:0:0:0:
64,148,21147,1,2,3:2:0:0:
182,208,21343,2,0,B|271:224|218:285|289:313,1,135,10|0,0:0|0:0,0:0:0:0:
304,297,21736,1,2,0:2:0:0:
196,381,21932,1,2,3:2:0:0:
196,381,22128,6,0,P|183:331|178:265,1,90,2|0,3:2|0:0,0:0:0:0:
271,210,22520,2,0,P|265:165|233:61,1,135,2|0,0:0|0:0,0:0:0:0:
246,67,22912,1,10,0:0:0:0:
303,117,23304,1,2,0:0:0:0:
328,109,23696,6,0,B|444:129|350:212|470:240,1,180,2|0,3:2|0:0,0:0:0:0:
494,151,24285,1,2,3:2:0:0:
512,294,24481,2,0,P|423:325|337:374,1,180,10|0,0:0|0:0,0:0:0:0:
224,321,25069,1,2,3:2:0:0:
224,321,25265,6,0,P|220:258|209:210,2,90,2|0|2,3:2|0:0|0:0,0:0:0:0:
248,96,26049,1,8,0:0:0:0:
201,151,26245,1,2,0:0:0:0:
284,205,26441,2,0,P|337:196|338:106,1,135,2|0,0:0|0:0,0:0:0:0:
337,84,26834,6,0,P|416:78|458:188,1,180,2|2,3:2|0:0,0:0:0:0:
495,30,27422,2,0,P|438:42|430:104,2,90,2|8|0,3:2|0:0|0:0,0:0:0:0:
438,137,28010,1,2,0:0:0:0:
292,86,28206,1,2,3:2:0:0:
292,86,28402,6,0,B|168:118|277:178|140:209,1,180,2|0,3:2|0:0,0:0:0:0:
87,156,28990,1,2,0:0:0:0:
246,191,29186,2,0,P|270:260|290:380,1,180,10|0,0:0|0:0,0:0:0:0:
317,278,29775,1,2,0:0:0:0:
173,357,29971,6,0,P|116:347|26:308,1,135,2|0,3:2|0:0,0:0:0:0:
32,309,30363,1,0,3:0:0:0:
159,320,30559,1,2,0:2:0:0:
159,320,30657,2,0,P|176:267|182:179,1,135,2|0,0:2|0:0,0:0:0:0:
155,93,31147,1,2,3:2:0:0:
271,144,31343,1,2,0:0:0:0:
198,196,31539,5,2,3:2:0:0:
255,145,31735,1,2,0:2:0:0:
190,206,31932,2,0,P|99:190|19:189,1,135,2|0,3:2|0:0,0:0:0:0:
60,201,32324,6,0,P|72:243|78:280,1,78.75,6|0,3:1|0:0,0:0:0:0:
132,331,33108,6,0,P|153:299|153:248,1,67.5000025749208,6|0,3:2|0:0,0:0:0:0:
241,317,33304,6,0,P|260:344|266:377,1,67.5000025749208,6|0,3:2|0:0,0:0:0:0:
395,316,33500,6,0,P|367:296|334:290,3,67.5000025749208,6|0|0|0,3:2|0:0|0:0|0:0,0:0:0:0:
446,382,33892,6,0,P|417:305|418:241,1,112.5,10|0,0:2|3:0,0:0:0:0:
364,381,34285,1,2,0:2:0:0:
431,239,34481,6,0,P|354:210|290:211,2,112.5,6|0|0,3:2|0:0|3:0,0:0:0:0:
298,93,35069,2,0,P|329:147|344:216,1,112.5,10|4,0:2|3:2,0:0:0:0:
395,249,35363,1,0,3:2:0:0:
395,249,35461,2,0,P|459:238|446:179,1,112.5,2|0,3:2|0:0,0:0:0:0:
301,218,35853,2,0,P|228:197|124:182,1,168.75,10|0,0:0|0:0,0:0:0:0:
80,227,36245,6,0,P|53:269|15:282,1,67.5000025749208,6|0,3:2|0:0,0:0:0:0:
153,359,36441,6,0,P|158:325|146:294,1,67.5000025749208,6|0,3:2|0:0,0:0:0:0:
240,293,36637,6,0,P|270:308|290:335,3,67.5000025749208,6|0|0|0,3:2|0:0|0:0|0:0,0:0:0:0:
360,260,37030,6,0,P|283:281|290:322,1,112.5,10|6,0:2|3:2,0:0:0:0:
363,181,37422,1,2,0:2:0:0:
418,332,37618,1,2,0:2:0:0:
418,332,37814,6,0,B|432:220|513:255|490:146,1,168.75,6|0,3:2|0:0,0:0:0:0:
471,120,38206,1,2,0:0:0:0:
334,195,38402,2,0,P|412:215|476:244,1,112.5,6|8,3:2|0:0,0:0:0:0:
349,125,38794,1,2,0:0:0:0:
293,200,38990,1,2,3:2:0:0:
335,268,39186,1,2,0:0:0:0:
320,291,39383,6,0,P|217:274|118:267,1,175.499991966248,6|0,3:2|0:0,0:0:0:0:
85,301,39775,2,0,P|187:347|208:365,1,116.999994644165,8|2,0:0|0:2,0:0:0:0:
86,231,40167,1,2,3:2:0:0:
245,183,40363,2,0,P|256:104|273:45,1,116.999994644165,2|8,0:0|0:0,0:0:0:0:
323,240,40755,6,0,P|246:214|80:187,1,233.999989288331,2|0,0:0|0:0,0:0:0:0:
226,288,41343,2,0,P|299:266|358:258,1,116.999994644165,10|0,0:0|0:0,0:0:0:0:
467,190,41736,2,0,P|409:179|353:161,1,116.999994644165,2|0,3:2|0:0,0:0:0:0:
469,347,42128,1,10,0:0:0:0:
512,261,42324,1,2,0:0:0:0:
347,362,42520,6,0,P|339:271|316:102,1,233.999989288331,2|10,3:2|0:2,0:0:0:0:
300,58,43010,1,2,0:2:0:0:
300,58,43108,2,0,P|354:40|387:58,1,58.4999973220826,2|2,0:0|0:0,0:0:0:0:
277,143,43304,1,2,3:2:0:0:
277,143,43402,1,2,0:0:0:0:
277,143,43500,6,0,L|185:132,1,67.5000025749208,14|0,3:2|0:0,0:0:0:0:
337,212,43696,6,0,L|428:222,1,67.5000025749208,14|0,3:2|0:0,0:0:0:0:
208,283,43892,6,0,L|116:272,1,67.5000025749208,14|0,3:2|0:0,0:0:0:0:
268,328,44088,5,2,0:0:0:0:
268,328,44481,6,0,P|313:312|359:304,2,90,2|2|2,0:0|0:0|0:0,0:0:0:0:
245,350,45657,6,0,P|175:321|190:253,1,125.999996154785,6|0,3:2|0:0,0:0:0:0:
325,236,46049,1,8,0:0:0:0:
148,178,46245,2,0,P|236:156|308:127,1,125.999996154785,4|0,3:2|0:0,0:0:0:0:
196,246,46637,2,0,P|136:225|74:211,1,125.999996154785,0|8,3:0|0:0,0:0:0:0:
246,70,47030,6,0,B|372:93|264:206|377:228,1,188.999994232178,4|0,3:2|0:0,0:0:0:0:
406,245,47422,2,0,P|344:259|261:293,1,125.999996154785,0|8,3:0|0:0,0:0:0:0:
487,362,47814,2,0,P|428:339|366:326,1,125.999996154785,4|8,3:2|0:0,0:0:0:0:
512,260,48206,1,0,3:0:0:0:
359,369,48402,1,12,0:0:0:0:
297,153,48598,1,2,3:2:0:0:
297,153,48696,1,2,3:2:0:0:
297,153,48794,6,0,P|309:83|311:9,1,125.999996154785,6|0,3:2|3:0,0:0:0:0:
374,202,49186,1,8,0:0:0:0:
154,258,49383,2,0,P|98:210|24:183,1,125.999996154785,6|0,3:2|0:0,0:0:0:0:
191,50,49775,2,0,P|185:139|171:190,1,125.999996154785,6|8,3:2|0:0,0:0:0:0:
0,5,50167,6,0,P|154:25|486:282,1,566.999982696534,6|0,3:2|0:0,0:0:0:0:
442,326,51147,6,0,P|433:363|421:382,3,45,0|0|0|0,3:2|3:2|3:2|3:2,0:0:0:0:
342,278,51539,6,0,P|361:310|369:340,3,56.25,2|0|0|0,3:2|3:2|3:2|3:2,0:0:0:0:
408,201,51932,6,0,P|467:178|512:174,1,67.5000025749208,6|0,3:2|0:0,0:0:0:0:
318,121,52128,1,2,0:0:0:0:
236,187,52226,2,0,B|216:159|216:159|226:115,1,67.5000025749208,2|10,0:0|0:3,0:0:0:0:
398,52,52422,2,0,B|416:78|416:78|406:122,1,67.5000025749208,2|0,0:2|0:0,0:0:0:0:
209,47,52618,6,0,P|124:93|45:107,1,135.000005149842,2|8,0:0|0:0,0:0:0:0:
0,56,52912,1,2,0:0:0:0:
0,56,53108,6,0,P|50:77|68:127,1,67.5000025749208,10|0,0:3|0:0,0:0:0:0:
138,211,53304,2,0,P|88:190|70:140,1,67.5000025749208,2|0,0:0|0:0,0:0:0:0:
255,100,53500,6,0,P|237:154|232:203,1,67.5000025749208,0|0,3:0|0:0,0:0:0:0:
207,35,53696,1,2,0:0:0:0:
289,88,53794,2,0,B|350:76|350:76|370:52,1,67.5000025749208,2|10,0:0|0:3,0:0:0:0:
174,203,53990,2,0,B|112:191|112:191|106:185,1,67.5000025749208,2|0,0:0|0:0,0:0:0:0:
305,293,54186,6,0,P|318:197|337:136,1,135.000005149842,2|8,0:0|0:0,0:0:0:0:
297,61,54481,1,2,0:0:0:0:
297,61,54677,6,0,P|349:82|355:116,1,67.5000025749208,10|0,0:3|0:0,0:0:0:0:
232,208,54873,2,0,P|180:187|174:153,1,67.5000025749208,2|0,0:0|0:0,0:0:0:0:
383,265,55069,6,0,P|432:247|485:239,1,67.5000025749208,6|0,3:2|0:0,0:0:0:0:
334,196,55265,1,2,0:0:0:0:
417,147,55363,2,0,B|454:152|454:152|460:156|460:156|512:164,1,67.5000025749208,2|10,0:0|0:3,0:0:0:0:
246,245,55559,2,0,B|207:238|207:238|201:234|201:234|149:226,1,67.5000025749208,2|0,0:0|0:0,0:0:0:0:
325,374,55755,6,0,P|320:274|303:188,1,135.000005149842,2|0,0:0|0:0,0:0:0:0:
343,154,56049,2,0,P|351:117|372:73,1,67.5000025749208,2|0,0:0|0:0,0:0:0:0:
239,0,56245,2,0,P|251:31|258:64,1,67.5000025749208,10|0,0:3|0:0,0:0:0:0:
164,215,56441,2,0,P|172:178|193:134,1,67.5000025749208,2|0,0:0|0:0,0:0:0:0:
52,15,56637,6,0,P|105:38|117:66,1,67.5000025749208,2|0,3:2|0:0,0:0:0:0:
0,159,56834,1,2,0:0:0:0:
83,201,56932,2,0,B|124:191|124:191|159:161,1,67.5000025749208,2|10,0:0|0:3,0:0:0:0:
9,25,57128,2,0,B|50:34|50:34|84:64,1,67.5000025749208,2|0,0:0|0:0,0:0:0:0:
205,224,57324,6,0,B|288:218|191:128|334:125,1,135.000005149842,2|8,0:0|0:0,0:0:0:0:
378,168,57618,1,2,0:0:0:0:
378,168,57814,6,0,P|353:126|368:88,1,67.5000025749208,10|0,0:3|0:0,0:0:0:0:
468,187,58010,2,0,P|466:220|445:245,1,67.5000025749208,2|2,0:2|0:0,0:0:0:0:
444,0,58206,6,0,B|415:113|350:48|326:187,1,202.500007724762,6|0,3:2|0:0,0:0:0:0:
488,297,58598,2,0,B|459:184|394:249|370:110,1,202.500007724762,10|0,0:3|0:0,0:0:0:0:
442,30,58990,2,0,P|511:44|506:115,1,135.000005149842,2|2,3:2|0:0,0:0:0:0:
266,65,59285,1,2,0:0:0:0:
266,65,59383,2,0,P|257:16|233:-28,1,67.5000025749208,10|0,0:3|0:0,0:0:0:0:
426,75,59579,2,0,P|460:39|505:16,1,67.5000025749208,2|2,0:0|0:0,0:0:0:0:
312,193,59775,6,0,P|341:97|339:23,1,135.000005149842,6|2,3:2|0:0,0:0:0:0:
157,160,60069,1,2,0:0:0:0:
157,160,60167,2,0,P|168:191|185:220,1,67.5000025749208,10|0,0:3|0:0,0:0:0:0:
147,60,60363,2,0,P|135:28|118:0,1,67.5000025749208,2|0,0:0|0:0,0:0:0:0:
306,150,60559,1,2,3:2:0:0:
306,150,60657,2,0,P|396:186|481:206,1,135.000005149842,10|2,0:0|3:2,0:0:0:0:
506,253,60951,2,0,P|441:272|379:299,1,135.000005149842,10|2,0:3|0:0,0:0:0:0:
298,353,61245,1,2,0:0:0:0:
384,381,61343,6,0,B|396:280|276:314|298:182,1,202.500007724762,6|0,3:2|0:0,0:0:0:0:
339,122,61735,2,0,P|389:134|401:172,1,67.5000025749208,10|0,0:3|0:0,0:0:0:0:
272,240,61932,1,6,0:0:0:0:
272,240,62128,6,0,P|293:145|292:63,2,135.000005149842,0|2|10,3:0|0:0|0:3,0:0:0:0:
247,54,62716,1,2,0:0:0:0:
247,54,62814,1,2,0:0:0:0:
307,95,62912,6,0,P|367:81|426:43,1,90,6|0,3:2|0:0,0:0:0:0:
247,214,63304,6,0,P|305:233|386:290,1,112.5,10|2,0:3|0:0,0:0:0:0:
111,88,63598,1,10,0:0:0:0:
119,75,63696,6,0,P|175:50|266:-19,1,135.000005149842,10|2,0:0|3:2,0:0:0:0:
56,248,64088,6,0,P|110:277|199:375,1,157.500001502037,10|10,0:3|0:0,0:0:0:0:
0,43,64481,5,2,0:2:0:0:
0,43,65461,5,2,3:2:0:0:
53,108,65657,2,0,P|26:40|17:-1,1,112.5,10|2,0:2|3:2,0:0:0:0:
177,66,66049,6,0,B|103:58|103:58|91:52|91:52|0:43,1,180,6|2,3:2|0:0,0:0:0:0:
509,330,67030,6,0,L|516:273,2,30,0|0|0,3:2|3:2|3:2,0:0:0:0:
481,355,67226,5,2,3:2:0:0:
336,290,67422,1,2,3:2:0:0:
395,352,67618,6,0,P|418:300|409:239,1,67.5000025749208,6|0,3:2|0:0,0:0:0:0:
272,380,67814,1,2,0:0:0:0:
199,320,67912,2,0,B|190:285|190:285|217:238,1,67.5000025749208,2|10,0:0|0:3,0:0:0:0:
352,191,68108,2,0,B|367:163|367:163|358:128,1,67.5000025749208,2|0,0:0|0:0,0:0:0:0:
228,72,68304,6,0,P|271:164|297:242,1,135.000005149842,2|0,0:0|0:0,0:0:0:0:
375,255,68598,2,0,P|418:222|418:200,1,67.5000025749208,2|0,0:0|0:0,0:0:0:0:
252,185,68794,2,0,P|209:218|209:240,1,67.5000025749208,10|0,0:3|0:0,0:0:0:0:
298,364,68990,2,0,P|319:308|324:274,1,67.5000025749208,2|0,0:2|0:0,0:0:0:0:
163,335,69186,6,0,P|101:314|53:308,1,67.5000025749208,2|0,3:2|0:0,0:0:0:0:
274,254,69383,1,2,0:2:0:0:
364,321,69481,2,0,L|439:305,1,67.5000025749208,2|10,0:0|0:3,0:0:0:0:
227,384,69677,2,0,L|211:309,1,67.5000025749208,2|0,0:0|0:0,0:0:0:0:
364,99,69873,6,0,P|349:198|327:272,1,135.000005149842,2|8,0:0|0:0,0:0:0:0:
387,311,70167,1,2,0:0:0:0:
387,311,70363,6,0,P|424:263|460:262,1,67.5000025749208,10|0,0:3|0:0,0:0:0:0:
281,184,70559,2,0,P|273:123|297:97,1,67.5000025749208,2|0,0:2|0:0,0:0:0:0:
140,279,70755,6,0,P|56:272|-21:256,1,135.000005149842,6|2,3:2|0:2,0:0:0:0:
198,132,71049,1,2,0:2:0:0:
198,132,71147,2,0,P|218:177|224:230,1,67.5000025749208,10|0,0:3|0:0,0:0:0:0:
135,346,71343,6,0,P|145:244|161:162,1,135.000005149842,2|2,0:0|3:2,0:0:0:0:
292,301,71637,1,10,0:0:0:0:
292,301,71735,2,0,P|191:319|110:342,1,135.000005149842,10|10,0:0|0:3,0:0:0:0:
385,64,72128,6,0,P|375:166|359:248,1,135.000005149842,2|6,0:0|3:2,0:0:0:0:
493,302,72422,1,2,0:0:0:0:
493,302,72520,2,0,P|482:235|477:167,1,135.000005149842,2|10,0:0|0:3,0:0:0:0:
359,205,72814,1,2,0:0:0:0:
359,205,72912,6,0,P|329:198|273:172,2,67.5000025749208,2|2|2,0:0|0:0|3:2,0:0:0:0:
478,258,73206,1,10,0:0:0:0:
478,258,73500,6,0,B|347:278|412:400|277:384,1,202.500007724762,10|0,0:3|0:0,0:0:0:0:
146,341,73892,6,0,P|109:252|143:186,1,135.000005149842,6|2,3:2|0:2,0:0:0:0:
196,121,74186,1,2,0:2:0:0:
196,121,74285,1,10,0:3:0:0:
245,140,74383,1,2,0:2:0:0:
297,128,74481,1,2,0:2:0:0:
333,89,74579,1,2,0:2:0:0:
342,36,74677,6,0,P|257:18|194:-3,1,135.000005149842,2|2,3:2|0:2,0:0:0:0:
90,29,74971,1,2,0:2:0:0:
90,29,75069,2,0,P|58:58|47:110,1,67.5000025749208,10|2,0:3|0:2,0:0:0:0:
176,189,75265,2,0,P|153:164|142:132,1,67.5000025749208,2|2,0:2|0:2,0:0:0:0:
332,68,75461,5,2,3:2:0:0:
332,68,75853,6,0,L|321:140,1,45,2|0,0:0|0:0,0:0:0:0:
289,183,76245,6,0,L|275:94,1,67.5000025749208,2|0,0:0|0:0,0:0:0:0:
247,77,76637,6,0,L|234:158,1,67.5,2|0,0:0|0:0,0:0:0:0:
412,84,77030,6,0,P|465:95|515:114,1,67.5000025749208,6|0,3:2|0:0,0:0:0:0:
405,69,77814,6,0,P|416:16|435:-34,1,67.5000025749208,10|0,0:0|0:0,0:0:0:0:
335,91,78108,2,0,P|282:80|232:61,1,67.5000025749208,2|0,0:0|0:0,0:0:0:0:
337,103,78402,6,0,P|326:156|307:206,1,67.5000025749208,2|0,3:2|0:0,0:0:0:0:
229,217,78598,2,0,P|234:183|243:151,1,67.5000025749208,2|0,3:2|0:0,0:0:0:0:
399,368,79383,5,2,3:2:0:0:
468,338,79481,2,0,P|477:305|482:272,1,67.5000025749208,2|0,3:2|0:0,0:0:0:0:
363,245,79677,2,0,P|354:277|349:311,1,67.5000025749208,10|0,0:0|0:0,0:0:0:0:
433,216,79873,6,0,P|442:183|455:78,1,135.000005149842,2|0,3:2|3:0,0:0:0:0:
443,14,80167,6,0,B|310:37|416:112|288:145,1,202.500007724762,2|0,3:2|0:0,0:0:0:0:
233,114,80559,1,8,0:0:0:0:
351,62,80755,1,2,3:2:0:0:
309,247,80951,6,0,P|250:220|197:215,1,67.5000025749208,2|0,3:2|0:0,0:0:0:0:
170,301,81147,1,8,0:0:0:0:
161,316,81245,2,0,P|100:338|59:372,1,67.5000025749208,2|0,3:2|0:0,0:0:0:0:
8,276,81441,1,8,0:0:0:0:
17,261,81539,2,0,P|78:239|119:205,1,67.5000025749208,2|0,3:2|0:0,0:0:0:0:
162,180,81735,6,0,B|177:65|38:98|67:-7,2,202.500007724762,2|2|2,3:2|0:0|3:2,0:0:0:0:
172,193,82618,5,8,0:0:0:0:
249,176,82716,2,0,P|295:189|341:229,1,67.5000025749208,0|0,3:0|0:0,0:0:0:0:
437,308,82912,2,0,P|310:334|212:370,1,202.500007724762,8|0,0:0|0:0,0:0:0:0:
203,379,83304,6,0,P|115:350|31:337,1,135.000005149842,6|0,3:2|0:0,0:0:0:0:
8,366,83598,2,0,P|66:300|99:236,1,135.000005149842,10|0,0:0|0:0,0:0:0:0:
152,289,83892,1,10,0:0:0:0:
47,361,84088,1,0,3:0:0:0:
6,179,84285,1,2,0:2:0:0:
6,179,84383,1,10,0:2:0:0:
6,179,84481,1,2,3:2:0:0:
36,191,84579,1,2,0:2:0:0:
67,179,84677,1,10,0:2:0:0:
83,150,84775,1,2,0:2:0:0:
75,118,84873,6,0,P|55:61|39:-14,1,135.000005149842,6|0,3:2|0:0,0:0:0:0:
139,63,85167,2,0,P|81:42|6:26,1,135.000005149842,10|0,0:2|0:0,0:0:0:0:
149,132,85461,1,10,0:0:0:0:
96,34,85657,1,0,3:0:0:0:
250,136,85853,6,0,P|229:197|225:246,1,67.5000025749208,2|8,0:0|0:0,0:0:0:0:
340,316,86049,2,0,P|323:287|311:256,1,67.5000025749208,2|0,3:2|0:0,0:0:0:0:
415,324,86245,2,0,P|476:345|525:349,1,67.5000025749208,10|0,0:0|0:0,0:0:0:0:
396,178,86441,5,6,3:2:0:0:
376,344,86637,1,2,3:2:0:0:
322,334,86735,1,10,0:0:0:0:
268,324,86834,1,2,3:2:0:0:
288,158,87030,1,10,3:2:0:0:
98,210,87226,5,6,3:2:0:0:
78,44,87422,1,2,3:2:0:0:
132,34,87521,1,10,0:0:0:0:
186,24,87619,1,2,3:2:0:0:
206,190,87815,1,10,0:0:0:0:
465,226,88010,5,2,3:2:0:0:
465,226,89579,5,4,3:2:0:0:
465,226,90167,5,2,3:2:0:0:
500,168,90363,2,0,B|404:204|484:226|386:257,1,135.000005149842,10|2,0:2|0:0,0:0:0:0:
334,313,90951,6,0,P|266:293|145:274,1,168.750006437302,2|0,3:2|0:0,0:0:0:0:
105,315,91539,2,0,P|94:262|81:229,1,67.5000025749208,2|0,0:0|0:0,0:0:0:0:
173,144,91932,2,0,P|162:176|147:206,1,67.5000025749208,10|0,0:0|0:0,0:0:0:0:
31,131,92324,2,0,P|64:136|96:146,1,67.5000025749208,2|0,0:0|0:0,0:0:0:0:
224,91,92716,6,0,P|309:72|352:68,1,101.250003862381,2|0,3:2|0:0,0:0:0:0:
367,86,93108,2,0,B|359:165|303:124|289:212,2,135.000005149842,2|10|2,0:0|0:2|0:0,0:0:0:0:
301,20,94088,1,0,3:0:0:0:
444,94,94285,6,0,P|487:81|514:67,1,67.5000025749208,2|0,3:2|0:0,0:0:0:0:
512,60,94579,1,0,3:0:0:0:
412,191,94873,1,0,3:0:0:0:
412,191,95069,2,0,P|419:148|429:115,2,67.5000025749208,10|2|2,0:2|0:0|0:0,0:0:0:0:
417,207,95853,6,0,P|357:204|333:135,1,135.000005149842,2|2,3:2|0:0,0:0:0:0:
434,211,96441,2,0,P|412:307|393:359,1,135.000005149842,2|0,3:2|0:0,0:0:0:0:
511,287,97030,1,2,0:0:0:0:
511,287,97226,6,0,B|422:304|493:359|399:377,1,135.000005149842,2|0,3:2|0:0,0:0:0:0:
298,333,97814,2,0,P|272:285|294:189,1,135.000005149842,2|8,0:0|0:0,0:0:0:0:
350,180,98402,1,2,0:0:0:0:
193,138,98598,2,0,P|144:160|73:177,1,101.250003862381,2|0,0:0|0:0,0:0:0:0:
56,156,98990,6,0,P|66:114|63:64,1,67.5000025749208,2|0,3:2|0:0,0:0:0:0:
183,157,99383,2,0,P|205:182|222:211,1,67.5000025749208,2|0,0:0|3:0,0:0:0:0:
122,290,99775,2,0,P|138:260|149:228,1,67.5000025749208,10|0,0:0|0:0,0:0:0:0:
255,347,100167,2,0,P|315:372|377:388,1,101.250003862381,2|0,0:0|0:0,0:0:0:0:
389,366,100559,6,0,B|348:261|455:282|396:151,1,202.500007724762,2|2,3:2|0:0,0:0:0:0:
393,147,101245,1,2,0:0:0:0:
403,114,101343,6,0,P|458:123|488:145,1,67.5000025749208,2|2,0:0|0:0,0:0:0:0:
451,195,101735,2,0,P|417:193|386:180,1,67.5000025749208,2|2,0:0|0:0,0:0:0:0:
487,128,102128,6,0,B|540:210|428:216|485:316,1,180,2|2,3:2|0:2,0:0:0:0:
512,207,102716,1,2,3:2:0:0:
382,294,102912,2,0,P|312:303|239:322,1,135,10|2,0:2|0:2,0:0:0:0:
208,304,103304,1,2,0:2:0:0:
313,224,103500,1,2,3:2:0:0:
313,224,103696,6,0,P|324:166|323:110,1,90,0|0,3:0|0:0,0:0:0:0:
198,23,104088,2,0,P|227:83|245:148,1,135,2|0,0:0|0:0,0:0:0:0:
256,159,104481,1,10,0:0:0:0:
291,86,104872,1,2,0:0:0:0:
276,68,105265,6,0,B|163:98|258:184|134:199,1,180,2|0,3:2|0:0,0:0:0:0:
75,158,105853,1,0,3:0:0:0:
146,274,106049,2,0,P|216:288|336:329,1,180,10|0,0:0|0:0,0:0:0:0:
437,273,106637,1,0,3:0:0:0:
437,273,106834,6,0,P|447:219|460:170,1,90,2|0,3:2|0:0,0:0:0:0:
512,369,107226,1,2,0:2:0:0:
498,340,107324,1,2,0:2:0:0:
476,318,107422,1,2,0:2:0:0:
448,304,107520,1,2,0:2:0:0:
417,299,107618,2,0,P|429:322|430:360,2,45,8|2|2,0:2|0:0|0:2,0:0:0:0:
226,321,108010,2,0,P|302:328|387:356,1,135,2|0,0:2|0:0,0:0:0:0:
304,295,108402,6,0,P|280:229|265:105,1,180,2|2,3:2|0:2,0:0:0:0:
410,72,108990,2,0,P|380:15|329:37,2,90,2|8|0,3:2|0:0|0:0,0:0:0:0:
287,33,109579,1,2,0:0:0:0:
400,146,109775,1,0,3:0:0:0:
400,146,109971,6,0,B|448:238|325:210|391:332,1,180,2|0,3:2|0:0,0:0:0:0:
422,225,110559,1,2,0:2:0:0:
285,323,110755,2,0,P|191:347|91:366,1,180,10|0,0:2|0:0,0:0:0:0:
210,382,111343,1,2,0:0:0:0:
138,266,111539,6,0,P|144:201|162:117,1,135,2|0,3:2|0:0,0:0:0:0:
172,103,111932,1,0,3:0:0:0:
64,161,112128,1,2,0:2:0:0:
64,161,112226,1,2,0:2:0:0:
64,161,112324,2,0,P|37:123|42:65,1,90,10|0,0:2|0:0,0:0:0:0:
117,12,112618,2,0,P|144:50|139:108,1,90,2|0,0:0|0:0,0:0:0:0:
91,206,112912,1,2,0:2:0:0:
91,206,113010,1,2,0:2:0:0:
91,206,113108,6,0,P|33:233|-26:239,1,90,2|0,3:2|0:0,0:0:0:0:
126,295,113402,2,0,P|140:350|147:409,1,90,2|2,0:0|0:2,0:0:0:0:
215,319,113696,1,2,0:2:0:0:
28,264,113892,6,0,P|12:211|10:180,1,78.75,6|0,3:2|0:0,0:0:0:0:
62,112,114677,6,0,P|80:79|75:15,1,67.5000025749208,6|0,3:2|0:0,0:0:0:0:
230,82,114873,6,0,P|203:102|170:110,1,67.5000025749208,6|0,3:2|0:0,0:0:0:0:
247,185,115069,6,0,P|276:202|310:207,3,67.5000025749208,6|0|0|0,3:2|0:0|0:0|0:0,0:0:0:0:
206,117,115461,6,0,P|232:184|239:241,1,112.5,10|0,0:2|3:0,0:0:0:0:
297,106,115853,1,2,0:2:0:0:
146,222,116049,6,0,B|24:208|100:77|-26:75,1,225,6|0,3:2|3:0,0:0:0:0:
173,10,116637,2,0,P|149:77|134:152,1,112.5,10|4,0:2|3:2,0:0:0:0:
84,166,116932,1,0,3:2:0:0:
84,166,117030,2,0,P|14:150|30:97,1,112.5,2|2,3:2|0:2,0:0:0:0:
226,80,117422,1,10,0:0:0:0:
88,12,117618,1,2,0:2:0:0:
200,210,117814,6,0,P|186:245|137:277,1,67.5000025749208,6|0,3:2|0:0,0:0:0:0:
305,345,118010,6,0,P|304:311|290:281,1,67.5000025749208,6|0,3:2|0:0,0:0:0:0:
403,266,118206,6,0,P|435:278|459:302,3,67.5000025749208,6|0|0|0,3:2|0:0|0:0|0:0,0:0:0:0:
485,176,118598,6,0,P|420:185|409:248,1,112.5,10|6,0:2|3:2,0:0:0:0:
355,105,118990,1,2,0:2:0:0:
317,273,119186,6,0,P|302:207|296:143,1,112.5,2|4,0:2|3:2,0:0:0:0:
413,311,119579,1,2,0:0:0:0:
235,381,119775,2,0,P|160:345|90:332,2,112.5,2|6|8,0:0|3:2|0:0,0:0:0:0:
334,273,120363,1,2,0:0:0:0:
154,185,120559,2,0,P|99:214|28:242,1,112.5,2|2,3:2|0:0,0:0:0:0:
12,299,120853,1,2,0:0:0:0:
12,299,120951,6,0,P|28:199|32:93,1,175.499991966248,4|0,3:2|0:0,0:0:0:0:
98,98,121343,2,0,P|120:41|132:-18,1,116.999994644165,8|2,0:0|0:2,0:0:0:0:
198,166,121735,1,2,3:2:0:0:
103,242,121932,2,0,P|42:206|-42:179,1,116.999994644165,2|8,0:0|0:0,0:0:0:0:
177,379,122324,6,0,P|233:291|314:307,1,175.499991966248,2|0,0:0|0:0,0:0:0:0:
359,266,122716,2,0,P|379:200|378:130,1,116.999994644165,2|10,0:0|0:0,0:0:0:0:
263,50,123108,1,2,0:0:0:0:
263,50,123206,1,2,0:0:0:0:
263,50,123304,5,2,3:2:0:0:
362,74,123500,1,2,0:0:0:0:
249,213,123696,5,10,0:0:0:0:
336,32,123892,1,2,0:0:0:0:
290,312,124088,6,0,L|263:127,1,175.499991966248,2|0,3:2|0:0,0:0:0:0:
291,71,124481,1,10,0:2:0:0:
178,233,124677,2,0,P|154:252|82:274,1,58.4999973220826,2|2,0:2|0:0,0:0:0:0:
19,98,124873,1,2,3:2:0:0:
19,98,124971,1,2,0:0:0:0:
19,98,125069,6,0,L|32:15,1,67.5000025749208,14|2,3:2|0:0,0:0:0:0:
80,200,125265,6,0,L|67:283,1,67.5000025749208,14|2,3:2|0:0,0:0:0:0:
188,82,125461,6,0,L|201:-1,1,67.5000025749208,14|2,3:2|0:0,0:0:0:0:
231,142,125657,5,2,0:0:0:0:
231,142,126049,5,2,0:0:0:0:
189,198,126245,2,0,P|113:168|125:62,1,180,2|2,0:0|0:0,0:0:0:0:
261,4,126834,6,0,L|279:89,1,67.5000025749208,6|0,3:2|0:0,0:0:0:0:
194,178,127030,6,0,L|212:93,1,67.5000025749208,6|0,3:2|0:0,0:0:0:0:
280,297,127226,5,6,3:2:0:0:
280,297,127814,6,0,P|336:275|403:269,1,112.5,2|0,0:0|0:0,0:0:0:0:
430,210,128402,2,0,P|408:189|398:170,1,45,2|0,0:0|0:0,0:0:0:0:
306,141,128794,6,0,P|324:92|354:48,1,90,2|0,3:2|0:0,0:0:0:0:
412,14,129383,2,0,P|345:38|300:45,1,112.5,2|0,0:0|0:0,0:0:0:0:
246,86,129971,2,0,P|219:72|189:66,1,45,2|0,0:0|3:0,0:0:0:0:
121,8,130363,6,0,P|113:49|92:114,1,90,2|0,3:2|0:0,0:0:0:0:
118,190,130951,2,0,P|177:202|238:225,1,112.5,2|0,0:0|0:0,0:0:0:0:
286,180,131539,2,0,P|296:148|306:130,1,45,2|0,0:0|0:0,0:0:0:0:
274,47,131932,5,0,3:0:0:0:
274,47,132128,2,0,P|317:64|376:77,1,90,2|0,0:0|0:0,0:0:0:0:
432,50,132716,1,8,0:0:0:0:
432,50,133108,1,0,0:0:0:0:
452,140,133304,1,0,3:2:0:0:
432,50,133500,6,0,P|367:53|317:109,1,135.000005149842,2|0,3:2|0:0,0:0:0:0:
262,176,134088,2,0,P|247:143|225:109,2,67.5000025749208,2|8|0,0:0|0:0|0:0,0:0:0:0:
342,244,134677,2,0,P|360:209|367:170,1,67.5000025749208,2|0,0:0|0:0,0:0:0:0:
279,309,135069,6,0,P|220:322|136:354,1,135.000005149842,2|0,3:2|0:0,0:0:0:0:
69,290,135657,2,0,P|51:250|47:204,2,67.5000025749208,2|8|0,0:0|0:0|0:0,0:0:0:0:
147,224,136245,2,0,P|160:178|161:141,1,67.5000025749208,2|0,0:0|0:0,0:0:0:0:
51,43,136637,6,0,P|73:125|97:184,1,135.000005149842,2|0,3:2|0:0,0:0:0:0:
39,259,137226,2,0,P|24:317|5:350,2,67.5000025749208,2|8|0,0:0|0:0|0:0,0:0:0:0:
106,334,137814,2,0,P|153:355|196:365,1,67.5000025749208,2|0,0:0|0:0,0:0:0:0:
300,328,138206,5,0,3:0:0:0:
241,259,138402,2,0,P|254:206|269:174,1,67.5000025749208,2|0,0:0|0:0,0:0:0:0:
393,180,138794,1,2,0:2:0:0:
393,180,138892,1,2,0:2:0:0:
393,180,138990,2,0,P|403:148|410:114,1,67.5000025749208,8|0,0:2|0:0,0:0:0:0:
303,0,139383,2,0,P|292:32|286:65,1,67.5000025749208,2|0,0:0|3:0,0:0:0:0:
500,0,139775,6,0,B|377:41|495:112|359:142,1,180,4|8,3:2|0:2,0:0:0:0:
278,89,140363,2,0,P|267:32|254:-11,1,90,2|0,0:0|3:2,0:0:0:0:
381,147,140755,1,0,0:0:0:0:
276,226,140951,2,0,P|216:205|148:195,1,90,10|0,0:2|0:0,0:0:0:0:
124,228,141245,1,0,0:0:0:0:
124,228,141343,6,0,P|110:163|96:117,2,90,2|0|8,3:2|0:0|0:2,0:0:0:0:
211,94,141932,2,0,P|150:81|88:60,1,90,2|0,0:2|3:0,0:0:0:0:
54,91,142226,1,8,0:3:0:0:
193,9,142422,1,0,3:3:0:0:
193,9,142520,2,0,B|277:27|207:95|275:124,1,135,10|0,0:2|0:0,0:0:0:0:
309,167,142912,6,0,P|368:134|345:86,1,90,2|0,3:2|0:0,0:0:0:0:
334,58,143206,1,0,0:0:0:0:
334,58,143304,1,8,0:0:0:0:
237,185,143500,2,0,P|259:249|268:311,1,90,2|0,0:0|3:0,0:0:0:0:
322,319,143794,1,0,0:0:0:0:
322,319,143892,1,0,0:0:0:0:
424,184,144088,2,0,P|359:161|311:135,1,90,10|0,0:0|0:0,0:0:0:0:
285,106,144383,1,0,0:0:0:0:
285,106,144481,5,0,3:0:0:0:
186,282,144677,1,2,0:0:0:0:
186,282,144775,1,0,0:0:0:0:
186,282,144873,2,0,P|143:296|99:306,1,90,8|0,0:0|0:0,0:0:0:0:
249,378,145265,1,0,3:0:0:0:
249,378,145363,2,0,P|229:318|227:258,1,90,8|0,0:0|3:0,0:0:0:0:
175,241,145657,2,0,P|192:190|192:159,1,45,8|0,0:0|0:0,0:0:0:0:
286,164,145853,1,2,0:2:0:0:
286,164,145951,1,2,0:2:0:0:
286,164,146049,6,0,B|410:183|331:262|427:293,1,180,0|8,3:2|0:0,0:0:0:0:
245,379,146637,2,0,P|193:366|119:360,1,90,2|0,0:0|3:0,0:0:0:0:
99,243,147030,1,0,0:0:0:0:
99,243,147128,1,0,0:0:0:0:
99,243,147226,2,0,P|84:298|53:353,1,90,10|0,0:0|0:0,0:0:0:0:
17,268,147520,1,0,0:0:0:0:
17,268,147618,6,0,P|77:214|101:176,2,90,2|0|8,3:2|0:0|0:0,0:0:0:0:
190,190,148206,2,0,P|170:128|164:74,1,90,2|0,0:0|3:0,0:0:0:0:
187,38,148500,1,8,0:0:0:0:
0,5,148696,1,0,3:0:0:0:
0,5,148794,2,0,B|86:14|29:104|106:103,1,135,10|0,0:0|0:0,0:0:0:0:
143,135,149186,6,0,P|94:149|30:189,1,90,2|0,3:2|0:0,0:0:0:0:
8,220,149481,1,0,0:0:0:0:
8,220,149579,1,8,0:0:0:0:
150,348,149775,2,0,P|138:281|121:231,1,90,2|0,0:0|3:0,0:0:0:0:
101,196,150069,1,0,0:0:0:0:
101,196,150167,1,0,0:0:0:0:
317,117,150363,2,0,P|290:176|277:240,1,90,8|2,0:0|0:2,0:0:0:0:
228,142,150657,1,2,0:2:0:0:
228,142,150755,6,0,P|266:131|289:130,1,45,2|0,3:2|0:0,0:0:0:0:
151,59,151147,1,2,0:0:0:0:
274,25,151343,1,2,0:0:0:0:
151,59,151539,6,0,P|189:70|212:71,1,45,2|0,0:0|0:0,0:0:0:0:
49,1,151932,1,2,0:0:0:0:
132,166,152128,1,2,0:0:0:0:
352,64,152324,6,0,P|338:22|332:-29,1,67.5000025749208,6|0,3:2|0:0,0:0:0:0:
366,165,152618,2,0,P|380:123|386:72,1,67.5000025749208,6|0,3:2|0:0,0:0:0:0:
318,251,152912,1,14,0:0:0:0:
296,125,153304,1,0,3:0:0:0:
318,251,153500,6,0,P|377:281|431:288,1,67.5000025749208,6|0,3:2|0:0,0:0:0:0:
222,254,153794,2,0,P|281:224|335:217,1,67.5000025749208,6|0,3:2|0:0,0:0:0:0:
124,273,154088,1,14,0:2:0:0:
124,273,154677,5,6,3:2:0:0:
130,241,154775,1,2,3:2:0:0:
11,196,154971,2,0,L|-4:108,1,67.5000025749208,14|0,0:0|0:0,0:0:0:0:
75,70,155167,2,0,L|92:-24,2,67.5000025749208,6|0|0,3:2|0:0|3:2,0:0:0:0:
131,119,155461,6,0,P|193:97|223:76,1,67.5000025749208,6|0,3:2|0:0,0:0:0:0:
268,210,155755,2,0,P|328:236|356:260,1,67.5000025749208,6|0,3:2|0:0,0:0:0:0:
433,104,156049,1,14,0:2:0:0:
387,319,156441,1,6,3:2:0:0:
433,104,156637,6,0,P|415:61|405:13,1,67.5000025749208,6|0,3:2|0:0,0:0:0:0:
293,142,156932,2,0,P|275:170|254:196,1,67.5000025749208,6|0,3:2|0:0,0:0:0:0:
81,120,157226,1,14,0:2:0:0:
81,120,157814,5,6,3:2:0:0:
87,136,157912,1,2,3:2:0:0:
217,44,158206,2,0,L|185:134,1,67.5000025749208,14|0,0:0|0:0,0:0:0:0:
116,10,158402,1,14,0:2:0:0:
116,10,158500,1,10,0:2:0:0:
116,10,158598,6,0,P|208:24|271:85,1,157.500001502037,6|2,3:2|0:2,0:0:0:0:
321,139,158892,1,10,0:2:0:0:
321,139,158990,1,2,3:2:0:0:
371,158,159088,1,2,0:2:0:0:
423,144,159186,1,10,0:2:0:0:
456,101,159285,1,2,0:2:0:0:
457,46,159383,2,0,L|357:73,1,78.7500007510185,2|2,3:2|0:2,0:0:0:0:
266,214,159579,1,2,0:2:0:0:
227,204,159677,1,10,0:2:0:0:
190,195,159775,2,0,L|89:168,1,78.7500007510185,2|2,3:2|0:2,0:0:0:0:
304,342,159971,1,10,0:2:0:0:
343,332,160069,1,2,0:2:0:0:
380,323,160167,6,0,P|436:340|474:370,1,78.7500007510185,2|0,3:2|0:0,0:0:0:0:
291,240,160363,2,0,P|272:205|263:167,1,78.7500007510185,2|10,0:2|0:2,0:0:0:0:
466,66,160559,2,0,P|378:108|353:199,1,157.500001502037,2|10,3:2|0:0,0:0:0:0:
276,229,160853,1,2,0:0:0:0:
276,229,160951,2,0,P|184:213|99:187,1,157.500001502037,2|2,3:2|0:2,0:0:0:0:
40,235,161245,2,0,P|25:185|-16:117,1,78.7500007510185,10|2,0:2|3:2,0:0:0:0:
167,0,161441,1,2,0:2:0:0:
169,14,161539,2,0,P|126:70|117:119,1,78.7500007510185,10|2,0:2|0:0,0:0:0:0:
194,325,161736,5,6,3:2:0:0:
367,231,161931,1,2,3:2:0:0:
375,175,162030,1,10,0:0:0:0:
384,121,162128,1,2,3:2:0:0:
462,368,162324,1,2,3:2:0:0:
171,243,162520,5,6,3:2:0:0:
408,158,162716,1,2,3:2:0:0:
400,102,162815,1,10,0:0:0:0:
391,48,162913,1,2,3:2:0:0:
286,357,163108,1,2,3:2:0:0:
286,357,163206,1,2,0:0:0:0:
286,357,163304,6,0,L|322:224,1,90,6|0,3:2|0:0,0:0:0:0:
222,99,163500,6,0,L|242:236,1,90,6|0,3:2|0:0,0:0:0:0:
500,55,163696,6,0,L|376:21,1,90,6|0,3:2|0:0,0:0:0:0:
48,174,163892,6,0,L|179:154,1,90,6|0,3:2|0:0,0:0:0:0:
508,257,164088,5,0,3:2:0:0:
508,257,164285,6,0,L|491:376,1,90,6|0,3:2|0:0,0:0:0:0:
200,259,164481,6,0,L|183:140,1,90,6|0,3:2|0:0,0:0:0:0:
512,48,164677,5,2,3:2:0:0:
512,48,167618,6,0,P|468:38|463:104,1,101.250003862381,2|0,0:2|0:0,0:0:0:0:
493,141,168010,6,0,P|501:169|505:213,1,67.5,2|2,3:2|0:2,0:0:0:0:
489,229,168598,2,0,P|455:217|396:207,1,90,2|2,0:2|0:0,0:0:0:0:
318,252,169186,1,2,0:0:0:0:
348,319,169383,1,2,3:2:0:0:
319,344,169579,6,0,P|302:335|281:333,1,22.5,2|0,3:2|0:0,0:0:0:0:
233,371,169873,2,0,P|222:340|224:318,2,45,2|2|2,0:2|0:0|0:0,0:0:0:0:
233,371,170755,2,0,P|204:363|179:348,1,45,2|2,0:2|0:2,0:0:0:0:
124,290,171147,5,2,3:2:0:0:
179,240,171343,2,0,P|185:225|185:208,1,22.5,2|2,0:2|0:2,0:0:0:0:
129,167,171637,1,2,0:2:0:0:
129,167,171834,2,0,P|101:161|48:135,1,67.5,2|2,0:2|0:2,0:0:0:0:
4,187,172324,1,2,0:2:0:0:
57,248,172520,1,2,3:2:0:0:
57,248,172618,1,2,0:2:0:0:
61,270,172716,6,0,P|50:299|45:325,1,45,2|2,3:2|0:2,0:0:0:0:
18,338,173010,2,0,P|54:351|67:360,2,45,2|2|2,0:2|0:2|0:2,0:0:0:0:
18,338,173892,2,0,P|3:304|2:280,1,45,2|2,0:2|0:2,0:0:0:0:
56,217,174285,6,0,P|68:169|72:112,1,90,2|2,3:2|0:2,0:0:0:0:
23,12,175069,2,0,P|27:56|38:100,2,90,10|2|2,0:2|0:2|3:2,0:0:0:0:
23,12,176245,6,0,P|79:28|114:33,1,90,2|10,0:2|0:2,0:0:0:0:
188,138,177030,2,0,P|232:112|256:106,1,67.5,2|0,0:2|0:0,0:0:0:0:
257,98,177422,5,2,0:2:0:0:
233,223,177814,1,2,0:2:0:0:
247,235,178010,6,0,B|416:247|334:353|428:367,1,225,2|0,0:2|0:0,0:0:0:0:
411,363,179775,6,0,P|422:333|438:310,3,45,0|0|0|0,3:2|3:2|3:2|3:2,0:0:0:0:
338,319,180167,6,0,P|324:290|319:248,3,56.25,2|0|0|0,3:2|3:2|3:2|3:2,0:0:0:0:
437,208,180559,6,0,P|453:171|463:68,1,135.000005149842,6|0,3:2|0:0,0:0:0:0:
288,6,180853,2,0,B|280:23|280:23|303:76,1,67.5000025749208,2|10,0:0|0:3,0:0:0:0:
420,132,181049,2,0,B|439:87|439:87|431:70,1,67.5000025749208,2|0,0:0|0:0,0:0:0:0:
244,194,181245,6,0,P|148:161|83:149,1,135.000005149842,2|0,0:0|0:0,0:0:0:0:
9,56,181539,2,0,P|38:16|99:16,1,67.5000025749208,2|0,0:0|0:0,0:0:0:0:
222,86,181736,2,0,P|189:79|158:89,1,67.5000025749208,10|0,0:3|0:0,0:0:0:0:
316,226,181932,2,0,P|355:255|356:316,1,67.5000025749208,2|0,0:0|0:0,0:0:0:0:
138,379,182128,6,0,P|127:334|130:283,1,67.5000025749208,0|0,3:0|0:0,0:0:0:0:
164,148,182323,1,2,0:0:0:0:
257,195,182422,2,0,B|292:188|292:188|297:192|297:192|347:183,1,67.5000025749208,2|10,0:0|0:3,0:0:0:0:
157,291,182618,2,0,B|122:278|122:278|117:281|117:281|69:264,1,67.5000025749208,2|0,0:0|0:0,0:0:0:0:
327,379,182814,6,0,P|363:302|413:256,1,135.000005149842,2|8,0:0|0:0,0:0:0:0:
486,221,183108,1,2,0:0:0:0:
486,221,183304,6,0,P|509:174|499:123,1,67.5000025749208,10|0,0:3|0:0,0:0:0:0:
343,70,183500,2,0,P|348:103|366:131,1,67.5000025749208,2|0,0:0|0:0,0:0:0:0:
505,14,183696,6,0,P|458:34|403:40,1,67.5000025749208,6|0,3:2|0:0,0:0:0:0:
250,0,183892,1,2,0:0:0:0:
187,73,183990,2,0,B|162:58|162:58|140:11,1,67.5000025749208,2|10,0:0|0:3,0:0:0:0:
323,110,184186,2,0,B|330:138|330:138|312:187,1,67.5000025749208,2|0,0:0|0:0,0:0:0:0:
168,319,184383,6,0,P|191:210|225:136,1,135.000005149842,2|0,0:0|0:0,0:0:0:0:
256,367,184677,2,0,P|294:340|347:315,1,67.5000025749208,2|0,0:0|0:0,0:0:0:0:
106,239,184873,2,0,P|90:195|61:144,1,67.5000025749208,10|0,0:3|0:0,0:0:0:0:
343,139,185069,2,0,P|380:111|434:86,1,67.5000025749208,2|0,0:0|0:0,0:0:0:0:
171,0,185265,6,0,P|200:45|210:111,1,67.5000025749208,2|0,3:2|0:0,0:0:0:0:
337,3,185461,1,2,0:0:0:0:
283,99,185559,2,0,B|265:115|265:115|188:143,1,67.5000025749208,2|10,0:0|0:3,0:0:0:0:
407,263,185755,2,0,B|425:279|425:279|465:293,1,67.5000025749208,2|0,0:0|0:0,0:0:0:0:
161,379,185951,6,0,B|130:302|231:321|148:203,1,135.000005149842,2|8,0:0|0:0,0:0:0:0:
123,165,186245,1,2,0:0:0:0:
123,165,186441,6,0,P|194:180|229:218,1,67.5000025749208,10|0,0:3|0:0,0:0:0:0:
380,315,186637,1,2,0:2:0:0:
341,259,186735,1,2,0:0:0:0:
320,195,186834,6,0,B|341:63|388:128|403:11,1,202.500007724762,6|0,3:2|0:0,0:0:0:0:
442,179,187226,2,0,B|315:135|387:100|275:65,1,202.500007724762,10|0,0:3|0:0,0:0:0:0:
432,16,187618,2,0,P|511:51|503:112,1,135.000005149842,2|2,3:2|0:0,0:0:0:0:
403,200,187912,1,2,0:0:0:0:
403,200,188010,2,0,P|387:155|391:101,1,67.5000025749208,10|0,0:3|0:0,0:0:0:0:
508,14,188206,2,0,P|503:47|490:78,1,67.5000025749208,2|2,0:0|0:0,0:0:0:0:
281,169,188402,6,0,P|197:138|124:122,1,135.000005149842,6|2,3:2|0:0,0:0:0:0:
12,198,188696,1,2,0:0:0:0:
12,198,188794,2,0,P|35:234|44:288,1,67.5000025749208,10|0,0:3|0:0,0:0:0:0:
90,78,188990,2,0,P|126:55|180:46,1,67.5000025749208,2|0,0:0|0:0,0:0:0:0:
354,155,189186,1,2,3:2:0:0:
354,155,189285,2,0,P|288:137|225:113,1,135.000005149842,10|2,0:0|3:2,0:0:0:0:
143,252,189579,2,0,P|76:271|16:298,1,135.000005149842,10|2,0:3|0:0,0:0:0:0:
134,368,189872,1,2,0:0:0:0:
85,299,189971,6,0,B|184:285|180:373|285:372,1,202.500007724762,6|0,3:2|0:0,0:0:0:0:
447,333,190363,2,0,P|418:291|357:299,1,67.5000025749208,10|0,0:3|0:0,0:0:0:0:
283,383,190559,2,0,P|261:312|258:196,1,135.000005149842,2|0,0:0|3:0,0:0:0:0:
342,96,190951,1,2,0:0:0:0:
342,96,191049,1,2,0:0:0:0:
342,96,191147,1,10,0:3:0:0:
288,123,191245,1,2,0:0:0:0:
229,117,191343,1,2,0:0:0:0:
183,79,191441,1,2,0:0:0:0:
166,21,191539,6,0,P|243:39|278:68,1,90,6|0,3:2|0:0,0:0:0:0:
46,160,191932,6,0,P|103:122|168:118,1,112.5,10|2,0:3|0:0,0:0:0:0:
112,359,192226,1,10,0:0:0:0:
101,375,192324,6,0,P|84:308|105:242,1,135.000005149842,8|2,0:0|3:2,0:0:0:0:
414,368,192716,6,0,P|345:360|275:291,1,157.500001502037,10|10,0:3|0:0,0:0:0:0:
512,197,193010,1,2,0:0:0:0:
512,197,193108,6,0,P|435:208|360:232,1,135.000005149842,6|0,3:2|0:0,0:0:0:0:
203,307,193402,2,0,P|234:318|264:333,1,67.5000025749208,2|10,0:2|0:3,0:0:0:0:
337,164,193598,2,0,P|367:149|399:139,1,67.5000025749208,2|0,0:2|0:0,0:0:0:0:
148,88,193794,6,0,P|75:56|-1:-3,1,135.000005149842,2|0,0:2|0:0,0:0:0:0:
251,0,194088,2,0,B|246:26|246:26|241:32|241:32|227:90,1,67.5000025749208,2|0,0:2|0:0,0:0:0:0:
381,205,194285,2,0,B|374:173|374:173|369:167|369:167|364:141,1,67.5000025749208,10|0,0:3|0:0,0:0:0:0:
183,268,194481,2,0,B|175:300|175:300|170:306|170:306|165:332,1,67.5000025749208,2|0,0:2|0:0,0:0:0:0:
410,378,194677,6,0,P|383:328|338:281,1,67.5000025749208,2|0,3:2|0:0,0:0:0:0:
251,178,194873,1,2,0:0:0:0:
343,222,194971,2,0,P|401:235|441:235,1,67.5000025749208,2|10,0:0|0:3,0:0:0:0:
295,86,195167,2,0,P|308:28|308:-12,1,67.5000025749208,2|0,0:0|0:0,0:0:0:0:
504,131,195363,6,0,P|439:158|364:210,1,135.000005149842,2|10,0:0|0:0,0:0:0:0:
262,170,195657,1,2,0:0:0:0:
262,170,195853,6,0,P|292:209|305:266,1,67.5000025749208,10|2,0:3|0:2,0:0:0:0:
339,76,196049,2,0,P|378:46|435:33,1,67.5000025749208,2|2,3:2|0:2,0:0:0:0:
219,57,196245,6,0,P|189:18|176:-39,1,67.5000025749208,6|0,3:2|0:0,0:0:0:0:
337,105,196441,1,2,0:0:0:0:
262,170,196539,2,0,P|218:159|162:157,2,67.5000025749208,2|10|2,0:0|0:3|0:0,0:0:0:0:
488,237,196834,1,2,0:0:0:0:
488,237,196932,6,0,P|405:263|312:308,1,135.000005149842,2|0,0:0|0:0,0:0:0:0:
216,357,197226,2,0,B|197:333|197:333|213:280,1,67.5000025749208,2|0,0:0|0:0,0:0:0:0:
374,186,197422,2,0,B|385:222|385:222|366:246,1,67.5000025749208,10|0,0:3|0:0,0:0:0:0:
172,136,197618,2,0,B|153:112|153:112|169:59,1,67.5000025749208,2|0,0:2|0:0,0:0:0:0:
411,0,197814,6,0,P|462:14|503:38,1,67.5000025749208,2|0,3:2|0:0,0:0:0:0:
238,98,198010,1,2,0:2:0:0:
324,136,198108,2,0,P|346:108|362:50,1,67.5000025749208,2|10,0:0|0:3,0:0:0:0:
188,248,198304,2,0,P|166:276|150:334,1,67.5000025749208,2|0,0:0|0:0,0:0:0:0:
328,106,198500,6,0,P|305:40|261:-11,1,135.000005149842,2|8,0:0|0:0,0:0:0:0:
172,14,198794,1,2,0:0:0:0:
172,14,198990,6,0,P|144:61|90:98,1,67.5000025749208,10|0,0:3|0:0,0:0:0:0:
265,151,199186,2,0,P|298:148|330:137,1,67.5000025749208,2|0,0:2|0:0,0:0:0:0:
136,351,199383,6,0,B|104:269|211:309|151:188,1,135.000005149842,6|2,3:2|0:2,0:0:0:0:
134,111,199677,1,2,0:2:0:0:
134,111,199775,2,0,P|72:127|63:173,1,67.5000025749208,10|0,0:3|0:0,0:0:0:0:
90,314,199971,6,0,P|115:219|116:155,1,135.000005149842,2|2,0:0|3:0,0:0:0:0:
195,337,200265,1,2,0:0:0:0:
195,337,200363,2,0,P|202:270|222:205,1,135.000005149842,2|10,0:0|0:3,0:0:0:0:
415,318,200755,6,0,P|348:311|283:291,1,135.000005149842,2|6,0:0|3:2,0:0:0:0:
206,153,201049,1,2,0:0:0:0:
206,153,201147,2,0,P|270:133|337:126,1,135.000005149842,2|10,0:0|0:3,0:0:0:0:
160,261,201441,1,2,0:0:0:0:
160,261,201539,6,0,P|137:198|137:158,2,67.5000025749208,2|2|2,0:0|0:0|3:2,0:0:0:0:
275,323,201834,1,10,0:0:0:0:
275,323,202128,6,0,B|249:207|368:224|325:116,1,202.500007724762,10|0,0:3|0:0,0:0:0:0:
188,6,202520,6,0,P|100:11|98:78,1,135.000005149842,6|2,3:2|0:2,0:0:0:0:
233,136,202814,1,2,0:2:0:0:
233,136,202912,1,10,0:3:0:0:
285,121,203010,1,2,0:2:0:0:
337,109,203108,1,2,0:2:0:0:
390,100,203206,1,2,0:2:0:0:
444,94,203304,6,0,P|373:51|305:-1,1,135.000005149842,2|2,3:2|0:2,0:0:0:0:
203,8,203598,1,2,0:2:0:0:
203,8,203696,2,0,P|153:29|145:88,1,67.5000025749208,10|2,0:3|0:2,0:0:0:0:
277,187,203892,2,0,P|253:163|246:130,1,67.5000025749208,2|2,0:2|0:2,0:0:0:0:
455,81,204088,5,0,3:0:0:0:
455,81,204481,6,0,L|434:157,1,45,2|0,0:2|0:0,0:0:0:0:
373,173,204873,6,0,L|354:108,1,67.5000025749208,2|0,0:2|0:0,0:0:0:0:
332,66,205265,6,0,L|313:130,1,67.5000025749208,2|0,0:2|0:0,0:0:0:0:
499,69,205657,5,6,3:2:0:0:
499,69,206441,6,0,P|488:25|484:-11,1,67.5000025749208,10|0,0:0|0:0,0:0:0:0:
419,100,206736,2,0,P|385:94|353:86,1,67.5000025749208,2|0,0:0|0:0,0:0:0:0:
429,119,207030,6,0,P|440:163|444:199,1,67.5000025749208,2|0,3:2|0:0,0:0:0:0:
374,262,207226,2,0,P|363:218|359:182,1,67.5000025749208,2|0,3:2|0:0,0:0:0:0:
51,118,208010,5,2,3:2:0:0:
112,167,208108,2,0,P|145:161|177:153,1,67.5000025749208,2|0,3:2|0:0,0:0:0:0:
150,31,208304,2,0,P|117:37|85:47,1,67.5000025749208,10|0,0:0|0:0,0:0:0:0:
211,82,208500,6,0,P|308:91|364:104,1,135.000005149842,2|0,3:2|3:0,0:0:0:0:
457,39,208794,6,0,B|311:85|459:167|319:217,1,202.500007724762,2|0,3:2|0:0,0:0:0:0:
275,162,209186,1,8,0:0:0:0:
425,115,209382,1,2,3:2:0:0:
336,327,209579,6,0,P|299:351|231:366,1,67.5000025749208,2|0,3:2|0:0,0:0:0:0:
394,228,209775,1,8,0:0:0:0:
405,215,209873,2,0,P|390:161|389:119,1,67.5000025749208,2|0,3:2|0:0,0:0:0:0:
286,45,210069,1,8,0:0:0:0:
275,58,210167,2,0,P|290:112|291:154,1,67.5000025749208,2|0,3:2|0:0,0:0:0:0:
492,0,210363,6,0,B|474:102|358:43|354:179,2,202.500007724762,2|2|2,3:2|0:0|3:2,0:0:0:0:
499,15,211245,5,8,0:0:0:0:
436,51,211343,2,0,P|388:41|333:10,1,67.5000025749208,0|0,3:0|0:0,0:0:0:0:
196,109,211539,2,0,P|271:83|416:69,1,202.500007724762,8|0,0:0|0:0,0:0:0:0:
429,92,211932,6,0,P|398:168|386:229,1,135.000005149842,6|0,3:2|0:0,0:0:0:0:
491,180,212226,2,0,P|396:201|330:238,1,135.000005149842,10|0,0:0|0:0,0:0:0:0:
498,112,212520,1,10,0:0:0:0:
326,43,212716,1,0,3:0:0:0:
261,264,212912,1,2,0:2:0:0:
261,264,213010,1,10,0:2:0:0:
261,264,213108,1,2,3:2:0:0:
259,223,213206,1,2,0:2:0:0:
244,186,213304,1,10,0:2:0:0:
216,157,213402,1,2,0:2:0:0:
180,139,213500,6,0,P|157:226|120:296,1,135.000005149842,6|0,3:2|0:0,0:0:0:0:
260,361,213794,2,0,P|224:272|183:219,1,135.000005149842,10|0,0:2|0:0,0:0:0:0:
337,282,214088,1,10,0:0:0:0:
98,360,214285,1,0,3:0:0:0:
16,152,214481,6,0,P|56:107|69:49,1,67.5000025749208,2|8,0:0|0:0,0:0:0:0:
164,163,214677,2,0,P|184:189|197:220,1,67.5000025749208,2|0,3:2|0:0,0:0:0:0:
344,76,214873,2,0,P|310:77|278:87,1,67.5000025749208,10|0,0:0|0:0,0:0:0:0:
502,217,215069,5,6,3:2:0:0:
481,384,215265,1,2,3:2:0:0:
427,375,215363,1,10,0:0:0:0:
372,367,215461,1,2,3:2:0:0:
394,199,215657,1,10,3:2:0:0:
175,228,215853,5,6,3:2:0:0:
153,60,216049,1,2,3:2:0:0:
208,52,216147,1,10,0:0:0:0:
262,43,216245,1,2,3:2:0:0:
283,210,216441,1,10,0:0:0:0:
2,153,216637,5,2,3:2:0:0:
510,231,217030,5,2,0:0:0:0:
263,186,217422,5,2,0:0:0:0:
426,144,217618,1,2,0:0:0:0:
366,83,217716,1,2,0:0:0:0:
282,231,217912,1,2,0:0:0:0:
484,204,218108,1,2,0:0:0:0:
