osu file format v14

[General]
AudioFilename: audio.mp3
AudioLeadIn: 0
PreviewTime: 51049
Countdown: 0
SampleSet: Soft
StackLeniency: 0.7
Mode: 0
LetterboxInBreaks: 0
WidescreenStoryboard: 0

[Editor]
Bookmarks: 8010,20559,33108,45657,77030,89579,114677,120951,139775,152324,168010,180559,205657,218206
DistanceSpacing: 0.18
BeatDivisor: 4
GridSize: 32
TimelineZoom: 2.2

[Metadata]
Title:Phantom Chain
TitleUnicode:Phantom Chain
Artist:PHAZE
ArtistUnicode:PHAZE
Creator:Stompy_
Version:Heroine's Insane
Source:
Tags:daycore eiri- ayyri annabel tomatas95 heroine featured artist fa japanese pop electronic j-pop jpop female vocals vocalist
BeatmapID:4417039
BeatmapSetID:2105111

[Difficulty]
HPDrainRate:6
CircleSize:4
OverallDifficulty:8
ApproachRate:9
SliderMultiplier:1.4
SliderTickRate:1

[Events]
//Background and Video events
0,0,"beauiful bg.jpg",0,0
//Break Periods
2,77030,87410
2,168010,173685
//Storyboard Layer 0 (Background)
//Storyboard Layer 1 (Fail)
//Storyboard Layer 2 (Pass)
//Storyboard Layer 3 (Foreground)
//Storyboard Layer 4 (Overlay)
//Storyboard Sound Samples

[TimingPoints]
1736,392.156862745098,4,2,1,50,1,0
1736,-200,4,2,1,50,0,0
20559,-133.333333333333,4,2,1,65,0,0
33108,-125,4,2,2,75,0,0
44088,-125,4,2,2,50,0,0
45657,-125,4,2,2,75,0,0
48794,-111.111111111111,4,2,2,75,0,0
51932,-86.9565217391304,4,2,2,90,0,1
64481,-86.9565217391304,4,2,2,70,0,1
67618,-86.9565217391304,4,2,2,90,0,1
75461,-86.9565217391304,4,2,2,70,0,1
77030,-100,4,2,2,80,0,0
89579,-125,4,2,1,60,0,0
114677,-125,4,2,2,75,0,0
127226,-125,4,2,2,65,0,0
139775,-111.111111111111,4,2,2,70,0,0
152324,-66.6666666666667,4,2,2,80,0,1
158598,-86.9565217391304,4,2,2,80,0,1
164873,-86.9565217391304,4,2,2,50,0,0
165069,-86.9565217391304,4,2,2,5,0,0
167618,-86.9565217391304,4,2,2,50,0,0
168010,-133.333333333333,4,2,3,60,0,0
179775,-133.333333333333,4,2,2,80,0,0
180167,-100,4,2,2,80,0,0
180559,-83.3333333333333,4,2,2,90,0,1
205657,-100,4,2,2,80,0,0
216637,-100,4,2,2,65,0,0
217030,-200,4,2,2,65,0,0

[Colours]
Combo1 : 255,255,183
Combo2 : 184,113,255
Combo3 : 183,176,255

[HitObjects]
261,149,1670,5,0,0:0:0:0:
251,146,1736,2,0,P|225:140|199:137,2,52.5,2|0|2,0:2|0:0|0:2,0:0:0:0:
314,94,2520,2,0,P|339:88|365:85,2,52.5,2|0|0,0:2|0:0|0:0,0:0:0:0:
251,146,3304,1,2,0:2:0:0:
195,106,3500,1,0,0:0:0:0:
152,163,3696,1,0,0:0:0:0:
208,203,3892,1,2,0:2:0:0:
331,242,4088,6,0,P|382:233|434:239,1,105,2|0,0:2|0:0,0:0:0:0:
288,304,4807,1,0,0:0:0:0:
277,303,4873,2,0,L|242:298,1,35,2|0,0:2|0:0,0:0:0:0:
261,380,5265,2,0,L|226:384,1,35,0|2,0:0|0:2,0:0:0:0:
380,332,5657,5,2,0:2:0:0:
380,332,5951,1,0,0:0:0:0:
380,332,6245,1,2,0:2:0:0:
434,239,6441,2,0,L|438:204,1,35,2|2,0:2|0:2,0:0:0:0:
385,155,6834,2,0,L|380:120,1,35,2|2,0:2|0:2,0:0:0:0:
418,50,7226,1,0,0:0:0:0:
305,22,7520,2,0,P|271:29|231:23,1,70
236,24,8010,5,6,0:1:0:0:
197,55,8304,1,0,0:0:0:0:
157,83,8598,1,2,0:2:0:0:
326,188,9579,5,2,0:1:0:0:
365,219,9873,1,0,0:0:0:0:
405,247,10167,1,0,0:0:0:0:
86,323,11147,5,2,0:1:0:0:
437,40,12716,5,2,0:1:0:0:
426,88,13010,1,2,0:2:0:0:
415,136,13304,1,2,0:2:0:0:
75,40,14285,5,2,0:1:0:0:
86,88,14579,1,0,0:0:0:0:
97,136,14873,1,2,0:2:0:0:
354,244,15853,5,2,0:1:0:0:
402,233,16147,1,0,0:0:0:0:
450,222,16441,1,0,0:0:0:0:
142,283,17422,5,2,0:1:0:0:
185,247,18206,5,2,0:1:0:0:
141,188,18598,1,2,0:1:0:0:
197,121,18990,6,0,P|190:70|182:3,1,105,2|0,0:1|0:0,0:0:0:0:
183,16,19677,1,2,0:2:0:0:
183,16,19775,1,2,0:2:0:0:
215,48,20559,6,0,P|293:54|370:69,1,157.500006008148,2|0,3:1|3:0,0:0:0:0:
310,131,21343,2,0,P|284:136|258:141,1,52.5000020027161,10|0,0:0|0:0,0:0:0:0:
371,70,21736,2,0,P|396:64|422:59,1,52.5000020027161,2|2,0:2|3:2,0:0:0:0:
217,61,22128,2,0,P|208:112|204:164,2,105.000004005432,0|2|10,3:2|0:0|0:0,0:0:0:0:
180,60,23304,1,2,0:0:0:0:
204,85,23500,1,0,0:0:0:0:
133,125,23696,6,0,P|81:125|29:130,1,105.000004005432,2|0,3:2|0:0,0:0:0:0:
29,130,24285,1,2,3:2:0:0:
205,165,24481,2,0,P|257:164|309:159,1,105.000004005432,10|0,0:0|0:0,0:0:0:0:
452,184,25069,1,0,3:2:0:0:
472,111,25265,2,0,P|461:57|453:7,1,105.000004005432,2|2,3:2|0:0,0:0:0:0:
361,31,25853,1,0,0:0:0:0:
361,31,25951,1,0,0:0:0:0:
361,31,26049,1,8,0:0:0:0:
304,87,26245,2,0,P|280:79|254:73,2,52.5000020027161,2|2|0,0:0|0:0|0:0,0:0:0:0:
386,155,26834,6,0,P|379:208|372:259,1,105.000004005432,2|2,3:2|0:0,0:0:0:0:
351,354,27422,1,2,3:2:0:0:
288,321,27618,2,0,P|235:307|183:307,1,105.000004005432,8|2,0:0|0:0,0:0:0:0:
300,231,28206,1,0,3:2:0:0:
373,259,28402,2,0,P|426:245|477:245,2,105.000004005432,2|0|10,3:2|0:0|0:0,0:0:0:0:
288,321,29383,1,0,0:0:0:0:
270,329,29579,1,0,0:0:0:0:
321,384,29775,1,0,0:0:0:0:
312,303,29971,6,0,P|309:251|309:199,1,105.000004005432,2|0,3:2|3:0,0:0:0:0:
394,151,30559,1,2,0:2:0:0:
394,151,30657,1,2,0:2:0:0:
393,151,30755,2,0,P|367:156|341:159,1,52.5000020027161,10|0,3:2|0:0,0:0:0:0:
266,208,31147,2,0,P|240:202|214:199,1,52.5000020027161,0|0,3:0|0:0,0:0:0:0:
122,192,31539,1,2,3:2:0:0:
105,122,31736,1,2,0:2:0:0:
107,229,31932,2,0,P|101:290|104:344,1,105.000004005432,2|2,3:2|3:1,0:0:0:0:
103,333,33108,5,6,3:2:0:0:
219,313,33304,1,2,3:2:0:0:
335,292,33500,2,0,P|330:251|324:209,1,84,2|0,3:2|0:0,0:0:0:0:
323,209,33892,2,0,P|296:214|268:217,1,56,10|0,0:2|3:0,0:0:0:0:
385,107,34285,1,2,0:2:0:0:
435,156,34481,2,0,P|462:161|490:164,1,56,2|0,3:2|0:0,0:0:0:0:
295,122,35069,6,0,P|289:94|286:66,1,56,10|0,0:2|3:2,0:0:0:0:
282,28,35363,1,0,0:0:0:0:
282,28,35461,1,2,3:2:0:0:
199,61,35657,1,0,0:0:0:0:
104,29,35853,2,0,P|62:22|21:11,1,84,10|0,0:0|0:0,0:0:0:0:
0,0,36245,5,2,3:2:0:0:
62,54,36441,1,2,3:2:0:0:
104,126,36637,2,0,P|111:152|121:179,1,56,2|0,3:2|0:0,0:0:0:0:
202,222,37030,1,10,0:2:0:0:
72,192,37226,2,0,P|64:218|54:245,2,56,0|2|2,3:0|0:2|0:2,0:0:0:0:
249,246,37814,6,0,P|304:240|359:227,1,112,0|2,3:2|0:0,0:0:0:0:
241,171,38402,2,0,P|213:165|185:162,1,56,0|8,3:0|0:0,0:0:0:0:
332,116,38794,1,2,0:0:0:0:
392,161,38990,2,0,P|419:155|447:152,1,56,0|2,3:0|0:0,0:0:0:0:
359,260,39383,6,0,P|304:266|250:254,1,112,4|8,3:2|0:0,0:0:0:0:
175,297,39971,1,2,0:2:0:0:
175,297,40069,1,2,0:2:0:0:
175,297,40167,2,0,P|178:324|180:352,1,56,2|2,3:2|0:0,0:0:0:0:
251,255,40559,2,0,P|254:227|256:199,1,56,8|2,0:0|0:0,0:0:0:0:
110,230,40951,6,0,P|54:232|0:244,1,112,0|10,3:0|0:0,0:0:0:0:
0,244,41539,1,0,0:0:0:0:
256,199,41736,2,0,P|311:201|366:213,1,112,2|10,3:2|0:0,0:0:0:0:
185,166,42324,1,2,0:0:0:0:
122,92,42520,2,0,P|115:65|110:38,1,56,2|0,3:2|0:0,0:0:0:0:
307,140,42912,1,10,0:2:0:0:
256,199,43108,2,0,P|248:226|243:253,1,56,2|0,0:2|3:0,0:0:0:0:
472,220,43500,5,8,3:2:0:0:
382,136,43696,1,8,3:2:0:0:
512,7,43892,1,8,3:2:0:0:
512,0,44088,5,2,0:0:0:0:
116,76,45657,6,0,L|121:146,1,56,6|0,3:2|0:0,0:0:0:0:
189,165,46049,1,8,0:0:0:0:
36,137,46245,2,0,L|41:207,1,56,4|0,3:2|0:0,0:0:0:0:
189,165,46637,1,0,3:0:0:0:
36,137,46834,1,8,0:0:0:0:
97,273,47030,6,0,L|104:384,1,112,4|0,3:2|3:0,0:0:0:0:
104,384,47618,1,8,0:0:0:0:
193,221,47814,2,0,L|189:165,1,56,0|8,3:0|0:0,0:0:0:0:
280,270,48206,2,0,L|276:214,1,56,0|8,3:0|0:0,0:0:0:0:
223,320,48598,1,10,0:2:0:0:
400,363,48794,6,0,P|431:358|462:354,2,62.9999980773926,2|0|8,3:2|3:0|0:0,0:0:0:0:
276,214,49383,2,0,P|338:209|401:203,1,125.999996154785,2|2,3:2|3:2,0:0:0:0:
401,203,49971,1,8,0:0:0:0:
261,138,50167,2,0,P|229:141|198:142,1,62.9999980773926,6|0,3:2|0:0,0:0:0:0:
198,142,51147,5,0,3:2:0:0:
219,142,51245,1,0,3:2:0:0:
241,141,51343,1,0,3:2:0:0:
261,138,51441,1,0,3:2:0:0:
289,142,51539,2,0,L|320:139,1,31.4999990386963,2|0,3:2|3:2,0:0:0:0:
140,141,51736,2,0,L|108:138,1,31.4999990386963,0|0,3:2|3:2,0:0:0:0:
167,212,51932,6,0,P|165:252|169:292,1,80.5000015354157,6|2,3:2|0:0,0:0:0:0:
192,317,52226,2,0,P|192:337|194:357,1,40.2500007677078,2|10,0:0|0:3,0:0:0:0:
204,384,52422,1,2,0:2:0:0:
130,222,52618,2,0,P|127:262|119:301,1,80.5000015354157,2|0,0:0|0:0,0:0:0:0:
96,322,52912,1,2,0:0:0:0:
233,192,53108,1,10,0:3:0:0:
195,357,53304,1,2,0:0:0:0:
202,123,53500,1,0,3:0:0:0:
262,283,53696,1,2,0:0:0:0:
262,283,53794,2,0,P|261:303|259:323,1,40.2500007677078,2|10,0:0|0:3,0:0:0:0:
254,362,53990,1,2,0:0:0:0:
284,121,54186,2,0,P|286:162|294:201,1,80.5000015354157,2|8,0:0|0:0,0:0:0:0:
293,200,54480,1,0,0:0:0:0:
364,91,54677,1,10,0:3:0:0:
320,221,54873,2,0,L|362:216,1,40.2500007677078,2|0,0:0|0:0,0:0:0:0:
512,247,55069,6,0,P|472:244|432:244,1,80.5000015354157,2|2,3:2|0:0,0:0:0:0:
308,242,55363,2,0,P|328:242|348:240,1,40.2500007677078,2|10,0:0|0:3,0:0:0:0:
389,237,55559,1,2,0:0:0:0:
246,299,55755,2,0,P|206:296|167:288,1,80.5000015354157,2|0,0:0|0:0,0:0:0:0:
166,287,56049,1,2,0:0:0:0:
366,356,56245,1,10,0:3:0:0:
435,340,56441,1,2,0:0:0:0:
235,222,56637,1,2,3:2:0:0:
149,320,56833,1,2,0:0:0:0:
149,320,56931,2,0,P|129:319|109:317,1,40.2500007677078,2|10,0:0|0:3,0:0:0:0:
66,313,57128,1,2,0:0:0:0:
286,365,57323,2,0,P|327:363|366:355,1,80.5000015354157,2|8,0:0|0:0,0:0:0:0:
365,356,57617,1,0,0:0:0:0:
149,320,57814,1,10,0:3:0:0:
210,224,58010,2,0,L|168:229,1,40.2500007677078,2|0,0:2|0:0,0:0:0:0:
36,245,58206,6,0,L|116:242,1,80.5000015354157,2|0,3:2|0:0,0:0:0:0:
247,184,58598,2,0,L|327:187,1,80.5000015354157,10|0,0:3|0:0,0:0:0:0:
432,231,58990,2,0,L|512:228,1,80.5000015354157,2|0,3:2|0:0,0:0:0:0:
301,215,59383,2,0,L|221:212,1,80.5000015354157,10|2,0:3|0:0,0:0:0:0:
96,83,59775,6,0,P|77:85|57:87,1,40.2500007677078,2|0,3:2|0:0,0:0:0:0:
120,85,59971,2,0,P|139:82|159:80,1,40.2500007677078
99,161,60167,1,10,0:3:0:0:
247,91,60363,2,0,P|283:76|318:54,1,80.5000015354157,2|0,0:0|3:0,0:0:0:0:
279,120,60657,1,8,0:0:0:0:
279,120,60755,1,0,0:0:0:0:
347,84,60951,2,0,P|357:66|370:51,2,40.2500007677078,10|0|2,0:3|0:0|0:0,0:0:0:0:
317,207,61343,6,0,P|320:272|333:336,1,120.750002303124,2|0,3:2|0:0,0:0:0:0:
330,326,61735,1,10,0:3:0:0:
372,145,61932,6,0,P|361:105|344:68,1,80.5000015354157,2|0,0:0|3:0,0:0:0:0:
295,233,62324,2,0,P|293:191|286:152,1,80.5000015354157,2|10,0:0|0:3,0:0:0:0:
203,307,62716,2,0,P|212:267|214:227,1,80.5000015354157,2|2,0:0|3:2,0:0:0:0:
102,66,63108,1,0,0:0:0:0:
109,73,63206,1,0,0:0:0:0:
109,73,63304,2,0,P|91:132|93:195,1,120.750002303124,10|8,0:3|0:0,0:0:0:0:
98,213,63696,5,8,0:0:0:0:
154,267,63892,1,0,3:0:0:0:
240,257,64088,1,10,0:3:0:0:
294,165,64285,2,0,P|289:146|285:126,1,40.2500007677078,8|0,0:0|0:0,0:0:0:0:
309,77,64481,2,0,P|314:57|318:37,1,40.2500007677078,2|0,0:2|0:0,0:0:0:0:
312,81,65461,1,2,3:2:0:0:
183,170,65657,1,10,0:2:0:0:
319,246,65853,1,2,3:2:0:0:
136,337,66049,6,0,P|96:341|57:347,1,80.5000015354157,2|2,3:2|0:0,0:0:0:0:
512,217,67030,2,0,L|473:230,1,40.2500007677078,0|0,3:2|0:0,0:0:0:0:
393,184,67226,5,2,3:2:0:0:
354,198,67324,1,2,0:2:0:0:
391,249,67422,1,2,3:2:0:0:
351,284,67520,1,2,0:2:0:0:
375,337,67618,6,0,P|415:341|454:347,1,80.5000015354157,6|2,3:2|0:0,0:0:0:0:
454,347,67912,2,0,P|474:347|494:345,1,40.2500007677078,2|10,0:0|0:3,0:0:0:0:
512,343,68108,1,2,0:0:0:0:
240,257,68304,2,0,P|200:260|161:268,1,80.5000015354157,2|0,0:0|0:0,0:0:0:0:
140,291,68598,1,2,0:0:0:0:
281,162,68794,1,10,0:3:0:0:
296,343,68990,1,2,0:2:0:0:
230,235,69186,1,2,3:2:0:0:
445,305,69382,1,2,0:2:0:0:
445,305,69480,2,0,P|465:304|485:302,1,40.2500007677078,2|10,0:0|0:3,0:0:0:0:
512,298,69677,1,2,0:0:0:0:
375,150,69872,2,0,P|334:152|295:160,1,80.5000015354157,2|8,0:0|0:0,0:0:0:0:
295,159,70166,1,0,0:0:0:0:
500,187,70363,1,10,0:3:0:0:
237,213,70559,2,0,L|198:223,1,40.2500007677078,2|0,0:2|0:0,0:0:0:0:
281,136,70755,6,0,P|284:95|295:57,1,80.5000015354157,2|2,3:2|0:2,0:0:0:0:
262,222,71147,1,10,0:3:0:0:
193,94,71343,2,0,P|189:53|178:15,1,80.5000015354157,2|0,0:0|3:0,0:0:0:0:
320,128,71735,2,0,P|317:87|322:47,1,80.5000015354157,2|10,0:0|0:3,0:0:0:0:
227,278,72128,2,0,P|229:237|224:197,1,80.5000015354157,2|0,0:0|3:0,0:0:0:0:
309,339,72520,2,0,P|310:298|318:259,1,80.5000015354157,2|10,0:0|0:3,0:0:0:0:
180,309,72912,6,0,L|100:319,1,80.5000015354157,2|0,0:0|3:0,0:0:0:0:
54,324,73206,1,8,0:0:0:0:
54,324,73304,1,2,0:0:0:0:
318,260,73500,2,0,P|359:261|399:263,1,80.5000015354157,10|0,0:3|0:0,0:0:0:0:
286,196,73892,2,0,P|246:197|206:194,1,80.5000015354157,2|2,3:2|0:2,0:0:0:0:
412,196,74285,2,0,P|452:197|492:194,1,80.5000015354157,10|2,0:3|0:2,0:0:0:0:
381,132,74677,1,2,3:2:0:0:
324,94,74873,1,2,0:2:0:0:
227,104,75069,5,10,0:3:0:0:
203,100,75167,1,2,0:2:0:0:
154,65,75265,1,2,0:2:0:0:
117,69,75363,1,2,0:2:0:0:
63,52,75461,6,0,P|33:31|-10:-5,1,80.5000015354157,0|0,3:0|0:0,0:0:0:0:
256,192,88010,5,2,3:2:0:0:
256,192,88108,12,4,89579,3:2:0:0:
144,105,90167,5,2,3:2:0:0:
294,92,90363,2,0,P|349:82|404:75,1,112,10|2,0:2|0:0,0:0:0:0:
404,75,90951,1,2,3:2:0:0:
271,118,91147,2,0,L|215:108,1,56,0|0,3:0|0:0,0:0:0:0:
413,118,91539,2,0,L|468:108,1,56,2|0,0:0|0:0,0:0:0:0:
315,175,91932,6,0,P|308:230|304:286,1,112,8|2,0:0|0:0,0:0:0:0:
237,372,92520,1,0,0:0:0:0:
185,321,92716,2,0,P|157:317|130:308,1,56,2|0,3:2|0:0,0:0:0:0:
304,286,93108,1,2,0:0:0:0:
356,235,93304,2,0,P|383:231|410:222,1,56,0|10,3:0|0:2,0:0:0:0:
282,210,93892,2,0,P|254:206|227:197,1,56,2|0,0:0|3:0,0:0:0:0:
105,238,94285,6,0,L|21:250,1,84,0|0,3:0|3:0,0:0:0:0:
21,250,94677,1,2,0:0:0:0:
155,230,94873,1,0,3:0:0:0:
228,196,95069,2,0,P|230:169|231:141,1,56,10|2,0:2|0:0,0:0:0:0:
227,266,95461,2,0,P|229:293|230:321,1,56,2|0,0:0|0:0,0:0:0:0:
352,115,95853,6,0,P|355:170|357:226,1,112,2|2,3:2|0:0,0:0:0:0:
384,304,96441,2,0,L|378:359,1,56,2|8,3:2|0:0,0:0:0:0:
378,359,97030,2,0,L|384:304,1,56,2|2,0:0|3:2,0:0:0:0:
357,226,97422,2,0,P|355:170|352:115,1,112,0|2,3:2|0:0,0:0:0:0:
340,35,98010,1,0,0:0:0:0:
412,45,98206,2,0,P|439:46|467:47,1,56,8|2,0:0|0:0,0:0:0:0:
263,71,98598,2,0,P|235:72|207:73,1,56,2|0,0:0|0:0,0:0:0:0:
65,139,98990,6,0,P|56:165|54:193,1,56,2|0,3:2|0:0,0:0:0:0:
187,150,99383,2,0,P|162:162|140:180,1,56,2|0,0:0|3:0,0:0:0:0:
189,316,99775,2,0,P|161:317|134:326,1,56,8|0,0:0|0:0,0:0:0:0:
258,263,100168,2,0,P|236:244|211:232,1,56,2|0,0:0|3:0,0:0:0:0:
367,322,100559,6,0,L|357:210,1,112,2|0,3:2|0:0,0:0:0:0:
354,114,101147,1,2,0:0:0:0:
354,114,101245,1,2,0:0:0:0:
354,114,101343,2,0,L|409:108,3,56,2|0|0|0,0:0|0:0|0:0|0:0,0:0:0:0:
358,211,102128,6,0,L|302:205,1,56,0|0,3:0|0:0,0:0:0:0:
226,196,102520,1,2,0:2:0:0:
209,212,102618,1,2,0:2:0:0:
164,187,102716,1,2,3:2:0:0:
120,216,102814,1,2,0:2:0:0:
69,191,102912,2,0,B|137:200|111:214|181:226,1,112,10|2,0:2|0:2,0:0:0:0:
260,268,103500,6,0,P|260:295|263:323,1,56,2|0,3:2|3:0,0:0:0:0:
240,199,103892,1,0,0:0:0:0:
211,329,104088,2,0,L|207:384,1,56,2|0,0:0|0:0,0:0:0:0:
262,180,104481,2,0,P|257:128|254:69,1,112,10|2,0:0|0:0,0:0:0:0:
254,69,105069,1,0,0:0:0:0:
306,253,105265,6,0,P|304:280|299:308,1,56,2|0,3:2|0:0,0:0:0:0:
221,192,105657,2,0,P|222:219|227:247,1,56,0|0,0:0|3:0,0:0:0:0:
357,200,106049,2,0,P|406:189|467:180,1,112,10|0,0:0|0:0,0:0:0:0:
467,180,106637,1,0,3:0:0:0:
396,228,106834,2,0,L|340:221,1,56,0|0,3:0|0:0,0:0:0:0:
481,228,107226,5,2,0:2:0:0:
497,245,107324,1,2,0:2:0:0:
472,290,107422,1,2,0:2:0:0:
501,334,107520,1,2,0:2:0:0:
476,383,107618,2,0,P|484:328|484:272,2,112,8|2|0,0:2|0:2|3:2,0:0:0:0:
375,382,108598,5,0,0:0:0:0:
323,330,108794,2,0,P|319:295|318:274,1,56,2|2,0:2|3:2,0:0:0:0:
265,384,109186,2,0,P|269:349|276:257,1,112,8|2,0:0|0:0,0:0:0:0:
255,179,109775,1,0,3:0:0:0:
186,185,109971,2,0,P|182:220|175:312,1,112,2|0,3:2|0:0,0:0:0:0:
110,347,110559,1,2,0:2:0:0:
53,303,110755,2,0,P|27:310|0:317,1,56,10|0,0:2|0:0,0:0:0:0:
176,296,111147,2,0,P|151:283|126:271,1,56,0|2,0:0|0:0,0:0:0:0:
208,334,111539,6,0,P|258:311|312:297,1,112,2|0,3:2|3:0,0:0:0:0:
391,241,112128,1,2,0:2:0:0:
391,241,112226,1,2,0:2:0:0:
391,241,112324,2,0,L|394:185,1,56,10|0,3:2|0:0,0:0:0:0:
426,162,112618,2,0,L|429:134,1,28,2|0,0:0|3:0,0:0:0:0:
334,43,112912,2,0,L|337:70,2,28,2|2|2,0:2|0:2|3:2,0:0:0:0:
271,0,113304,1,0,0:0:0:0:
271,0,113402,1,2,0:0:0:0:
204,76,113598,1,2,0:2:0:0:
203,76,113696,2,0,P|176:74|148:71,1,56,2|8,0:2|0:2,0:0:0:0:
148,71,114677,5,6,3:2:0:0:
263,91,114873,1,0,3:2:0:0:
380,112,115069,2,0,L|373:171,1,56,2|0,3:2|0:0,0:0:0:0:
368,208,115363,1,0,0:0:0:0:
368,208,115461,1,10,0:2:0:0:
339,13,115657,1,0,3:0:0:0:
339,13,116050,2,0,P|394:14|450:11,1,112,2|0,3:2|3:0,0:0:0:0:
503,102,116638,6,0,P|475:99|447:98,1,56,10|0,0:2|3:2,0:0:0:0:
401,100,116932,1,0,0:0:0:0:
401,100,117030,1,2,3:2:0:0:
294,176,117226,1,2,0:2:0:0:
374,242,117422,1,10,0:0:0:0:
297,302,117618,1,2,0:2:0:0:
290,313,117814,5,2,3:2:0:0:
378,247,118010,1,0,3:0:0:0:
297,180,118206,2,0,P|295:152|289:117,1,56,2|2,3:2|0:2,0:0:0:0:
248,238,118599,1,10,0:2:0:0:
341,120,118794,2,0,P|346:64|355:8,1,112,0|2,3:0|0:2,0:0:0:0:
275,46,119383,6,0,P|249:58|162:49,1,112,0|2,3:2|0:0,0:0:0:0:
186,141,119971,2,0,P|213:137|241:138,1,56,0|8,3:0|0:0,0:0:0:0:
98,80,120363,1,2,0:0:0:0:
56,144,120559,2,0,P|29:150|1:153,1,56,0|2,3:0|0:0,0:0:0:0:
252,177,120951,6,0,P|252:232|247:288,1,112,4|8,3:2|0:0,0:0:0:0:
233,371,121539,1,2,0:2:0:0:
233,371,121637,1,2,0:2:0:0:
233,371,121735,1,2,3:2:0:0:
205,259,121932,1,2,0:0:0:0:
133,289,122128,1,8,0:0:0:0:
257,320,122324,6,0,P|254:344|250:395,1,56,2|0,0:0|3:0,0:0:0:0:
322,272,122716,2,0,P|319:248|315:197,1,56,2|10,0:0|0:0,0:0:0:0:
430,294,123108,1,2,0:0:0:0:
204,259,123304,2,0,P|149:262|93:254,1,112,2|10,3:2|0:0,0:0:0:0:
93,254,123892,1,2,0:0:0:0:
245,285,124088,2,0,P|286:290|327:299,1,84,2|0,3:2|0:0,0:0:0:0:
359,312,124481,1,10,0:2:0:0:
183,333,124677,2,0,P|156:336|128:340,1,56,2|0,0:2|3:0,0:0:0:0:
328,333,125069,2,0,P|355:336|383:340,2,56,8|8|8,3:2|3:2|3:2,0:0:0:0:
157,327,125657,2,0,P|129:323|101:319,1,56,2|0,0:0|0:0,0:0:0:0:
102,320,126834,5,2,3:2:0:0:
278,267,127030,1,2,3:2:0:0:
391,364,127226,6,0,P|438:377|520:384,1,112,4|0,3:2|0:0,0:0:0:0:
326,327,127814,1,2,0:0:0:0:
326,327,127912,1,0,0:0:0:0:
326,327,128010,2,0,B|266:313|266:313|260:314|260:314|214:337,1,112,8|2,0:0|0:0,0:0:0:0:
220,334,128598,1,0,0:0:0:0:
345,220,128794,6,0,B|369:204|369:204|411:207|411:207|431:244|431:244|485:250,1,168,2|2,3:2|0:0,0:0:0:0:
493,257,129481,1,0,0:0:0:0:
493,257,129579,2,0,L|500:312,1,56,8|0,0:0|0:0,0:0:0:0:
490,171,129971,2,0,L|497:115,1,56,2|0,0:0|3:0,0:0:0:0:
512,0,130363,6,0,B|517:7|517:7|470:33|470:33|422:19,1,112,2|0,3:2|0:0,0:0:0:0:
346,68,130951,1,2,0:0:0:0:
346,68,131049,1,0,0:0:0:0:
346,68,131147,2,0,P|318:68|290:69,1,56,8|0,0:0|0:0,0:0:0:0:
216,71,131539,2,0,P|188:71|160:72,1,56,2|0,0:0|0:0,0:0:0:0:
0,10,131932,6,0,B|2:0|2:0|30:10|30:10|62:-5|62:-5|106:6,1,112,0|0,3:0|0:0,0:0:0:0:
75,82,132520,2,0,P|74:109|75:137,2,56,2|8|0,0:0|0:0|0:0,0:0:0:0:
160,73,133108,2,0,P|161:100|160:128,1,56,2|0,0:0|3:2,0:0:0:0:
233,219,133500,6,0,B|231:208|231:208|163:218|163:218|166:309,1,168,0|2,3:2|0:0,0:0:0:0:
227,364,134285,2,0,L|282:370,1,56,8|0,0:0|0:0,0:0:0:0:
166,307,134677,2,0,L|110:313,1,56,2|0,0:0|0:0,0:0:0:0:
316,376,135069,2,0,B|329:379|329:379|317:321|317:321|327:264,1,112,0|0,3:0|0:0,0:0:0:0:
442,227,135657,2,0,B|461:235|461:235|439:304|439:304|415:297,1,112,2|0,0:0|0:0,0:0:0:0:
324,282,136245,2,0,L|377:298,1,56,2|0,0:0|0:0,0:0:0:0:
271,224,136637,6,0,B|217:253|217:253|211:254|211:254|161:248,1,112,0|0,3:0|0:0,0:0:0:0:
282,152,137226,2,0,L|341:162,2,56,2|8|0,0:0|0:0|0:0,0:0:0:0:
167,249,137814,2,0,L|113:265,1,56,2|0,0:0|0:0,0:0:0:0:
416,94,138206,2,0,B|438:102|438:102|438:170|438:170|400:162,1,112,0|0,3:0|0:0,0:0:0:0:
449,208,138794,6,0,L|454:263,1,56,2|8,0:2|0:2,0:0:0:0:
454,263,139186,1,0,0:0:0:0:
416,94,139383,2,0,L|421:38,1,56,2|0,0:0|3:0,0:0:0:0:
425,8,139677,1,0,0:0:0:0:
425,8,139775,1,4,3:2:0:0:
317,127,140069,5,0,0:0:0:0:
317,127,140167,1,8,0:2:0:0:
243,87,140363,2,0,L|180:92,1,62.9999980773926,2|0,0:0|3:2,0:0:0:0:
240,9,140755,1,0,0:0:0:0:
181,143,140951,1,10,0:2:0:0:
81,44,141147,1,0,0:0:0:0:
80,44,141245,1,0,0:0:0:0:
80,44,141343,2,0,L|142:49,1,62.9999980773926,2|0,3:2|0:0,0:0:0:0:
254,121,141736,2,0,L|316:126,1,62.9999980773926,8|2,0:2|0:2,0:0:0:0:
416,201,142128,1,0,3:0:0:0:
416,201,142226,2,0,L|478:206,1,62.9999980773926,8|0,0:3|3:3,0:0:0:0:
512,212,142520,1,10,0:2:0:0:
336,262,142716,5,0,0:0:0:0:
336,262,142814,1,0,0:0:0:0:
336,262,142912,2,0,P|331:230|332:199,1,62.9999980773926,2|0,3:2|0:0,0:0:0:0:
229,311,143304,1,8,0:0:0:0:
175,262,143500,2,0,P|180:230|179:199,1,62.9999980773926,2|0,0:0|3:0,0:0:0:0:
335,262,143892,1,0,0:0:0:0:
385,321,144088,2,0,P|389:352|388:383,1,62.9999980773926,10|0,0:0|0:0,0:0:0:0:
180,200,144481,2,0,P|175:168|176:137,1,62.9999980773926,0|2,3:0|0:0,0:0:0:0:
94,224,144873,2,0,P|89:255|90:286,1,62.9999980773926,8|0,0:0|0:0,0:0:0:0:
279,206,145265,1,0,3:0:0:0:
279,206,145363,1,8,0:0:0:0:
449,273,145559,1,0,3:0:0:0:
449,273,145657,1,8,0:0:0:0:
303,341,145853,5,2,0:2:0:0:
303,341,145951,1,2,0:2:0:0:
303,341,146049,2,0,P|240:332|177:326,1,125.999996154785,0|8,3:2|0:0,0:0:0:0:
1,248,146736,1,0,0:0:0:0:
1,248,146834,2,0,P|63:239|126:233,1,125.999996154785,0|10,3:0|0:0,0:0:0:0:
204,204,147422,1,0,0:0:0:0:
204,204,147520,1,0,0:0:0:0:
204,204,147618,1,2,3:2:0:0:
117,111,147814,2,0,L|106:48,1,62.9999980773926,0|8,0:0|0:0,0:0:0:0:
201,10,148206,2,0,L|190:72,1,62.9999980773926,2|0,0:0|3:0,0:0:0:0:
232,111,148500,1,8,0:0:0:0:
315,36,148696,1,0,3:0:0:0:
329,83,148794,2,0,L|326:145,1,62.9999980773926,10|0,0:0|0:0,0:0:0:0:
408,241,149186,6,0,P|409:328|413:373,1,125.999996154785,2|8,3:2|0:0,0:0:0:0:
485,317,149775,2,0,P|485:285|484:254,1,62.9999980773926,2|0,0:0|3:0,0:0:0:0:
325,208,150167,1,0,0:0:0:0:
325,208,150265,1,0,0:0:0:0:
325,208,150363,2,0,B|324:176|325:145,1,62.9999980773926,8|2,0:0|0:2,0:0:0:0:
263,269,150755,6,0,B|249:320|198:333,1,94.499997116089,0|0,3:0|0:0,0:0:0:0:
157,336,151147,2,0,L|125:333,1,31.4999990386963,2|0,0:0|0:0,0:0:0:0:
78,329,151343,2,0,L|46:326,1,31.4999990386963,2|0,0:0|0:0,0:0:0:0:
0,323,151539,1,2,0:0:0:0:
0,323,151932,1,2,0:0:0:0:
110,333,152128,1,2,0:0:0:0:
217,342,152324,6,0,B|241:336|260:307|260:307|234:335|185:327,1,105.000004005432,6|0,3:2|0:0,0:0:0:0:
190,191,152618,2,0,B|183:215|199:246|199:246|188:209|219:171,1,105.000004005432,6|0,3:2|0:0,0:0:0:0:
340,251,152912,2,0,B|322:233|287:231|287:231|324:240|342:286,1,105.000004005432,14|0,0:0|0:0,0:0:0:0:
386,317,153304,1,0,3:0:0:0:
217,342,153500,6,0,B|193:331|171:327|171:327|199:329|233:315,1,105.000004005432,6|0,3:2|0:0,0:0:0:0:
340,251,153794,2,0,B|364:240|386:239|386:239|358:238|324:224,1,105.000004005432,6|0,3:2|0:0,0:0:0:0:
190,191,154088,2,0,B|166:180|144:179|144:179|172:178|206:164,1,105.000004005432,14|0,0:2|0:0,0:0:0:0:
262,60,154677,1,2,3:2:0:0:
262,60,154775,1,2,3:2:0:0:
308,136,154971,1,10,0:0:0:0:
251,264,155167,2,0,P|254:299|248:264,1,105.000004005432,2|0,3:2|3:2,0:0:0:0:
306,214,155461,6,0,P|332:209|356:198,1,52.5000020027161,2|0,3:2|0:0,0:0:0:0:
243,91,155755,2,0,P|233:115|231:141,1,52.5000020027161,6|0,3:2|0:0,0:0:0:0:
376,100,156049,2,0,P|359:79|337:64,1,52.5000020027161,14|0,0:2|0:0,0:0:0:0:
308,136,156441,1,2,3:2:0:0:
319,289,156637,6,0,P|314:314|303:338,1,52.5000020027161,6|0,3:2|0:0,0:0:0:0:
196,226,156931,2,0,P|220:216|246:214,1,52.5000020027161,6|0,3:2|0:0,0:0:0:0:
205,359,157225,2,0,P|184:342|169:320,1,52.5000020027161,14|0,0:2|0:0,0:0:0:0:
174,325,157814,1,2,3:2:0:0:
174,325,157912,1,2,3:2:0:0:
318,289,158206,2,0,P|397:280|475:268,1,157.500006008148,10|2,0:0|0:2,0:0:0:0:
493,228,158598,6,0,P|483:188|483:148,1,80.5000015354157,6|2,3:2|0:2,0:0:0:0:
456,103,158892,2,0,L|449:63,1,40.2500007677078,10|2,0:2|3:2,0:0:0:0:
498,0,159186,1,10,0:2:0:0:
359,65,159383,2,0,P|319:55|279:55,1,80.5000015354157,2|2,3:2|0:2,0:0:0:0:
233,28,159677,2,0,L|193:21,1,40.2500007677078,10|2,0:2|3:2,0:0:0:0:
131,70,159971,1,10,0:2:0:0:
199,152,160167,5,2,3:2:0:0:
150,207,160363,1,2,0:2:0:0:
231,267,160559,2,0,P|235:306|234:347,1,80.5000015354157,2|10,3:2|0:0,0:0:0:0:
89,366,160951,1,0,3:0:0:0:
22,328,161147,6,0,B|21:311|12:289|12:289|21:265|36:254|36:254|29:240|27:216,1,120.750002303124,2|2,0:2|0:2,0:0:0:0:
27,171,161539,2,0,P|41:174|40:133,1,40.2500007677078,10|2,0:2|0:0,0:0:0:0:
31,89,161736,2,0,P|17:85|17:126,1,40.2500007677078,0|0,3:2|0:0,0:0:0:0:
105,232,161932,1,0,3:2:0:0:
101,217,162030,2,0,P|96:177|99:137,1,80.5000015354157
104,64,162324,2,0,L|99:24,1,40.2500007677078,0|0,3:2|0:0,0:0:0:0:
99,137,162520,1,0,3:2:0:0:
190,43,162716,1,0,3:2:0:0:
190,43,162814,1,2,0:0:0:0:
190,43,162912,2,0,L|185:82,1,40.2500007677078,0|0,3:2|0:0,0:0:0:0:
239,149,163108,2,0,L|234:188,1,40.2500007677078,2|0,3:2|0:0,0:0:0:0:
347,80,163304,6,0,L|308:68,1,40.2500007677078,2|0,3:2|0:0,0:0:0:0:
423,66,163500,2,0,L|452:38,1,40.2500007677078,2|0,3:2|0:0,0:0:0:0:
398,140,163696,2,0,L|407:179,1,40.2500007677078,2|0,3:2|0:0,0:0:0:0:
388,102,163892,1,2,3:2:0:0:
334,207,164088,5,0,3:2:0:0:
341,228,164186,1,0,0:0:0:0:
358,244,164285,1,2,3:2:0:0:
475,215,164481,2,0,L|512:201,1,40.2500007677078,2|0,3:2|0:0,0:0:0:0:
334,282,164677,6,0,B|331:295|331:295|275:243|275:243|235:263|190:248,1,161.000003070831,0|0,3:0|0:0,0:0:0:0:
256,192,166441,12,2,167618,0:2:0:0:
260,324,174285,6,0,P|251:272|248:219,1,105.000004005432,2|2,3:2|0:2,0:0:0:0:
275,251,174873,1,0,0:0:0:0:
220,330,175069,2,0,P|213:356|211:381,1,52.5000020027161,10|0,0:2|0:0,0:0:0:0:
297,322,175461,2,0,P|304:348|305:373,1,52.5000020027161,2|0,0:2|3:2,0:0:0:0:
219,208,175853,2,0,P|209:169|202:131,2,78.7500030040742,2|0|0,3:2|0:0|0:0,0:0:0:0:
359,237,176637,2,0,L|410:245,1,52.5000020027161,10|0,0:2|0:0,0:0:0:0:
450,267,176932,1,0,0:0:0:0:
430,286,177030,1,2,0:2:0:0:
467,313,177128,1,0,0:0:0:0:
429,357,177226,1,0,0:0:0:0:
491,384,177324,1,0,0:0:0:0:
256,192,178206,12,0,179677,0:0:0:0:
239,148,179775,6,0,L|233:122,1,26.2500010013581,0|0,3:2|3:2,0:0:0:0:
256,192,179971,6,0,L|250:217,1,26.2500010013581,0|0,3:2|3:2,0:0:0:0:
248,84,180167,6,0,L|252:49,1,35,2|0,3:2|3:2,0:0:0:0:
210,280,180363,6,0,L|214:314,1,35,0|0,3:2|3:2,0:0:0:0:
167,172,180560,6,0,P|165:132|172:55,1,83.9999974365235,6|0,3:2|0:0,0:0:0:0:
146,208,180854,2,0,P|146:228|142:252,1,41.9999987182618,2|10,0:0|0:3,0:0:0:0:
138,268,181049,1,2,0:0:0:0:
80,115,181246,2,0,P|77:156|66:206,1,83.9999974365235,2|0,0:0|0:0,0:0:0:0:
65,216,181540,1,2,0:0:0:0:
106,350,181736,1,10,0:3:0:0:
8,149,181932,1,2,0:0:0:0:
9,319,182128,1,0,3:0:0:0:
157,225,182323,1,2,0:0:0:0:
157,225,182422,2,0,P|177:224|201:222,1,41.9999987182618,2|10,0:0|0:3,0:0:0:0:
246,218,182618,1,2,0:0:0:0:
389,267,182813,2,0,L|476:260,1,83.9999974365235,2|8,0:0|0:0,0:0:0:0:
472,260,183107,1,0,0:0:0:0:
504,262,183304,1,10,0:3:0:0:
282,278,183500,2,0,L|234:281,1,41.9999987182618,2|0,0:0|0:0,0:0:0:0:
334,173,183696,6,0,P|330:131|329:89,1,83.9999974365235,2|2,3:2|0:0,0:0:0:0:
299,358,183990,2,0,P|299:336|299:316,1,41.9999987182618,2|10,0:0|0:3,0:0:0:0:
297,268,184186,1,2,0:0:0:0:
161,180,184383,2,0,P|164:138|165:96,1,83.9999974365235,2|0,0:0|0:0,0:0:0:0:
166,70,184676,1,2,0:0:0:0:
116,276,184872,1,10,0:3:0:0:
176,383,185068,1,2,0:0:0:0:
18,353,185264,1,2,3:2:0:0:
268,291,185460,1,2,0:0:0:0:
268,291,185558,2,0,P|288:290|313:288,1,41.9999987182618,2|10,0:0|0:3,0:0:0:0:
361,283,185755,1,2,0:0:0:0:
456,371,185950,2,0,P|415:369|372:360,1,83.9999974365235,2|8,0:0|0:0,0:0:0:0:
337,354,186244,1,0,0:0:0:0:
512,354,186441,1,10,0:3:0:0:
292,352,186637,2,0,P|272:343|253:335,1,41.9999987182618,2|0,0:2|0:0,0:0:0:0:
227,84,186833,6,0,P|234:42|238:0,1,83.9999974365235,2|0,3:2|0:0,0:0:0:0:
237,230,187226,2,0,P|244:271|248:313,1,83.9999974365235,10|0,0:3|0:0,0:0:0:0:
159,171,187618,2,0,P|117:178|75:182,1,83.9999974365235,2|0,3:2|0:0,0:0:0:0:
313,145,188010,2,0,P|354:137|396:133,1,83.9999974365235,10|2,0:3|0:0,0:0:0:0:
278,245,188402,6,0,L|283:289,1,41.9999987182618,2|0,3:2|0:0,0:0:0:0:
208,89,188598,2,0,L|202:45,1,41.9999987182618
251,162,188794,1,10,0:3:0:0:
194,219,188990,1,2,0:0:0:0:
241,293,189186,1,0,3:0:0:0:
241,293,189285,1,8,0:0:0:0:
241,293,189383,1,0,0:0:0:0:
196,355,189579,1,10,0:3:0:0:
215,384,189775,1,2,0:0:0:0:
85,202,189970,6,0,P|88:137|102:69,1,125.999996154785,2|0,3:2|0:0,0:0:0:0:
112,36,190362,1,10,0:3:0:0:
77,122,190559,2,0,P|37:133|-1:151,1,83.9999974365235,2|0,0:0|3:0,0:0:0:0:
241,162,190951,1,2,0:0:0:0:
204,197,191049,1,0,0:0:0:0:
245,231,191147,1,10,0:3:0:0:
210,271,191245,1,0,0:0:0:0:
269,281,191343,2,0,P|309:292|350:309,1,83.9999974365235,2|2,0:0|3:2,0:0:0:0:
366,161,191735,1,0,0:0:0:0:
366,161,191833,1,0,0:0:0:0:
366,161,191931,2,0,L|347:36,1,125.999996154785,10|8,0:3|0:0,0:0:0:0:
342,0,192323,5,8,0:0:0:0:
376,207,192519,1,0,3:0:0:0:
342,0,192715,1,10,0:3:0:0:
376,207,192912,2,0,L|384:252,1,41.9999987182618,8|0,0:2|0:0,0:0:0:0:
369,28,193108,6,0,P|367:68|374:145,1,83.9999974365235,6|0,3:2|0:0,0:0:0:0:
379,165,193402,2,0,P|379:185|375:209,1,41.9999987182618,2|10,0:2|0:3,0:0:0:0:
351,235,193598,1,2,0:2:0:0:
384,301,193794,2,0,P|381:342|370:392,1,83.9999974365235,2|0,0:2|0:0,0:0:0:0:
319,380,194088,1,2,0:2:0:0:
465,284,194284,1,10,0:3:0:0:
305,217,194480,1,2,0:2:0:0:
174,319,194676,1,2,3:2:0:0:
121,261,194873,1,2,0:0:0:0:
121,261,194970,2,0,L|118:217,1,41.9999987182618,2|10,0:0|0:3,0:0:0:0:
114,183,195167,1,2,0:0:0:0:
201,248,195363,2,0,P|240:240|292:236,1,83.9999974365235,2|8,0:0|0:2,0:0:0:0:
326,239,195657,1,0,0:0:0:0:
229,91,195853,5,10,0:3:0:0:
175,101,195951,1,2,0:2:0:0:
121,113,196049,1,2,3:2:0:0:
74,128,196147,1,2,0:2:0:0:
26,162,196245,6,0,P|66:166|123:173,1,83.9999974365235,6|2,3:2|0:0,0:0:0:0:
158,172,196539,2,0,L|214:157,1,41.9999987182618,2|10,0:0|0:3,0:0:0:0:
231,148,196736,1,2,0:0:0:0:
414,178,196932,2,0,P|374:182|317:189,1,83.9999974365235,2|0,0:0|0:0,0:0:0:0:
283,195,197225,1,2,0:0:0:0:
464,152,197421,1,10,0:3:0:0:
241,202,197617,1,2,0:2:0:0:
470,225,197813,5,2,3:2:0:0:
429,296,198009,1,2,0:2:0:0:
429,296,198107,2,0,L|433:343,1,41.9999987182618,2|10,0:0|0:3,0:0:0:0:
439,384,198304,1,2,0:0:0:0:
192,211,198499,2,0,P|145:221|101:225,1,83.9999974365235,2|8,0:0|0:0,0:0:0:0:
64,229,198793,1,0,0:0:0:0:
342,211,198990,2,0,P|362:212|383:213,1,41.9999987182618,10|0,0:3|0:0,0:0:0:0:
195,215,199186,2,0,P|174:216|153:217,1,41.9999987182618,2|0,0:2|0:0,0:0:0:0:
271,295,199382,6,0,P|275:336|280:378,1,83.9999974365235,2|2,3:2|0:2,0:0:0:0:
271,222,199774,1,10,0:3:0:0:
195,215,199971,2,0,P|154:219|112:224,1,83.9999974365235,2|0,0:0|3:0,0:0:0:0:
254,143,200363,2,0,P|250:102|245:60,1,83.9999974365235,2|10,0:0|0:3,0:0:0:0:
341,199,200755,2,0,P|382:195|424:190,1,83.9999974365235,2|0,0:0|3:0,0:0:0:0:
271,295,201147,2,0,P|275:336|280:378,1,83.9999974365235,2|10,0:0|0:3,0:0:0:0:
153,143,201539,6,0,P|114:127|72:124,1,83.9999974365235,2|0,0:0|3:0,0:0:0:0:
23,137,201833,1,8,0:0:0:0:
0,185,201931,1,2,0:0:0:0:
23,232,202030,1,0,0:0:0:0:
69,252,202128,1,10,0:3:0:0:
125,242,202226,1,0,0:0:0:0:
158,227,202324,1,0,0:0:0:0:
196,231,202422,1,0,0:0:0:0:
250,217,202519,6,0,L|241:133,1,83.9999974365235,2|2,3:2|0:2,0:0:0:0:
227,102,202814,1,2,0:2:0:0:
220,82,202912,1,10,0:3:0:0:
339,197,203108,1,2,0:2:0:0:
368,214,203206,1,2,0:2:0:0:
379,247,203304,1,2,3:2:0:0:
319,305,203500,1,2,0:2:0:0:
319,120,203696,5,10,0:3:0:0:
343,116,203794,1,2,0:2:0:0:
358,65,203892,1,2,0:2:0:0:
395,69,203990,1,2,0:2:0:0:
449,52,204088,6,0,P|479:31|521:-4,1,83.9999974365235,0|2,3:0|0:2,0:0:0:0:
256,192,205657,5,6,3:2:0:0:
96,256,206441,1,10,0:0:0:0:
160,318,206736,1,2,0:0:0:0:
105,360,207030,1,2,3:2:0:0:
80,343,207226,6,0,L|87:387,1,35,2|0,3:2|0:0,0:0:0:0:
356,323,208010,5,2,3:2:0:0:
356,323,208108,1,2,3:2:0:0:
412,281,208304,1,10,0:0:0:0:
348,219,208501,1,2,3:2:0:0:
425,161,208696,1,0,3:0:0:0:
425,161,208794,2,0,L|432:117,1,35,2|0,3:2|0:0,0:0:0:0:
512,0,209186,5,8,0:0:0:0:
512,0,209383,1,2,3:2:0:0:
439,29,209579,6,0,L|369:37,1,70,2|8,3:2|0:0,0:0:0:0:
271,56,209873,2,0,L|274:90,2,35,2|0|8,3:2|0:0|0:0,0:0:0:0:
192,62,210167,2,0,L|195:96,1,35,2|0,3:2|0:0,0:0:0:0:
199,133,210363,1,2,3:2:0:0:
105,215,210559,1,0,0:0:0:0:
111,261,210657,1,2,0:0:0:0:
228,377,210951,1,2,3:2:0:0:
292,287,211245,1,8,0:0:0:0:
292,287,211343,1,0,3:0:0:0:
206,206,211539,2,0,P|190:174|166:96,1,105,8|0,0:0|0:0,0:0:0:0:
121,89,211932,6,0,P|91:85|51:90,1,70,6|0,3:2|0:0,0:0:0:0:
0,104,212226,1,10,0:0:0:0:
0,104,212324,1,0,3:0:0:0:
227,45,212520,2,0,P|262:54|296:60,1,70,10|0,0:0|3:0,0:0:0:0:
385,129,212912,1,2,0:2:0:0:
354,155,213010,1,10,0:2:0:0:
389,193,213108,1,2,3:2:0:0:
349,228,213206,1,2,0:2:0:0:
374,275,213304,1,10,0:2:0:0:
304,342,213500,6,0,P|274:345|234:340,1,70,2|0,3:2|0:0,0:0:0:0:
183,327,213794,1,10,0:2:0:0:
183,327,213892,1,0,3:0:0:0:
411,291,214088,2,0,P|445:282|479:276,1,70,10|0,0:0|3:0,0:0:0:0:
304,228,214480,1,2,0:0:0:0:
396,149,214676,1,2,3:2:0:0:
330,89,214872,1,10,0:0:0:0:
351,70,215069,6,0,L|359:0,2,70,0|0|0,3:0|3:0|3:2,0:0:0:0:
271,145,215657,1,8,3:2:0:0:
351,261,215853,1,0,3:0:0:0:
223,337,216049,1,0,3:0:0:0:
142,203,216245,1,0,3:0:0:0:
312,144,216441,1,8,0:0:0:0:
293,377,216637,5,2,3:2:0:0:
282,280,217030,2,0,B|279:243|279:243|276:238|276:238|253:216,1,70,2|2,0:0|0:0,0:0:0:0:
195,173,217618,1,2,0:0:0:0:
160,138,217716,2,0,L|169:103,1,35,2|2,0:0|0:0,0:0:0:0:
211,40,218108,2,0,L|201:11,1,17.5,2|0,0:0|0:0,0:0:0:0:
