osu file format v14

[General]
AudioFilename: audio.mp3
AudioLeadIn: 0
PreviewTime: 60858
Countdown: 0
SampleSet: Soft
StackLeniency: 0.4
Mode: 0
LetterboxInBreaks: 0
WidescreenStoryboard: 1

[Editor]
Bookmarks: 224166
DistanceSpacing: 1
BeatDivisor: 4
GridSize: 32
TimelineZoom: 0.9999999

[Metadata]
Title:Mirai Isho
TitleUnicode:未来遺書
Artist:PHAZE
ArtistUnicode:PHAZE
Creator:KaedeharaKazuha
Version:Normal
Source:
Tags:Addy2607 Kaedehara Kazuha Kyouren gokugohan12468 KittyAdventure FA featured artist japanese rock jrock j-rock vrchat mappers' guild mg mpg showcase
BeatmapID:4262415
BeatmapSetID:1989072

[Difficulty]
HPDrainRate:4
CircleSize:3
OverallDifficulty:5
ApproachRate:6
SliderMultiplier:1.1
SliderTickRate:1

[Events]
//Background and Video events
0,0,"BG.jpg",0,0
//Break Periods
2,22520,29885
2,141751,147885
2,158935,176808
2,198366,201885
//Storyboard Layer 0 (Background)
//Storyboard Layer 1 (Fail)
//Storyboard Layer 2 (Pass)
//Storyboard Layer 3 (Foreground)
//Storyboard Layer 4 (Overlay)
//Storyboard Sound Samples

[TimingPoints]
167,307.692307692308,4,2,1,40,1,0
1859,-105.263157894737,4,2,1,40,0,0
2474,-105.263157894737,4,2,1,50,0,0
2628,307.692307692308,4,2,1,50,1,0
2628,-105.263157894737,4,2,1,50,0,0
12474,-100,4,2,1,60,0,0
17628,-100,4,2,1,5,0,0
17704,-100,4,2,1,60,0,0
17935,-100,4,2,1,5,0,0
18012,-100,4,2,1,60,0,0
18243,-100,4,2,1,5,0,0
18320,-100,4,2,1,60,0,0
19858,-105.263157894737,4,2,1,40,0,0
20781,-105.263157894737,4,2,1,40,0,0
22320,-105.263157894737,4,2,1,50,0,0
32166,-100,4,2,1,60,0,0
42012,-100,4,2,1,70,0,0
51858,-105.263157894737,4,2,1,50,0,0
56166,-105.263157894737,4,2,1,50,0,0
56781,-100,4,2,1,60,0,0
59243,-100,4,2,1,70,0,0
60935,-100,4,2,1,50,0,0
61551,-95.2380952380952,4,2,1,80,0,1
76320,-95.2380952380952,4,2,1,80,0,1
79243,-95.2380952380952,4,2,1,30,0,1
79320,-95.2380952380952,4,2,1,34,0,1
79397,-95.2380952380952,4,2,1,38,0,1
79474,-95.2380952380952,4,2,1,42,0,1
79551,-95.2380952380952,4,2,1,46,0,1
79628,-95.2380952380952,4,2,1,50,0,1
79705,-95.2380952380952,4,2,1,54,0,1
79782,-95.2380952380952,4,2,1,58,0,1
79859,-95.2380952380952,4,2,1,62,0,1
79936,-95.2380952380952,4,2,1,66,0,1
80013,-95.2380952380952,4,2,1,70,0,1
80090,-95.2380952380952,4,2,1,74,0,1
80166,-100,4,2,1,80,0,0
81397,-105.263157894737,4,2,1,60,0,0
86551,-105.263157894737,4,2,1,5,0,0
86628,-105.263157894737,4,2,1,60,0,0
86858,-105.263157894737,4,2,1,5,0,0
86935,-105.263157894737,4,2,1,60,0,0
87166,-105.263157894737,4,2,1,5,0,0
87243,-105.263157894737,4,2,1,60,0,0
90628,-105.263157894737,4,2,1,30,0,0
90704,-105.263157894737,4,2,1,35,0,0
90781,-105.263157894737,4,2,1,40,0,0
90858,-105.263157894737,4,2,1,45,0,0
90935,-105.263157894737,4,2,1,50,0,0
91012,-105.263157894737,4,2,1,55,0,0
91089,-105.263157894737,4,2,1,60,0,0
91166,-105.263157894737,4,2,1,65,0,0
91243,-100,4,2,1,70,0,0
99858,-105.263157894737,4,2,2,50,0,0
109704,-105.263157894737,4,2,2,60,0,0
118935,-105.263157894737,4,2,0,60,0,0
119397,-100,4,2,1,70,0,0
129397,-105.263157894737,4,2,1,50,0,0
134320,-100,4,2,1,60,0,0
136781,-100,4,2,1,70,0,0
136858,-100,4,2,1,30,0,0
136935,-100,4,2,1,34,0,0
137012,-100,4,2,1,38,0,0
137089,-100,4,2,1,42,0,0
137166,-100,4,2,1,46,0,0
137243,-100,4,2,1,50,0,0
137320,-100,4,2,1,54,0,0
137397,-100,4,2,1,58,0,0
137474,-100,4,2,1,62,0,0
137551,-100,4,2,1,66,0,0
137628,-100,4,2,1,70,0,0
137705,-100,4,2,1,74,0,0
137781,-100,4,2,1,78,0,0
137858,-100,4,2,1,80,0,0
139089,-105.263157894737,4,2,1,60,0,0
151397,-105.263157894737,4,2,1,65,0,0
153858,-100,4,2,1,70,0,0
156320,-100,4,2,1,75,0,0
158166,-100,4,2,1,50,0,0
158935,-111.111111111111,4,2,1,40,0,0
177858,-100,4,2,1,60,0,0
178781,-100,4,2,1,5,0,0
178935,-100,4,2,1,60,0,0
179243,-95.2380952380952,4,2,1,70,0,0
180935,-95.2380952380952,4,2,1,80,0,1
183397,-95.2380952380952,4,2,1,60,0,0
184166,-95.2380952380952,4,2,1,80,0,1
184474,-95.2380952380952,4,2,1,40,0,1
184551,-95.2380952380952,4,2,1,50,0,1
184628,-95.2380952380952,4,2,1,60,0,1
184704,-95.2380952380952,4,2,1,70,0,1
184781,-95.2380952380952,4,2,1,60,0,0
185858,-95.2380952380952,4,2,1,80,0,1
198320,-100,4,2,1,50,0,0
203243,-105.263157894737,4,2,1,60,0,0
208166,-105.263157894737,4,2,1,60,0,0
208397,-105.263157894737,4,2,1,5,0,0
208473,-105.263157894737,4,2,1,60,0,0
208704,-105.263157894737,4,2,1,5,0,0
208781,-105.263157894737,4,2,1,60,0,0
209012,-105.263157894737,4,2,1,5,0,0
209089,-105.263157894737,4,2,1,60,0,0
212474,-105.263157894737,4,2,1,30,0,0
212550,-105.263157894737,4,2,1,35,0,0
212627,-105.263157894737,4,2,1,40,0,0
212704,-105.263157894737,4,2,1,45,0,0
212781,-105.263157894737,4,2,1,50,0,0
212858,-105.263157894737,4,2,1,55,0,0
212935,-105.263157894737,4,2,1,60,0,0
213012,-105.263157894737,4,2,1,65,0,0
213089,-100,4,2,1,70,0,0
218243,-100,4,2,1,5,0,0
218320,-100,4,2,1,70,0,0
218551,-100,4,2,1,5,0,0
218628,-100,4,2,1,70,0,0
218858,-100,4,2,1,5,0,0
218935,-100,4,2,1,70,0,0
220474,-105.263157894737,4,2,1,50,0,0
221397,-105.263157894737,4,2,1,50,0,0
222012,-105.263157894737,4,2,2,40,0,0
222628,-105.263157894737,4,2,1,30,0,0
223243,-105.263157894737,4,2,2,20,0,0
224166,-105.263157894737,4,2,1,5,0,0

[Colours]
Combo1 : 111,139,206
Combo2 : 165,205,218
Combo3 : 86,148,239
Combo4 : 182,223,243

[HitObjects]
475,318,1859,5,2,0:0:0:0:
475,318,2013,2,0,P|466:365|462:387,2,52.2499986047745,2|0|2,0:0|0:0|0:0,0:0:0:0:
429,292,2474,2,0,P|352:305|262:324,1,156.749995814324,6|2,3:2|0:0,0:0:0:0:
180,275,3243,1,0,0:0:0:0:
231,184,3551,2,0,P|257:179|285:173,1,52.2499986047745,2|0,0:0|0:0,0:0:0:0:
330,195,3858,2,0,P|382:184|435:175,1,104.499997209549,2|0,0:0|0:0,0:0:0:0:
484,166,4320,1,2,0:0:0:0:
504,63,4628,1,2,3:2:0:0:
402,38,4935,6,0,P|350:46|299:57,1,104.499997209549,2|0,3:2|0:0,0:0:0:0:
251,80,5397,2,0,P|221:58|246:-8,2,104.499997209549,2|0|2,0:3|0:0|0:3,0:0:0:0:
327,159,6320,1,0,0:0:0:0:
327,159,6474,2,0,P|354:153|382:147,2,52.2499986047745,2|2|0,0:0|0:0|3:0,0:0:0:0:
299,203,6935,2,0,P|305:230|311:258,2,52.2499986047745,10|0|10,0:0|3:0|0:0,0:0:0:0:
248,188,7397,6,0,P|196:196|145:207,1,104.499997209549,6|0,3:2|0:0,0:0:0:0:
94,218,7858,1,2,0:0:0:0:
7,159,8166,1,0,0:0:0:0:
42,60,8474,1,2,0:0:0:0:
144,76,8781,2,0,P|195:65|246:57,1,104.499997209549,2|0,0:0|0:0,0:0:0:0:
296,74,9243,2,0,P|324:102|384:87,1,104.499997209549,2|0,0:0|3:0,0:0:0:0:
425,58,9704,1,0,0:0:0:0:
425,58,9858,6,0,P|411:133|398:227,1,156.749995814324,2|2,3:2|0:3,0:0:0:0:
447,306,10628,1,0,0:0:0:0:
367,373,10935,1,2,0:3:0:0:
288,313,11243,1,2,0:0:0:0:
288,313,11397,2,0,P|283:276|280:250,2,52.2499986047745,2|2|2,0:0|0:0|0:0,0:0:0:0:
19,375,12474,6,0,P|8:299|1:248,1,110,6|8,3:2|0:0,0:0:0:0:
25,215,12935,1,2,3:2:0:0:
174,285,13397,2,0,P|238:293|272:208,1,165,6|0,3:2|0:0,0:0:0:0:
243,165,14012,1,8,0:0:0:0:
322,89,14320,2,0,P|359:97|392:106,2,55,10|8|4,0:0|0:0|0:3,0:0:0:0:
231,26,14935,6,0,P|197:31|165:42,1,55,14|0,0:0|3:0,0:0:0:0:
145,83,15243,1,0,3:0:0:0:
145,83,15397,2,0,P|83:96|54:53,1,110,14|0,0:0|3:0,0:0:0:0:
8,37,15858,2,0,P|25:107|45:211,1,165,14|8,0:0|0:0,0:0:0:0:
21,249,16474,1,8,0:0:0:0:
103,321,16781,2,0,P|144:328|177:338,1,55,8|8,0:0|0:0,0:0:0:0:
210,346,17089,1,8,0:3:0:0:
305,290,17397,6,0,P|359:304|394:260,2,110,10|8|4,0:0|0:3|0:3,0:0:0:0:
226,212,18320,2,0,P|222:167|201:49,1,165,6|0,3:2|0:0,0:0:0:0:
234,5,18935,1,10,0:0:0:0:
324,67,19243,2,0,P|331:104|335:141,2,55,10|8|4,0:0|0:0|0:3,0:0:0:0:
407,4,19858,6,0,P|451:45|526:-2,2,156.749995814324,2|2|2,0:0|0:0|0:0,0:0:0:0:
256,192,20935,12,2,22320,0:0:0:0:
359,131,30935,6,0,P|373:201|382:241,1,104.499997209549,2|10,3:2|0:0,0:0:0:0:
344,271,31397,1,8,0:3:0:0:
344,271,31551,2,0,P|310:265|273:259,1,52.2499986047745,10|10,3:2|3:2,0:0:0:0:
152,350,32166,6,0,P|106:372|54:334,1,110,6|8,3:2|0:0,0:0:0:0:
30,296,32628,2,0,P|26:243|11:172,1,110,2|2,0:0|3:2,0:0:0:0:
65,89,33243,1,2,0:0:0:0:
161,142,33551,1,2,3:2:0:0:
231,58,33858,1,2,0:0:0:0:
231,58,34012,2,0,P|226:26|219:-4,2,55,2|0|10,3:2|3:0|0:0,0:0:0:0:
336,89,34628,6,0,P|393:77|454:65,1,110,2|8,3:2|0:0,0:0:0:0:
490,95,35089,2,0,P|502:152|514:213,1,110,2|0,0:0|3:0,0:0:0:0:
485,251,35551,1,10,0:0:0:0:
382,230,35858,1,0,3:0:0:0:
382,230,36012,2,0,P|375:195|367:160,2,55,0|8|0,3:0|0:0|3:0,0:0:0:0:
316,318,36628,2,0,P|322:352|330:387,2,55,2|10|0,3:2|0:0|3:0,0:0:0:0:
284,272,37089,6,0,P|237:257|194:300,1,110,6|10,3:2|0:0,0:0:0:0:
167,341,37551,2,0,P|129:377|78:363,1,110,2|2,0:0|3:2,0:0:0:0:
18,270,38166,2,0,P|12:216|-5:150,1,110,2|2,0:0|3:2,0:0:0:0:
22,111,38628,1,10,0:0:0:0:
124,150,38935,2,0,P|132:184|136:219,1,55,2|0,3:2|3:0,0:0:0:0:
182,232,39243,2,0,P|216:223|251:219,1,55,10|0,0:0|0:0,0:0:0:0:
276,183,39551,5,0,3:0:0:0:
276,183,39704,1,0,3:0:0:0:
370,238,40012,1,0,3:0:0:0:
370,238,40166,1,0,3:0:0:0:
451,164,40474,2,0,P|448:122|447:94,1,55,8|0,0:0|3:0,0:0:0:0:
470,58,40781,6,0,P|442:20|383:27,1,110,10|8,0:0|0:0,0:0:0:0:
289,81,41397,2,0,P|247:74|222:73,1,55,8|8,0:0|0:3,0:0:0:0:
190,39,41704,1,4,0:3:0:0:
113,117,42012,6,0,P|58:107|25:106,2,82.5,6|0|0,3:2|3:0|3:0,0:0:0:0:
155,152,42628,1,8,0:0:0:0:
47,277,43089,1,0,3:0:0:0:
47,277,43243,2,0,P|24:320|49:362,2,82.5,2|0|0,3:2|3:0|3:0,0:0:0:0:
97,254,43858,1,10,0:0:0:0:
188,315,44166,1,0,0:0:0:0:
256,228,44474,6,0,P|251:179|245:138,2,82.5,4|0|0,3:2|3:0|3:0,0:0:0:0:
300,260,45089,1,8,0:0:0:0:
383,188,45397,1,0,0:0:0:0:
486,223,45704,2,0,P|493:292|501:350,1,110,2|2,3:2|0:0,0:0:0:0:
457,367,46166,1,0,3:0:0:0:
457,367,46320,2,0,P|387:374|329:382,1,110,10|0,0:0|0:0,0:0:0:0:
249,328,46935,6,0,P|195:333|151:339,2,82.5,4|0|0,3:2|3:0|3:0,0:0:0:0:
289,290,47551,1,8,0:0:0:0:
195,161,48012,1,0,3:0:0:0:
195,161,48166,2,0,P|141:166|97:172,2,82.5,2|0|0,3:2|3:0|3:0,0:0:0:0:
236,124,48781,1,10,0:0:0:0:
328,184,49089,1,0,0:0:0:0:
411,112,49397,6,0,P|401:67|433:34,2,82.5,4|0|0,3:2|3:0|3:0,0:0:0:0:
450,150,50012,2,0,P|438:203|430:258,1,110,8|0,0:0|0:0,0:0:0:0:
465,362,50628,2,0,P|411:350|356:342,1,110
257,295,51243,1,0,0:0:0:0:
174,368,51551,1,0,0:0:0:0:
85,313,51858,6,0,P|82:250|56:98,1,208.999994419098,2|0,0:0|0:0,0:0:0:0:
124,25,52781,2,0,B|168:-11|231:49|196:64|260:125|313:74,1,208.999994419098,2|0,0:0|0:0,0:0:0:0:
496,8,54012,1,2,0:0:0:0:
456,104,54320,6,0,P|471:173|490:262,1,156.749995814324,2|0,0:0|0:0,0:0:0:0:
439,349,55089,1,0,0:0:0:0:
337,324,55397,2,0,P|322:255|303:166,1,156.749995814324,2|0,0:0|0:0,0:0:0:0:
135,46,56474,1,2,0:0:0:0:
51,117,56781,6,0,P|63:176|76:236,1,110,6|0,3:2|3:0,0:0:0:0:
29,257,57243,2,0,P|-3:296|21:350,1,110,2|2,3:2|3:2,0:0:0:0:
123,373,57858,2,0,P|176:361|242:353,1,110,2|0,3:2|3:0,0:0:0:0:
282,373,58320,1,2,3:2:0:0:
356,292,58628,1,0,3:0:0:0:
285,207,58935,1,4,3:2:0:0:
190,263,59243,6,0,P|135:270|81:282,1,110,6|0,3:2|3:0,0:0:0:0:
27,271,59704,2,0,P|-13:238|11:174,1,110,10|10,0:0|0:0,0:0:0:0:
71,104,60320,1,10,3:2:0:0:
171,160,60628,1,10,3:2:0:0:
171,160,60781,1,8,3:2:0:0:
423,18,61551,6,0,P|479:7|506:113,1,173.24999471283,4|10,3:1|0:0,0:0:0:0:
424,168,62320,2,0,P|398:170|363:182,1,57.7499982376099,0|0,3:0|3:0,0:0:0:0:
313,200,62628,1,10,0:0:0:0:
217,135,62935,2,0,P|151:130|86:109,1,115.49999647522,2|8,3:2|0:0,0:0:0:0:
46,123,63397,2,0,P|3:153|16:218,1,115.49999647522,6|2,3:2|3:2,0:0:0:0:
52,256,63858,1,10,0:0:0:0:
52,256,64012,6,0,P|118:261|183:282,1,115.49999647522,4|0,3:2|3:0,0:0:0:0:
217,300,64474,1,12,0:0:0:0:
297,217,64781,1,0,3:0:0:0:
209,140,65089,1,10,0:0:0:0:
281,50,65397,1,2,3:2:0:0:
281,50,65551,2,0,P|327:41|357:30,2,57.7499982376099,2|10|0,3:2|0:0|0:0,0:0:0:0:
235,14,66012,2,0,P|189:5|159:-6,1,57.7499982376099,8|8,0:3|0:3,0:0:0:0:
124,5,66320,1,4,0:3:0:0:
124,5,66474,6,0,P|79:27|96:98,1,115.49999647522,6|2,3:2|3:2,0:0:0:0:
117,130,66935,1,10,0:0:0:0:
32,208,67243,2,0,P|38:250|40:273,1,57.7499982376099,0|0,3:0|3:0,0:0:0:0:
46,323,67551,1,10,0:0:0:0:
147,376,67858,2,0,P|207:361|276:354,1,115.49999647522,2|10,3:2|0:0,0:0:0:0:
318,348,68320,2,0,P|345:318|319:248,1,115.49999647522,6|0,3:2|3:0,0:0:0:0:
280,225,68781,1,10,0:0:0:0:
280,225,68935,6,0,P|253:195|279:125,1,115.49999647522,6|0,3:2|3:0,0:0:0:0:
320,96,69397,1,12,0:0:0:0:
428,56,69704,2,0,P|425:17|422:-11,2,57.7499982376099,0|0|8,3:0|3:0|0:0,0:0:0:0:
480,92,70166,1,0,3:0:0:0:
480,92,70320,2,0,P|483:131|486:159,1,57.7499982376099,8|0,0:0|3:0,0:0:0:0:
493,207,70628,1,8,0:0:0:0:
431,304,70935,2,0,P|434:343|437:371,2,57.7499982376099,2|2|2,3:2|0:0|3:2,0:0:0:0:
386,266,71397,6,0,P|335:243|289:288,1,115.49999647522,8|2,0:0|3:2,0:0:0:0:
266,328,71858,1,10,0:0:0:0:
174,257,72166,1,0,3:2:0:0:
98,344,72474,1,10,0:0:0:0:
15,263,72781,2,0,P|9:210|-3:141,1,115.49999647522,2|10,3:2|0:0,0:0:0:0:
0,90,73243,2,0,P|32:51|109:77,1,115.49999647522,2|0,0:0|3:0,0:0:0:0:
136,93,73704,1,10,0:0:0:0:
227,16,74012,6,0,P|284:10|341:1,1,115.49999647522,2|8,3:2|0:0,0:0:0:0:
395,23,74474,2,0,P|400:80|409:137,1,115.49999647522,2|0,0:0|3:0,0:0:0:0:
393,195,74935,1,10,0:0:0:0:
393,195,75089,2,0,P|335:200|278:209,1,115.49999647522,2|0,0:0|3:0,0:0:0:0:
222,225,75551,1,12,0:0:0:0:
127,158,75858,1,2,3:2:0:0:
36,229,76166,1,8,0:0:0:0:
36,229,76320,6,0,P|-6:268|18:328,1,115.49999647522,6|2,3:2|3:2,0:0:0:0:
108,384,76935,1,0,3:0:0:0:
108,384,77089,1,10,0:0:0:0:
211,332,77397,1,0,0:0:0:0:
211,332,77551,2,0,P|266:335|327:353,1,115.49999647522,2|2,3:2|3:2,0:0:0:0:
431,308,78166,1,0,3:0:0:0:
431,308,78320,2,0,P|466:301|501:299,2,57.7499982376099,10|0|14,0:0|3:0|0:0,0:0:0:0:
389,276,78781,1,0,0:0:0:0:
389,276,78935,5,0,3:0:0:0:
446,175,79243,1,8,0:0:0:0:
372,85,79551,1,8,0:0:0:0:
264,126,79858,1,8,0:0:0:0:
185,49,80166,1,0,0:0:0:0:
185,49,81397,6,0,P|103:63|65:74,1,104.499997209549,4|0,3:2|0:0,0:0:0:0:
33,85,81858,1,6,3:2:0:0:
40,241,82320,2,0,P|142:212|246:196,1,208.999994419098,6|0,3:2|0:0,0:0:0:0:
302,109,83243,2,0,P|297:79|292:54,1,52.2499986047745,10|8,0:0|0:3,0:0:0:0:
320,12,83551,1,4,0:3:0:0:
416,52,83858,6,0,P|426:116|437:169,1,104.499997209549,6|8,3:2|0:0,0:0:0:0:
456,202,84320,2,0,P|488:220|473:298,1,104.499997209549,6|8,3:2|0:0,0:0:0:0:
454,319,84781,2,0,P|462:362|464:382,2,52.2499986047745,6|2|2,3:2|0:3|0:3,0:0:0:0:
406,296,85243,2,0,P|361:297|242:321,1,156.749995814324,4|0,3:2|0:0,0:0:0:0:
186,236,86012,1,2,0:0:0:0:
263,165,86320,6,0,P|297:164|386:140,2,104.499997209549,6|10|4,3:2|0:0|0:3,0:0:0:0:
191,89,87243,2,0,P|155:26|33:62,1,208.999994419098,6|10,3:2|0:0,0:0:0:0:
1,149,88166,2,0,P|10:196|14:221,1,52.2499986047745,2|8,0:0|0:3,0:0:0:0:
0,251,88474,1,4,0:3:0:0:
92,298,88781,6,0,P|143:288|206:280,1,104.499997209549,14|0,0:0|3:0,0:0:0:0:
241,304,89243,2,0,P|246:342|249:366,2,52.2499986047745,14|0|0,0:0|3:0|3:0,0:0:0:0:
276,266,89704,2,0,P|307:229|284:175,1,104.499997209549,14|0,0:0|0:0,0:0:0:0:
209,113,90320,1,2,0:0:0:0:
259,21,90628,2,0,P|294:17|317:14,1,52.2499986047745,8|8,0:0|0:0,0:0:0:0:
362,8,90935,1,8,0:0:0:0:
467,38,91243,6,0,P|475:115|482:165,1,110,6|8,3:2|0:0,0:0:0:0:
486,201,91704,1,2,3:2:0:0:
424,292,92012,1,0,3:0:0:0:
424,292,92166,2,0,P|364:240|281:276,1,165,10|0,0:0|3:0,0:0:0:0:
255,308,92781,1,8,0:0:0:0:
178,229,93089,2,0,P|175:194|170:169,2,55,2|0|10,3:2|3:0|0:0,0:0:0:0:
98,305,93704,6,0,P|102:332|104:359,2,55,6|2|10,3:2|3:2|0:0,0:0:0:0:
51,274,94166,1,2,3:2:0:0:
72,166,94474,2,0,P|70:138|65:111,1,55,0|10,3:0|0:0,0:0:0:0:
85,60,94781,2,0,P|139:53|255:28,1,165,6|8,3:2|0:0,0:0:0:0:
340,88,95551,2,0,P|372:80|404:76,2,55,8|0|8,0:0|3:0|0:0,0:0:0:0:
275,177,96166,6,0,P|280:203|283:231,2,55,12|0|0,0:0|0:0|0:0,0:0:0:0:
233,140,96628,1,12,0:0:0:0:
161,64,96935,1,0,3:0:0:0:
161,64,97089,2,0,P|167:38|171:10,2,55,12|0|0,0:0|3:0|3:0,0:0:0:0:
122,103,97551,1,12,0:0:0:0:
70,201,97858,1,0,3:0:0:0:
70,201,98012,2,0,P|32:194|-3:230,2,82.5,10|10|10,3:2|3:2|3:2,0:0:0:0:
70,201,99858,6,0,P|63:147|54:78,1,104.499997209549,2|2,3:0|0:3,0:0:0:0:
74,47,100320,2,0,P|113:31|162:78,1,104.499997209549,2|0,3:0|0:0,0:0:0:0:
255,105,100935,2,0,P|312:95|382:89,2,104.499997209549,0|2|2,0:0|3:0|3:0,0:0:0:0:
201,196,101858,1,2,0:3:0:0:
201,196,102012,2,0,P|167:200|133:204,1,52.2499986047745,2|2,0:3|3:0,0:0:0:0:
104,174,102320,6,0,P|55:195|48:247,1,104.499997209549,2|2,3:0|0:3,0:0:0:0:
11,280,102781,2,0,P|25:329|90:342,1,104.499997209549,2|0,3:0|0:0,0:0:0:0:
120,323,103243,1,0,0:0:0:0:
120,323,103397,1,0,0:0:0:0:
223,333,103704,2,0,P|232:382|234:409,2,52.2499986047745,2|2|2,3:0|0:3|3:0,0:0:0:0:
277,243,104320,1,0,0:0:0:0:
277,243,104474,1,0,0:0:0:0:
197,175,104781,6,0,P|189:119|177:65,1,104.499997209549,2|2,3:0|0:3,0:0:0:0:
212,31,105243,2,0,P|267:23|321:11,1,104.499997209549,2|0,3:0|0:0,0:0:0:0:
406,62,105858,2,0,P|457:68|489:13,2,104.499997209549,2|2|2,0:3|3:0|3:0,0:0:0:0:
332,136,106781,1,2,0:3:0:0:
332,136,106935,1,2,0:3:0:0:
415,199,107243,6,0,P|422:260|432:323,1,104.499997209549,2|2,3:0|0:3,0:0:0:0:
399,345,107704,1,2,3:0:0:0:
311,288,108012,1,0,0:0:0:0:
232,357,108320,2,0,P|189:366|124:385,2,104.499997209549,2|2|2,0:3|3:0|3:0,0:0:0:0:
460,230,109704,6,0,P|480:196|449:142,1,104.499997209549,2|2,3:0|0:3,0:0:0:0:
399,134,110166,2,0,P|345:142|292:157,1,104.499997209549,2|0,3:0|0:0,0:0:0:0:
221,83,110781,2,0,P|167:75|114:60,1,104.499997209549,0|2,0:0|3:0,0:0:0:0:
74,85,111243,1,2,0:3:0:0:
74,85,111397,1,2,3:0:0:0:
119,178,111704,2,0,P|150:182|181:191,2,52.2499986047745,2|2|2,0:3|0:3|3:0,0:0:0:0:
66,182,112166,6,0,P|23:218|39:272,1,104.499997209549,2|2,3:0|0:3,0:0:0:0:
7,309,112628,2,0,P|34:349|97:335,1,104.499997209549,2|0,3:0|0:0,0:0:0:0:
135,374,113089,1,0,0:0:0:0:
135,374,113243,1,0,0:0:0:0:
228,327,113551,2,0,P|223:296|218:270,2,52.2499986047745,2|2|2,3:0|0:3|3:0,0:0:0:0:
273,353,114012,2,0,P|298:348|324:344,1,52.2499986047745,8|0,0:0|0:0,0:0:0:0:
369,371,114320,1,0,0:0:0:0:
462,324,114628,6,0,P|491:282|464:232,1,104.499997209549,2|2,3:0|0:3,0:0:0:0:
428,206,115089,2,0,P|370:217|322:227,1,104.499997209549,2|0,3:0|0:0,0:0:0:0:
234,175,115704,1,2,0:3:0:0:
162,250,116012,1,2,3:0:0:0:
68,203,116320,2,0,P|64:160|51:96,1,104.499997209549,2|2,3:0|0:3,0:0:0:0:
39,49,116781,1,2,0:3:0:0:
139,76,117089,5,2,3:0:0:0:
223,14,117397,2,0,P|256:21|282:28,1,52.2499986047745,2|2,0:3|3:0,0:0:0:0:
324,40,117704,1,8,0:0:0:0:
426,61,118012,2,0,P|433:28|440:2,2,52.2499986047745,2|2|2,0:3|3:0|0:0,0:0:0:0:
426,61,119397,6,0,P|471:107|454:154,1,110,6|0,3:2|3:0,0:0:0:0:
424,187,119858,1,10,0:0:0:0:
319,153,120166,2,0,P|276:159|245:168,1,55,0|0,3:0|3:0,0:0:0:0:
216,135,120474,2,0,P|210:92|201:61,1,55,10|0,0:0|3:0,0:0:0:0:
192,27,120781,1,4,0:3:0:0:
84,1,121089,1,10,0:0:0:0:
19,90,121397,2,0,P|25:133|27:158,1,55,2|0,3:2|3:0,0:0:0:0:
6,195,121704,1,10,0:0:0:0:
84,279,122012,5,4,0:3:0:0:
84,279,122166,1,0,3:0:0:0:
168,208,122474,2,0,P|165:180|160:153,2,55,4|0|0,0:3|3:0|3:0,0:0:0:0:
216,234,122935,2,0,P|218:261|223:288,1,55,8|0,0:0|3:0,0:0:0:0:
228,343,123243,2,0,P|294:330|349:324,1,110,2|10,0:0|0:0,0:0:0:0:
445,314,123858,2,0,P|466:343|461:375,2,55,10|8|4,0:0|0:3|0:3,0:0:0:0:
418,265,124320,6,0,P|426:212|437:148,1,110,6|2,3:2|3:2,0:0:0:0:
381,60,124935,1,4,0:3:0:0:
381,60,125089,1,0,3:0:0:0:
277,96,125397,2,0,P|271:131|265:166,1,55,10|0,0:0|3:0,0:0:0:0:
295,197,125704,2,0,P|285:251|277:305,1,110,4|10,0:3|0:0,0:0:0:0:
230,330,126166,1,4,0:3:0:0:
230,330,126320,2,0,P|176:313|130:356,1,110,2|10,3:2|0:0,0:0:0:0:
36,384,126935,5,4,0:3:0:0:
36,384,127089,2,0,P|30:314|24:257,1,110,0|4,3:0|0:3,0:0:0:0:
21,223,127551,1,0,3:0:0:0:
21,223,127704,1,0,3:0:0:0:
83,132,128012,1,0,3:0:0:0:
83,132,128166,2,0,P|130:122|149:112,1,55,8|0,0:0|3:0,0:0:0:0:
186,96,128474,1,8,0:0:0:0:
291,126,128781,2,0,P|317:152|312:193,1,55,8|0,0:0|3:0,0:0:0:0:
311,223,129089,2,0,P|295:256|255:265,1,55,8|4,0:3|0:3,0:0:0:0:
228,258,129397,6,0,P|147:267|2:297,1,208.999994419098,2|0,0:0|0:0,0:0:0:0:
4,188,130320,2,0,P|106:166|209:154,1,208.999994419098,2|2,0:0|0:0,0:0:0:0:
384,39,131551,1,2,0:0:0:0:
472,93,131858,6,0,P|510:129|488:234,1,156.749995814324,2|2,0:0|0:0,0:0:0:0:
422,299,132628,1,0,0:0:0:0:
489,378,132935,2,0,P|446:358|324:340,1,156.749995814324,2|0,0:0|0:0,0:0:0:0:
133,377,134012,1,2,0:0:0:0:
45,309,134320,6,0,P|17:257|45:211,1,110,2|0,3:2|3:0,0:0:0:0:
91,199,134781,2,0,P|150:203|215:216,1,110,2|2,3:2|3:2,0:0:0:0:
284,141,135397,2,0,P|338:150|392:154,1,110,2|0,3:2|3:0,0:0:0:0:
447,159,135858,1,2,3:2:0:0:
505,252,136166,1,0,3:0:0:0:
441,341,136474,1,6,3:2:0:0:
337,303,136781,6,0,P|292:288|244:327,1,110,6|8,3:2|0:0,0:0:0:0:
209,365,137243,2,0,P|201:306|187:249,1,110,8|8,0:0|0:0,0:0:0:0:
149,154,137858,1,10,3:2:0:0:
200,56,138166,1,10,3:2:0:0:
308,75,138474,1,10,0:0:0:0:
331,182,138781,1,8,0:3:0:0:
431,209,139089,5,6,3:2:0:0:
256,192,139243,12,2,141551,3:0:0:0:
332,178,148935,6,0,P|382:183|495:206,1,156.749995814324,6|0,3:2|3:2,0:0:0:0:
479,99,149704,2,0,P|419:86|359:79,1,104.499997209549,2|0,3:2|3:0,0:0:0:0:
297,11,150320,1,2,3:2:0:0:
219,80,150628,1,0,3:0:0:0:
134,18,150935,1,10,0:0:0:0:
134,18,151089,1,2,3:2:0:0:
60,92,151397,6,0,P|72:155|87:256,1,156.749995814324,2|0,3:2|3:0,0:0:0:0:
65,349,152166,2,0,P|107:340|176:330,1,104.499997209549,10|0,0:0|3:0,0:0:0:0:
264,371,152781,1,2,3:2:0:0:
347,307,153089,1,0,3:0:0:0:
304,211,153397,2,0,P|257:217|242:221,2,52.2499986047745,10|2|8,0:0|3:2|0:0,0:0:0:0:
354,189,153858,6,0,P|378:148|341:96,1,110,6|0,3:2|0:0,0:0:0:0:
300,83,154320,1,0,3:0:0:0:
300,83,154474,2,0,P|229:97|184:104,1,110,2|2,0:0|0:0,0:0:0:0:
82,94,155089,2,0,P|96:165|103:210,1,110,2|2,0:0|0:0,0:0:0:0:
195,259,155704,2,0,P|201:296|208:333,2,55,2|8|0,0:0|0:0|3:0,0:0:0:0:
281,189,156320,6,0,P|334:199|389:208,1,110,2|0,3:2|0:0,0:0:0:0:
441,190,156781,1,0,3:0:0:0:
506,278,157089,2,0,P|500:305|496:332,1,55,8|0,3:2|0:0,0:0:0:0:
454,367,157397,1,8,3:2:0:0:
454,367,157551,1,0,3:0:0:0:
435,276,177858,5,2,0:0:0:0:
435,276,178012,2,0,P|476:267|498:264,2,55,2|0|2,0:0|0:0|0:0,0:0:0:0:
386,244,178474,2,0,P|332:219|265:284,1,165,2|2,0:0|0:0,0:0:0:0:
170,351,179243,2,0,P|103:356|41:376,1,115.49999647522,12|0,3:2|0:0,0:0:0:0:
18,334,179704,1,0,0:0:0:0:
18,334,179858,6,0,P|13:267|-7:205,1,115.49999647522,10|0,0:0|3:0,0:0:0:0:
25,168,180320,1,10,0:0:0:0:
117,237,180628,1,2,3:2:0:0:
218,182,180935,6,0,P|228:123|243:67,1,115.49999647522,4|0,3:2|3:0,0:0:0:0:
262,14,181397,1,12,0:0:0:0:
344,93,181704,2,0,P|335:139|333:165,2,57.7499982376099,0|0|8,3:0|3:0|0:0,0:0:0:0:
456,55,182320,1,0,3:0:0:0:
456,55,182474,2,0,P|459:26|466:-1,2,57.7499982376099,2|10|2,3:2|0:0|0:0,0:0:0:0:
485,104,182935,2,0,P|478:132|474:160,1,57.7499982376099,8|8,0:3|0:3,0:0:0:0:
506,216,183243,1,8,0:0:0:0:
506,216,183397,5,10,0:0:0:0:
257,362,184166,2,0,P|186:343|82:328,1,173.24999471283,4|8,3:2|0:0,0:0:0:0:
30,321,184781,1,2,0:0:0:0:
30,321,185858,6,0,P|15:251|53:224,1,115.49999647522,4|0,3:2|3:0,0:0:0:0:
96,204,186320,1,12,0:0:0:0:
56,95,186628,2,0,P|27:89|-1:86,2,57.7499982376099,0|0|10,3:0|3:0|0:0,0:0:0:0:
156,37,187243,2,0,P|204:31|275:15,1,115.49999647522,2|8,0:0|0:0,0:0:0:0:
326,42,187704,1,2,3:2:0:0:
326,42,187858,2,0,P|329:68|338:107,1,57.7499982376099,2|10,0:0|0:0,0:0:0:0:
301,147,188166,1,2,3:2:0:0:
301,147,188320,6,0,P|315:212|323:279,1,115.49999647522,0|2,3:2|3:2,0:0:0:0:
324,318,188781,1,10,0:0:0:0:
420,382,189089,1,0,3:0:0:0:
508,307,189397,2,0,P|501:274|497:241,1,57.7499982376099,10|0,0:0|0:0,0:0:0:0:
443,230,189704,2,0,P|406:197|429:140,1,115.49999647522,2|10,3:2|0:0,0:0:0:0:
476,111,190166,2,0,P|497:61|459:22,1,115.49999647522,2|0,0:0|3:0,0:0:0:0:
403,6,190628,1,10,0:0:0:0:
310,74,190935,6,0,P|264:76|194:93,1,115.49999647522,2|10,3:2|0:0,0:0:0:0:
146,62,191397,2,0,P|107:22|33:38,1,115.49999647522,2|0,0:0|3:0,0:0:0:0:
18,74,191858,1,8,0:0:0:0:
18,74,192012,2,0,P|30:137|40:201,1,115.49999647522,6|0,3:2|3:0,0:0:0:0:
65,305,192628,1,6,3:2:0:0:
65,305,192781,2,0,P|36:309|8:315,2,57.7499982376099,2|2|10,0:0|3:2|0:0,0:0:0:0:
114,334,193243,6,0,P|168:358|218:311,1,115.49999647522,6|0,3:2|3:0,0:0:0:0:
283,240,193858,1,2,3:2:0:0:
283,240,194012,2,0,P|317:245|347:250,2,57.7499982376099,10|0|0,0:0|3:0|0:0,0:0:0:0:
237,203,194474,2,0,P|231:152|220:83,1,115.49999647522,2|0,3:2|3:0,0:0:0:0:
314,20,195089,1,2,3:2:0:0:
314,20,195243,2,0,P|354:27|379:32,1,57.7499982376099,10|0,0:0|3:0,0:0:0:0:
429,14,195551,1,8,0:0:0:0:
429,14,195704,6,0,P|469:7|499:83,1,115.49999647522,6|2,3:2|3:2,0:0:0:0:
467,106,196166,1,10,0:0:0:0:
511,212,196474,1,0,3:0:0:0:
438,301,196781,1,8,0:0:0:0:
438,301,196935,6,0,P|384:289|303:278,1,115.49999647522,4|0,3:2|3:0,0:0:0:0:
276,313,197397,1,8,0:0:0:0:
191,234,197704,2,0,P|196:192|198:166,2,57.7499982376099,2|0|0,3:2|0:0|3:0,0:0:0:0:
149,275,198166,1,8,0:0:0:0:
460,264,202935,5,12,0:0:0:0:
384,336,203243,2,0,P|312:340|226:358,1,156.749995814324,6|6,3:2|3:2,0:0:0:0:
72,350,204166,2,0,P|10:313|42:189,1,208.999994419098,6|0,3:2|0:0,0:0:0:0:
94,109,205089,2,0,P|90:80|84:53,2,52.2499986047745,10|8|4,0:0|0:3|0:3,0:0:0:0:
187,156,205704,6,0,P|237:144|289:138,1,104.499997209549,6|8,3:2|0:0,0:0:0:0:
333,168,206166,2,0,P|366:197|433:172,1,104.499997209549,6|8,3:2|0:0,0:0:0:0:
474,184,206628,2,0,P|500:158|416:52,1,208.999994419098,6|8,3:2|0:0,0:0:0:0:
325,2,207551,1,8,0:0:0:0:
240,63,207858,2,0,P|203:69|176:75,1,52.2499986047745,2|0,0:0|0:0,0:0:0:0:
141,49,208166,5,6,3:2:0:0:
44,88,208474,1,10,0:0:0:0:
41,192,208781,1,4,0:3:0:0:
125,254,209089,2,0,P|177:244|231:241,1,104.499997209549,6|0,3:2|0:0,0:0:0:0:
311,304,209704,2,0,P|317:344|319:368,2,52.2499986047745,10|0|2,0:0|0:0|0:0,0:0:0:0:
341,261,210166,1,8,0:0:0:0:
341,261,210320,1,8,0:3:0:0:
399,174,210628,6,0,P|393:124|388:58,1,104.499997209549,14|0,0:0|3:0,0:0:0:0:
362,24,211089,2,0,P|327:-4|262:25,1,104.499997209549,14|0,0:0|3:0,0:0:0:0:
240,51,211551,2,0,P|188:98|70:31,1,208.999994419098,14|2,0:0|0:0,0:0:0:0:
0,120,212474,2,0,P|8:167|10:187,1,52.2499986047745,8|8,0:0|0:0,0:0:0:0:
3,223,212781,1,8,0:0:0:0:
17,332,213089,6,0,P|46:361|113:342,1,110,6|8,3:2|0:0,0:0:0:0:
146,307,213551,1,2,3:2:0:0:
243,368,213858,1,0,3:0:0:0:
243,368,214012,2,0,P|312:359|428:359,1,165,10|0,0:0|3:0,0:0:0:0:
458,336,214628,1,8,0:0:0:0:
378,260,214935,2,0,P|343:260|308:264,2,55,2|0|8,3:2|3:0|0:0,0:0:0:0:
452,178,215551,6,0,P|479:175|506:175,2,55,6|0|10,3:2|3:0|0:0,0:0:0:0:
409,143,216012,1,2,3:2:0:0:
331,65,216320,2,0,P|303:67|276:67,1,55,0|10,3:0|0:0,0:0:0:0:
228,95,216628,2,0,P|236:149|234:219,1,110,6|0,3:2|3:0,0:0:0:0:
228,258,217089,1,8,0:0:0:0:
144,330,217397,2,0,P|149:364|148:399,2,55,10|0|8,0:0|3:0|0:0,0:0:0:0:
41,290,218012,5,6,3:2:0:0:
5,185,218320,1,10,0:0:0:0:
74,99,218628,1,4,0:3:0:0:
180,123,218935,2,0,P|251:145|317:86,1,165,6|8,3:2|0:0,0:0:0:0:
328,37,219551,1,2,3:2:0:0:
428,80,219858,2,0,P|434:132|439:156,1,55,10|8,0:0|0:0,0:0:0:0:
474,172,220166,2,0,P|480:224|485:248,1,55,8|8,0:0|0:0,0:0:0:0:
458,274,220474,6,0,P|416:255|369:291,1,104.499997209549,2|0,0:0|0:0,0:0:0:0:
341,328,220935,2,0,P|299:347|252:311,1,104.499997209549,2|0,0:0|0:0,0:0:0:0:
238,266,221397,1,2,0:0:0:0:
256,192,221551,12,0,224166,0:0:0:0:
