osu file format v14

[General]
AudioFilename: audio.mp3
AudioLeadIn: 0
PreviewTime: 60858
Countdown: 0
SampleSet: Soft
StackLeniency: 0.4
Mode: 0
LetterboxInBreaks: 0
WidescreenStoryboard: 1

[Editor]
Bookmarks: 224166
DistanceSpacing: 1.4
BeatDivisor: 4
GridSize: 16
TimelineZoom: 0.9999999

[Metadata]
Title:Mirai Isho
TitleUnicode:未来遺書
Artist:PHAZE
ArtistUnicode:PHAZE
Creator:KaedeharaKazuha
Version:Hard
Source:
Tags:Addy2607 Kaedehara Kazuha Kyouren gokugohan12468 KittyAdventure FA featured artist japanese rock jrock j-rock vrchat mappers' guild mg mpg showcase
BeatmapID:4295650
BeatmapSetID:1989072

[Difficulty]
HPDrainRate:5
CircleSize:3.2
OverallDifficulty:6
ApproachRate:8
SliderMultiplier:1.3
SliderTickRate:1

[Events]
//Background and Video events
0,0,"BG.jpg",0,0
//Break Periods
2,22520,30185
2,158935,177108
2,198520,200647
//Storyboard Layer 0 (Background)
//Storyboard Layer 1 (Fail)
//Storyboard Layer 2 (Pass)
//Storyboard Layer 3 (Foreground)
//Storyboard Layer 4 (Overlay)
//Storyboard Sound Samples

[TimingPoints]
167,307.692307692308,4,2,1,40,1,0
1859,-111.111111111111,4,2,1,40,0,0
2474,-111.111111111111,4,2,1,50,0,0
2628,307.692307692308,4,2,1,50,1,0
2628,-111.111111111111,4,2,1,50,0,0
12474,-100,4,2,1,60,0,0
17628,-100,4,2,1,5,0,0
17704,-100,4,2,1,60,0,0
17935,-100,4,2,1,5,0,0
18012,-100,4,2,1,60,0,0
18243,-100,4,2,1,5,0,0
18320,-100,4,2,1,60,0,0
19858,-111.111111111111,4,2,1,40,0,0
20781,-111.111111111111,4,2,1,40,0,0
22320,-111.111111111111,4,2,1,50,0,0
32166,-100,4,2,1,60,0,0
42012,-111.111111111111,4,2,1,70,0,0
51858,-125,4,2,1,50,0,0
56166,-111.111111111111,4,2,1,50,0,0
56781,-100,4,2,1,60,0,0
59243,-100,4,2,1,70,0,0
60935,-100,4,2,1,50,0,0
61551,-90.9090909090909,4,2,1,80,0,1
76320,-90.9090909090909,4,2,1,80,0,1
79243,-90.9090909090909,4,2,1,30,0,1
79320,-90.9090909090909,4,2,1,34,0,1
79397,-90.9090909090909,4,2,1,38,0,1
79474,-90.9090909090909,4,2,1,42,0,1
79551,-90.9090909090909,4,2,1,46,0,1
79628,-90.9090909090909,4,2,1,50,0,1
79705,-90.9090909090909,4,2,1,54,0,1
79782,-90.9090909090909,4,2,1,58,0,1
79859,-90.9090909090909,4,2,1,62,0,1
79936,-90.9090909090909,4,2,1,66,0,1
80013,-90.9090909090909,4,2,1,70,0,1
80090,-90.9090909090909,4,2,1,74,0,1
80166,-100,4,2,1,80,0,0
81397,-111.111111111111,4,2,1,60,0,0
86551,-111.111111111111,4,2,1,5,0,0
86628,-111.111111111111,4,2,1,60,0,0
86858,-111.111111111111,4,2,1,5,0,0
86935,-111.111111111111,4,2,1,60,0,0
87166,-111.111111111111,4,2,1,5,0,0
87243,-111.111111111111,4,2,1,60,0,0
90628,-111.111111111111,4,2,1,30,0,0
90704,-111.111111111111,4,2,1,35,0,0
90781,-111.111111111111,4,2,1,40,0,0
90858,-111.111111111111,4,2,1,45,0,0
90935,-111.111111111111,4,2,1,50,0,0
91012,-111.111111111111,4,2,1,55,0,0
91089,-111.111111111111,4,2,1,60,0,0
91166,-111.111111111111,4,2,1,65,0,0
91243,-100,4,2,1,70,0,0
99858,-111.111111111111,4,2,2,50,0,0
109704,-111.111111111111,4,2,2,60,0,0
118935,-111.111111111111,4,2,0,60,0,0
119397,-100,4,2,1,70,0,0
129397,-125,4,2,1,50,0,0
133704,-111.111111111111,4,2,1,50,0,0
134320,-100,4,2,1,60,0,0
136781,-100,4,2,1,70,0,0
136858,-100,4,2,1,30,0,0
136935,-100,4,2,1,34,0,0
137012,-100,4,2,1,38,0,0
137089,-100,4,2,1,42,0,0
137166,-100,4,2,1,46,0,0
137243,-100,4,2,1,50,0,0
137320,-100,4,2,1,54,0,0
137397,-100,4,2,1,58,0,0
137474,-100,4,2,1,62,0,0
137551,-100,4,2,1,66,0,0
137628,-100,4,2,1,70,0,0
137705,-100,4,2,1,74,0,0
137781,-100,4,2,1,78,0,0
137858,-100,4,2,1,80,0,0
139089,-111.111111111111,4,2,1,60,0,0
151397,-111.111111111111,4,2,1,65,0,0
153858,-100,4,2,1,70,0,0
156320,-100,4,2,1,75,0,0
158166,-100,4,2,1,50,0,0
158935,-125,4,2,1,40,0,0
177858,-111.111111111111,4,2,1,60,0,0
178781,-111.111111111111,4,2,1,5,0,0
178935,-111.111111111111,4,2,1,60,0,0
179243,-100,4,2,1,70,0,0
180935,-90.9090909090909,4,2,1,80,0,1
183397,-90.9090909090909,4,2,1,60,0,0
184166,-90.9090909090909,4,2,1,80,0,1
184474,-90.9090909090909,4,2,1,40,0,1
184551,-90.9090909090909,4,2,1,50,0,1
184628,-90.9090909090909,4,2,1,60,0,1
184704,-90.9090909090909,4,2,1,70,0,1
184781,-90.9090909090909,4,2,1,60,0,0
185858,-90.9090909090909,4,2,1,80,0,1
198320,-100,4,2,1,50,0,0
203243,-111.111111111111,4,2,1,60,0,0
208166,-111.111111111111,4,2,1,60,0,0
208397,-111.111111111111,4,2,1,5,0,0
208473,-111.111111111111,4,2,1,60,0,0
208704,-111.111111111111,4,2,1,5,0,0
208781,-111.111111111111,4,2,1,60,0,0
209012,-111.111111111111,4,2,1,5,0,0
209089,-111.111111111111,4,2,1,60,0,0
212474,-111.111111111111,4,2,1,30,0,0
212550,-111.111111111111,4,2,1,35,0,0
212627,-111.111111111111,4,2,1,40,0,0
212704,-111.111111111111,4,2,1,45,0,0
212781,-111.111111111111,4,2,1,50,0,0
212858,-111.111111111111,4,2,1,55,0,0
212935,-111.111111111111,4,2,1,60,0,0
213012,-111.111111111111,4,2,1,65,0,0
213089,-100,4,2,1,70,0,0
218243,-100,4,2,1,5,0,0
218320,-100,4,2,1,70,0,0
218551,-100,4,2,1,5,0,0
218628,-100,4,2,1,70,0,0
218858,-100,4,2,1,5,0,0
218935,-100,4,2,1,70,0,0
220474,-111.111111111111,4,2,1,50,0,0
221397,-111.111111111111,4,2,1,50,0,0
222012,-111.111111111111,4,2,2,40,0,0
222628,-111.111111111111,4,2,1,30,0,0
223243,-111.111111111111,4,2,2,20,0,0
224166,-111.111111111111,4,2,1,5,0,0

[Colours]
Combo1 : 111,139,206
Combo2 : 165,205,218
Combo3 : 86,148,239
Combo4 : 182,223,243

[HitObjects]
6,287,1859,5,2,0:0:0:0:
6,287,2013,2,0,P|16:327|19:354,2,58.4999982147217,2|0|2,0:0|0:0|0:0,0:0:0:0:
50,218,2474,2,0,P|102:195|174:285,1,175.499994644165,6|2,3:2|0:0,0:0:0:0:
309,365,3243,2,0,P|359:358|430:352,1,116.999996429443,0|2,0:0|0:0,0:0:0:0:
490,302,3704,1,0,0:0:0:0:
451,229,3858,2,0,P|392:233|334:241,1,116.999996429443,2|0,0:0|0:0,0:0:0:0:
280,178,4320,1,2,0:0:0:0:
185,312,4628,1,2,3:2:0:0:
35,245,4935,6,0,P|26:179|1:64,1,175.499994644165,2|2,3:2|0:3,0:0:0:0:
165,96,5704,2,0,P|173:132|178:170,2,58.4999982147217,0|0|2,0:0|0:0|0:3,0:0:0:0:
213,30,6166,1,0,0:0:0:0:
213,30,6320,1,0,0:0:0:0:
337,136,6628,1,2,0:0:0:0:
480,57,6935,2,0,P|475:28|468:-1,2,58.4999982147217,10|0|10,0:0|3:0|0:0,0:0:0:0:
465,138,7397,6,0,P|475:184|488:268,1,116.999996429443,6|0,3:2|0:0,0:0:0:0:
445,324,7858,1,2,0:0:0:0:
284,289,8166,2,0,P|274:231|262:173,1,116.999996429443,0|2,0:0|0:0,0:0:0:0:
318,113,8628,1,0,0:0:0:0:
268,48,8781,2,0,P|220:88|172:71,1,116.999996429443,2|0,0:0|0:0,0:0:0:0:
110,18,9243,2,0,P|55:4|15:42,1,116.999996429443,2|0,0:0|3:0,0:0:0:0:
7,127,9704,1,0,0:0:0:0:
7,127,9858,6,0,P|21:196|38:312,1,175.499994644165,2|2,3:2|0:3,0:0:0:0:
179,380,10628,1,0,0:0:0:0:
265,241,10935,1,2,0:3:0:0:
421,290,11243,2,0,P|457:284|482:281,2,58.4999982147217,2|2|2,0:0|0:0|0:0,0:0:0:0:
383,362,11704,1,2,0:0:0:0:
383,362,12474,6,0,P|376:295|361:222,1,130,6|8,3:2|0:0,0:0:0:0:
410,155,12935,1,2,3:2:0:0:
410,155,13397,6,0,P|331:186|275:96,1,195,6|0,3:2|0:0,0:0:0:0:
214,39,14012,1,8,0:0:0:0:
153,107,14166,1,0,0:0:0:0:
72,63,14320,2,0,P|68:23|64:-3,1,65,10|8,0:0|0:0,0:0:0:0:
14,127,14628,2,0,P|18:159|21:191,1,65,4|0,0:3|0:0,0:0:0:0:
0,308,14935,5,14,0:0:0:0:
71,372,15089,1,0,3:0:0:0:
71,372,15243,1,0,3:0:0:0:
145,319,15397,2,0,P|220:327|289:349,1,130,14|0,0:0|3:0,0:0:0:0:
285,347,15781,1,0,3:0:0:0:
297,349,15858,6,0,P|350:339|363:207,1,195,14|8,0:0|0:0,0:0:0:0:
283,238,16474,1,8,0:0:0:0:
186,97,16781,1,8,0:0:0:0:
186,97,16858,1,8,0:0:0:0:
186,97,16935,1,8,0:0:0:0:
224,14,17089,1,8,0:3:0:0:
310,42,17243,5,4,0:3:0:0:
310,42,17320,1,4,0:3:0:0:
310,42,17397,2,0,P|366:32|413:19,1,97.5,10|0,0:0|0:0,0:0:0:0:
419,18,17704,2,0,P|429:74|442:121,1,97.5,8|0,0:3|0:0,0:0:0:0:
449,120,18012,1,4,0:3:0:0:
504,293,18320,6,0,P|470:234|353:244,1,195,6|0,3:2|0:0,0:0:0:0:
290,304,18935,1,10,0:0:0:0:
290,304,19089,1,8,0:0:0:0:
215,251,19243,2,0,P|211:212|206:178,1,65,10|8,0:0|0:0,0:0:0:0:
266,116,19551,2,0,P|261:83|258:51,1,65,4|4,0:3|0:3,0:0:0:0:
186,12,19858,6,0,P|145:61|91:51,1,116.999996429443,2|0,0:0|0:0,0:0:0:0:
94,137,20320,2,0,P|31:125|12:74,1,116.999996429443,2|0,0:0|0:0,0:0:0:0:
32,2,20781,1,2,0:0:0:0:
256,192,20858,12,2,22320,0:0:0:0:
85,91,30935,6,0,P|91:126|97:167,1,58.4999982147217,2|0,3:2|0:0,0:0:0:0:
175,136,31243,2,0,P|170:107|165:78,1,58.4999982147217,10|8,0:0|0:3,0:0:0:0:
171,69,31474,1,8,0:3:0:0:
177,59,31551,1,10,3:2:0:0:
252,90,31704,1,10,3:2:0:0:
391,3,32012,5,0,0:0:0:0:
464,56,32166,2,0,P|468:106|486:198,1,130,6|8,3:2|0:0,0:0:0:0:
442,267,32628,2,0,P|391:279|356:293,1,65,2|0,0:0|3:0,0:0:0:0:
293,251,32935,2,0,P|281:200|267:165,1,65,2|8,3:2|0:0,0:0:0:0:
330,113,33243,6,0,P|320:82|313:50,1,65,2|0,0:0|3:0,0:0:0:0:
237,0,33551,1,2,3:2:0:0:
75,78,33858,1,2,0:0:0:0:
75,78,34012,2,0,P|43:84|12:94,2,65,2|0|10,3:2|3:0|0:0,0:0:0:0:
152,126,34474,1,0,0:0:0:0:
90,193,34628,6,0,P|63:234|95:308,1,130,2|8,3:2|0:0,0:0:0:0:
40,381,35089,2,0,P|96:353|178:349,1,130,2|0,0:0|3:0,0:0:0:0:
251,384,35551,1,10,0:0:0:0:
251,384,35704,1,0,0:0:0:0:
412,299,36012,6,0,P|414:262|418:223,1,65,0|8,3:0|0:0,0:0:0:0:
436,144,36320,2,0,P|402:188|325:156,1,130,0|2,0:0|3:2,0:0:0:0:
281,107,36781,1,10,0:0:0:0:
281,107,36935,1,0,3:0:0:0:
201,187,37089,6,0,P|209:234|218:325,1,130,6|10,3:2|0:0,0:0:0:0:
127,332,37551,2,0,P|120:267|110:203,1,130,2|2,0:0|3:2,0:0:0:0:
40,153,38012,1,8,0:0:0:0:
40,153,38166,6,0,P|2:100|49:43,1,130,2|2,0:0|3:2,0:0:0:0:
111,6,38628,1,10,0:0:0:0:
273,86,38935,2,0,P|270:121|268:155,2,65,2|0|10,3:2|3:0|0:0,0:0:0:0:
343,27,39397,1,0,0:0:0:0:
409,97,39551,5,0,3:0:0:0:
409,97,39704,2,0,P|406:132|404:166,1,65,0|8,3:0|0:0,0:0:0:0:
476,226,40012,1,0,3:0:0:0:
476,226,40166,1,0,3:0:0:0:
340,347,40474,2,0,P|305:344|271:342,1,65,8|0,0:0|3:0,0:0:0:0:
264,351,40704,1,0,3:0:0:0:
255,359,40781,6,0,P|188:354|104:353,1,130,10|8,0:0|0:0,0:0:0:0:
57,290,41243,1,0,3:0:0:0:
130,236,41397,2,0,P|172:236|215:240,2,65,8|8|4,0:0|0:3|0:3,0:0:0:0:
22,94,42012,6,0,P|-6:64|16:8,2,87.7499973220826,6|0|0,3:2|3:0|3:0,0:0:0:0:
91,138,42628,1,8,0:0:0:0:
234,56,42935,1,0,0:0:0:0:
234,56,43089,1,0,3:0:0:0:
293,112,43243,6,0,P|287:174|284:237,1,116.999996429443,2|2,3:2|0:0,0:0:0:0:
227,288,43704,1,0,3:0:0:0:
227,288,43858,1,10,0:0:0:0:
365,375,44166,1,0,0:0:0:0:
495,275,44474,6,0,P|517:247|497:192,2,87.7499973220826,4|0|0,3:2|3:0|3:0,0:0:0:0:
421,311,45089,1,8,0:0:0:0:
268,365,45397,1,0,0:0:0:0:
268,365,45551,1,0,0:0:0:0:
197,317,45704,6,0,P|200:258|205:184,1,116.999996429443,2|2,3:2|0:0,0:0:0:0:
271,149,46166,1,0,3:0:0:0:
271,149,46320,2,0,P|298:106|263:41,1,116.999996429443,10|0,0:0|0:0,0:0:0:0:
112,28,46935,6,0,P|61:22|9:18,2,87.7499973220826,4|0|0,3:2|3:0|3:0,0:0:0:0:
162,93,47551,1,8,0:0:0:0:
46,209,47858,1,0,0:0:0:0:
46,209,48012,1,0,3:0:0:0:
99,271,48166,2,0,P|156:279|214:289,1,116.999996429443,2|2,3:2|0:0,0:0:0:0:
270,357,48628,1,0,3:0:0:0:
270,357,48781,1,10,0:0:0:0:
396,252,49089,1,0,0:0:0:0:
304,116,49397,6,0,P|280:71|307:24,2,87.7499973220826,4|0|0,3:2|3:0|3:0,0:0:0:0:
378,149,50012,2,0,L|421:142,3,29.2499991073609,8|0|0|0,0:0|0:0|0:0|0:0,0:0:0:0:
426,141,50320,2,0,L|469:134,3,29.2499991073609
497,169,50628,6,0,L|504:212,3,29.2499991073609
487,232,50936,2,0,L|494:275,3,29.2499991073609
506,291,51243,2,0,P|448:282|415:332,1,116.999996429443
348,368,51704,1,0,0:0:0:0:
348,368,51858,6,0,P|282:357|134:346,1,208,2|0,0:0|0:0,0:0:0:0:
138,200,52781,2,0,P|204:211|352:222,1,208,2|0,0:0|0:0,0:0:0:0:
345,222,54012,1,2,0:0:0:0:
481,267,54320,6,0,P|485:187|497:108,1,156,2|0,0:0|0:0,0:0:0:0:
395,8,55089,1,0,0:0:0:0:
264,72,55397,2,0,P|174:78|136:17,1,156,2|0,0:0|0:0,0:0:0:0:
138,31,56474,1,2,0:0:0:0:
28,5,56628,5,8,0:0:0:0:
28,5,56704,1,8,0:0:0:0:
28,5,56781,2,0,P|38:72|47:152,1,130,6|0,3:2|3:0,0:0:0:0:
17,221,57243,2,0,P|14:266|41:288,1,65,2|0,3:2|3:0,0:0:0:0:
115,261,57551,2,0,P|117:215|90:193,1,65,2|0,3:2|3:0,0:0:0:0:
84,344,57858,6,0,P|146:347|239:365,1,130,2|0,3:2|3:0,0:0:0:0:
294,315,58320,1,2,3:2:0:0:
294,315,58474,1,0,3:0:0:0:
359,378,58628,1,0,3:0:0:0:
494,256,58935,2,0,P|497:215|503:180,1,65,4|8,3:2|0:0,0:0:0:0:
512,86,59243,6,0,P|493:133|415:138,1,130,6|0,3:2|3:0,0:0:0:0:
354,79,59704,1,10,0:0:0:0:
282,135,59858,1,0,3:0:0:0:
339,219,60012,1,10,0:0:0:0:
339,219,60089,1,8,0:0:0:0:
339,219,60166,1,0,3:0:0:0:
272,280,60320,5,10,3:2:0:0:
136,158,60628,1,10,3:2:0:0:
136,158,60781,1,8,3:2:0:0:
68,219,60935,1,2,0:0:0:0:
68,219,61089,2,0,P|76:262|81:292,2,65,2|2|2,0:0|0:0|0:0,0:0:0:0:
6,127,61551,6,0,P|85:139|158:152,1,143.000004364014,4|0,3:1|3:0,0:0:0:0:
226,89,62012,2,0,P|284:77|357:62,1,107.25000327301,10|0,0:0|0:0,0:0:0:0:
341,58,62320,1,0,3:0:0:0:
425,112,62474,1,0,3:0:0:0:
364,192,62628,2,0,P|328:246|354:293,1,107.25000327301,10|0,0:0|0:0,0:0:0:0:
410,326,62935,6,0,P|352:329|246:360,1,143.000004364014,2|8,3:2|0:0,0:0:0:0:
172,374,63397,2,0,P|168:338|161:303,1,71.5000021820069,6|0,3:2|0:0,0:0:0:0:
218,222,63704,1,2,3:2:0:0:
218,222,63858,1,10,0:0:0:0:
109,168,64012,6,0,P|63:136|89:55,1,143.000004364014,4|0,3:2|3:0,0:0:0:0:
93,52,64397,1,0,3:0:0:0:
105,48,64474,2,0,P|156:53|235:66,1,107.25000327301,12|0,0:0|0:0,0:0:0:0:
223,64,64781,1,0,3:0:0:0:
297,131,64935,1,0,3:0:0:0:
382,77,65089,6,0,P|387:33|394:-5,1,71.5000021820069,10|0,0:0|0:0,0:0:0:0:
491,22,65397,2,0,P|485:57|481:92,1,71.5000021820069,2|2,3:2|3:2,0:0:0:0:
422,175,65704,1,10,0:0:0:0:
481,255,65858,1,0,0:0:0:0:
421,335,66012,2,0,L|429:381,2,35.7500010910034,8|8|8,0:3|0:3|0:3,0:0:0:0:
330,292,66320,1,4,0:3:0:0:
229,359,66474,6,0,P|150:369|64:387,1,143.000004364014,6|2,3:2|3:2,0:0:0:0:
17,310,66935,2,0,P|10:256|-1:198,1,107.25000327301,10|0,0:0|0:0,0:0:0:0:
5,190,67243,1,0,3:0:0:0:
97,229,67397,1,0,3:0:0:0:
183,179,67551,2,0,P|188:138|196:95,1,71.5000021820069,10|0,0:0|0:0,0:0:0:0:
232,11,67858,6,0,P|201:62|119:46,1,143.000004364014,2|10,3:2|0:0,0:0:0:0:
30,20,68320,2,0,P|81:51|65:133,1,143.000004364014,6|0,3:2|3:0,0:0:0:0:
0,195,68781,1,10,0:0:0:0:
91,281,68935,6,0,P|155:268|256:257,1,143.000004364014,6|0,3:2|3:0,0:0:0:0:
241,265,69320,1,0,3:0:0:0:
250,272,69397,2,0,P|296:305|350:272,1,107.25000327301,12|0,0:0|0:0,0:0:0:0:
349,277,69704,1,0,3:0:0:0:
430,334,69858,1,0,3:0:0:0:
497,260,70012,6,0,P|503:212|509:175,1,71.5000021820069,8|0,0:0|3:0,0:0:0:0:
419,137,70320,2,0,P|424:101|428:66,1,71.5000021820069,8|0,0:0|3:0,0:0:0:0:
351,0,70628,1,8,0:0:0:0:
284,73,70781,1,2,3:2:0:0:
200,17,70935,2,0,L|152:9,3,35.7500010910034,2|0|2|0,3:2|0:0|0:0|0:0,0:0:0:0:
103,62,71243,2,0,L|55:70,3,35.7500010910034,2|0|8|8,3:2|0:0|0:0|0:0,0:0:0:0:
3,17,71551,6,0,P|18:99|30:176,1,143.000004364014,6|10,3:2|0:0,0:0:0:0:
7,357,72166,1,0,3:2:0:0:
7,357,72320,1,0,3:2:0:0:
102,326,72474,2,0,P|153:336|220:358,1,107.25000327301,10|0,0:0|0:0,0:0:0:0:
222,354,72781,6,0,P|268:328|244:241,1,143.000004364014,2|10,3:2|0:0,0:0:0:0:
179,182,73243,2,0,P|133:156|157:69,1,143.000004364014,2|0,0:0|3:0,0:0:0:0:
218,8,73704,1,10,0:0:0:0:
218,8,73858,1,2,0:3:0:0:
303,60,74012,6,0,P|373:47|458:30,1,143.000004364014,2|8,3:2|0:0,0:0:0:0:
457,132,74474,2,0,P|386:145|316:158,1,143.000004364014,2|0,0:0|3:0,0:0:0:0:
223,121,74935,1,10,0:0:0:0:
158,197,75089,1,2,0:0:0:0:
79,134,75243,6,0,P|81:91|85:53,2,71.5000021820069,0|0|12,3:0|3:0|0:0,0:0:0:0:
7,203,75704,1,2,0:0:0:0:
71,279,75858,1,2,3:2:0:0:
10,357,76012,1,0,3:0:0:0:
10,357,76089,1,0,3:0:0:0:
10,357,76166,1,8,0:0:0:0:
85,278,76320,6,0,P|150:285|230:303,1,143.000004364014,6|2,3:2|3:2,0:0:0:0:
420,349,76935,2,0,L|413:395,2,35.7500010910034,0|0|10,3:0|3:0|0:0,0:0:0:0:
505,295,77243,1,0,3:0:0:0:
432,225,77397,1,0,0:0:0:0:
507,159,77551,6,0,P|533:113|470:45,1,143.000004364014,2|2,3:2|3:2,0:0:0:0:
302,129,78166,2,0,L|348:141,2,35.7500010910034,0|0|10,3:0|3:0|0:0,0:0:0:0:
276,35,78474,1,0,3:0:0:0:
181,31,78628,1,14,0:0:0:0:
147,120,78781,1,0,0:0:0:0:
221,180,78935,5,0,3:0:0:0:
221,180,79243,6,0,L|211:240,3,35.7500010910034,8|8|8|8,0:0|0:0|0:0|0:0,0:0:0:0:
254,247,79551,2,0,L|264:307,3,35.7500010910034,8|8|8|8,0:0|0:0|0:0|0:0,0:0:0:0:
190,322,79858,2,0,L|180:382,3,35.7500010910034,8|8|8|8,0:0|0:0|0:0|0:0,0:0:0:0:
194,366,80166,5,0,0:0:0:0:
194,366,81397,6,0,P|251:353|326:342,1,116.999996429443,4|0,3:2|0:0,0:0:0:0:
383,377,81858,1,6,3:2:0:0:
383,377,82320,6,0,P|340:279|445:226,1,233.999992858887,6|0,3:2|0:0,0:0:0:0:
432,222,83243,2,0,P|477:229|514:236,2,58.4999982147217,10|8|4,0:0|0:3|0:3,0:0:0:0:
399,146,83704,1,4,0:3:0:0:
325,219,83858,6,0,P|257:228|191:245,1,116.999996429443,6|8,3:2|0:0,0:0:0:0:
128,254,84320,2,0,P|119:186|102:120,1,116.999996429443,6|8,3:2|0:0,0:0:0:0:
146,66,84781,2,0,P|139:37|135:8,2,58.4999982147217,6|2|2,3:2|0:3|0:3,0:0:0:0:
216,109,85243,1,4,3:2:0:0:
216,109,86012,5,2,0:0:0:0:
270,47,86166,1,0,0:0:0:0:
344,80,86320,2,0,P|400:70|447:57,1,87.7499973220826,6|0,3:2|0:0,0:0:0:0:
442,59,86627,2,0,P|452:115|465:162,1,87.7499973220826,10|0,0:0|0:0,0:0:0:0:
469,153,86935,1,4,0:3:0:0:
506,312,87243,6,0,P|443:297|317:272,1,175.499994644165,6|0,3:2|0:0,0:0:0:0:
275,331,87858,1,10,0:0:0:0:
275,331,88012,1,0,0:0:0:0:
212,277,88166,2,0,P|208:237|202:206,1,58.4999982147217,2|8,0:0|0:3,0:0:0:0:
253,152,88474,2,0,P|248:123|245:93,1,58.4999982147217,4|0,0:3|0:0,0:0:0:0:
156,24,88781,6,0,P|112:31|76:33,1,58.4999982147217,14|0,0:0|3:0,0:0:0:0:
20,47,89089,1,0,3:0:0:0:
20,47,89243,2,0,P|27:91|29:127,1,58.4999982147217,14|0,0:0|3:0,0:0:0:0:
100,155,89551,1,0,3:0:0:0:
100,156,89704,6,0,P|112:242|129:330,1,175.499994644165,14|0,0:0|0:0,0:0:0:0:
67,383,90320,1,2,0:0:0:0:
145,238,90628,6,0,L|194:246,3,29.2499991073609,8|8|8|8,0:0|0:0|0:0|0:0,0:0:0:0:
220,221,90935,2,0,L|269:229,3,29.2499991073609,8|8|8|8,0:0|0:0|0:0|0:0,0:0:0:0:
284,260,91243,6,0,P|346:253|367:324,1,130,6|8,3:2|0:0,0:0:0:0:
427,378,91704,1,2,3:2:0:0:
427,378,92012,1,0,3:0:0:0:
500,324,92166,6,0,P|509:247|520:176,1,130,10|0,0:0|0:0,0:0:0:0:
456,125,92628,1,0,3:0:0:0:
387,183,92781,1,8,0:0:0:0:
387,183,92935,1,0,0:0:0:0:
322,119,93089,2,0,P|327:70|332:38,1,65,2|0,3:2|3:0,0:0:0:0:
237,46,93397,2,0,P|232:78|229:110,1,65,10|0,0:0|0:0,0:0:0:0:
260,249,93704,6,0,P|262:216|267:184,2,65,6|2|10,3:2|3:2|0:0,0:0:0:0:
190,308,94166,1,2,3:2:0:0:
110,352,94320,2,0,P|107:374|104:397,2,32.5,8|8|0,0:0|0:0|3:0,0:0:0:0:
57,276,94628,1,10,0:0:0:0:
7,200,94781,6,0,P|3:132|-5:50,1,130,6|0,3:2|3:0,0:0:0:0:
63,6,95243,1,8,0:0:0:0:
63,6,95397,1,0,3:0:0:0:
127,78,95551,1,8,0:0:0:0:
127,78,95705,1,0,3:0:0:0:
188,11,95858,1,8,0:0:0:0:
389,93,96166,6,0,P|437:81|467:73,2,65,12|0|0,0:0|0:0|0:0,0:0:0:0:
319,152,96628,2,0,P|271:140|241:132,2,65,12|0|0,0:0|3:0|3:0,0:0:0:0:
398,196,97089,2,0,P|446:184|476:176,2,65,12|0|0,0:0|3:0|3:0,0:0:0:0:
328,255,97551,2,0,P|280:243|250:235,2,65,12|0|0,0:0|3:0|3:0,0:0:0:0:
402,306,98012,2,0,P|472:288|516:276,2,97.5,10|10|10,3:2|3:2|3:2,0:0:0:0:
402,306,99858,6,0,P|411:236|420:169,1,116.999996429443,2|2,3:0|0:3,0:0:0:0:
483,140,100320,2,0,P|510:112|489:45,1,116.999996429443,2|0,3:0|0:0,0:0:0:0:
330,0,100935,1,0,0:0:0:0:
242,138,101243,1,2,3:0:0:0:
152,7,101551,1,2,3:0:0:0:
152,7,101704,1,8,0:0:0:0:
79,45,101858,2,0,L|17:34,2,58.4999982147217,2|2|2,0:3|0:3|3:0,0:0:0:0:
125,113,102320,6,0,P|154:169|122:220,1,116.999996429443,2|2,3:0|0:3,0:0:0:0:
54,239,102781,2,0,P|25:295|57:346,1,116.999996429443,2|0,3:0|0:0,0:0:0:0:
131,361,103243,1,0,0:0:0:0:
131,361,103397,2,0,P|187:350|254:343,1,116.999996429443,0|2,0:0|3:0,0:0:0:0:
320,378,103858,1,2,0:3:0:0:
390,335,104012,2,0,L|402:381,1,29.2499991073609,2|2,3:0|3:0,0:0:0:0:
387,326,104781,6,0,P|393:275|404:204,1,116.999996429443,2|2,3:0|0:3,0:0:0:0:
354,143,105243,2,0,P|317:122|263:178,1,116.999996429443,2|0,3:0|0:0,0:0:0:0:
170,297,105858,2,0,P|133:318|79:262,1,116.999996429443,2|2,0:3|3:0,0:0:0:0:
37,206,106320,1,2,0:3:0:0:
37,206,106474,2,0,P|34:149|24:76,1,116.999996429443,2|2,3:0|0:3,0:0:0:0:
68,21,106935,1,2,0:3:0:0:
68,21,107089,1,2,3:0:0:0:
132,71,107243,6,0,P|184:107|238:68,1,116.999996429443,2|2,3:0|0:3,0:0:0:0:
284,27,107704,1,2,3:0:0:0:
419,119,108012,1,0,0:0:0:0:
340,263,108320,2,0,P|270:271|211:286,1,116.999996429443,2|2,0:3|3:0,0:0:0:0:
150,246,108781,1,2,0:3:0:0:
104,314,108935,2,0,L|113:358,1,29.2499991073609,2|2,3:0|3:0,0:0:0:0:
96,311,109551,5,0,0:0:0:0:
16,261,109704,2,0,P|12:200|3:132,1,116.999996429443,2|2,3:0|0:3,0:0:0:0:
50,75,110166,2,0,P|111:71|179:62,1,116.999996429443,2|0,3:0|0:0,0:0:0:0:
230,11,110628,1,0,0:0:0:0:
230,11,110781,2,0,P|288:3|346:0,1,116.999996429443,0|2,0:0|3:0,0:0:0:0:
416,53,111243,1,2,0:3:0:0:
416,53,111397,1,2,3:0:0:0:
353,203,111704,2,0,P|356:231|358:261,2,58.4999982147217,2|2|2,0:3|0:3|3:0,0:0:0:0:
291,148,112166,6,0,P|249:117|186:143,1,116.999996429443,2|2,3:0|0:3,0:0:0:0:
117,98,112628,2,0,P|69:118|60:186,1,116.999996429443,2|0,3:0|0:0,0:0:0:0:
28,257,113089,1,0,0:0:0:0:
28,257,113243,2,0,P|80:259|154:274,1,116.999996429443,0|2,0:0|3:0,0:0:0:0:
191,337,113704,1,2,0:3:0:0:
265,302,113858,2,0,P|284:306|311:312,2,29.2499991073609,2|2|8,3:0|3:0|0:0,0:0:0:0:
219,231,114166,1,0,0:0:0:0:
219,231,114320,1,0,0:0:0:0:
290,83,114628,6,0,P|342:81|416:66,1,116.999996429443,2|2,3:0|0:3,0:0:0:0:
473,115,115089,2,0,P|475:167|490:241,1,116.999996429443,2|0,3:0|0:0,0:0:0:0:
439,298,115551,1,2,0:3:0:0:
439,298,115704,2,0,P|387:300|313:315,1,116.999996429443,2|2,0:3|3:0,0:0:0:0:
255,275,116166,1,2,0:3:0:0:
255,275,116319,2,0,P|197:286|139:289,1,116.999996429443,2|2,3:0|0:3,0:0:0:0:
1,198,116935,1,2,3:0:0:0:
44,128,117089,6,0,P|40:93|35:66,1,58.4999982147217,2|2,3:0|0:3,0:0:0:0:
92,9,117397,2,0,P|121:6|149:0,1,58.4999982147217,2|2,0:3|3:0,0:0:0:0:
221,41,117704,2,0,P|225:76|230:103,1,58.4999982147217,8|2,0:0|0:3,0:0:0:0:
186,169,118012,1,2,0:3:0:0:
241,229,118166,1,2,3:0:0:0:
238,241,118243,1,2,3:0:0:0:
235,253,118320,1,2,0:0:0:0:
235,253,118935,6,0,P|270:248|301:244,2,58.4999982147217,2|2|0,0:3|0:3|0:0,0:0:0:0:
218,343,119397,2,0,P|294:332|362:323,1,130,6|0,3:2|3:0,0:0:0:0:
426,369,119858,1,10,0:0:0:0:
495,310,120012,1,4,0:3:0:0:
495,310,120089,1,4,0:3:0:0:
495,310,120166,2,0,P|500:256|504:237,1,65,0|0,3:0|3:0,0:0:0:0:
465,167,120474,1,10,0:0:0:0:
465,167,120628,1,0,3:0:0:0:
386,211,120781,6,0,P|333:204|307:203,1,65,4|0,0:3|3:0,0:0:0:0:
260,134,121089,2,0,P|267:81|268:55,1,65,10|4,0:0|0:3,0:0:0:0:
260,60,121320,1,4,0:3:0:0:
252,52,121397,2,0,P|219:49|187:44,1,65,2|0,3:2|3:0,0:0:0:0:
107,0,121704,1,10,0:0:0:0:
8,154,122012,5,4,0:3:0:0:
8,154,122166,2,0,P|19:219|25:295,1,130,0|4,3:0|0:3,0:0:0:0:
20,295,122552,1,4,0:3:0:0:
15,305,122628,1,0,3:0:0:0:
78,368,122781,1,0,3:0:0:0:
135,297,122935,1,8,0:0:0:0:
135,297,123089,1,0,3:0:0:0:
202,357,123243,6,0,P|233:349|265:346,1,65,2|0,0:0|3:0,0:0:0:0:
351,380,123551,2,0,P|383:376|414:369,1,65,10|0,0:0|3:0,0:0:0:0:
480,305,123858,1,10,0:0:0:0:
414,241,124012,1,8,0:3:0:0:
470,169,124166,1,4,0:3:0:0:
401,61,124320,6,0,P|331:54|270:40,1,130,6|2,3:2|3:2,0:0:0:0:
190,3,124781,1,8,0:0:0:0:
115,49,124935,1,4,0:3:0:0:
115,49,125012,1,4,0:3:0:0:
115,49,125089,2,0,P|77:84|110:164,1,130,0|10,3:0|0:0,0:0:0:0:
158,219,125551,1,0,3:0:0:0:
232,167,125704,6,0,P|277:161|306:154,1,65,4|0,0:3|3:0,0:0:0:0:
375,202,126012,2,0,P|406:195|439:191,1,65,10|4,0:0|0:3,0:0:0:0:
449,198,126243,1,4,0:3:0:0:
458,206,126320,2,0,P|465:237|469:269,1,65,2|0,3:2|3:0,0:0:0:0:
429,352,126628,1,10,0:0:0:0:
254,321,126935,5,4,0:3:0:0:
254,321,127089,2,0,P|191:328|114:347,1,130,0|4,3:0|0:3,0:0:0:0:
40,375,127551,2,0,P|36:341|26:301,1,65,0|0,3:0|3:0,0:0:0:0:
83,238,127858,2,0,P|75:206|72:174,1,65,8|0,0:0|3:0,0:0:0:0:
4,111,128166,5,8,0:0:0:0:
4,111,128320,1,0,3:0:0:0:
42,28,128474,1,8,0:0:0:0:
42,28,128628,1,0,3:0:0:0:
121,70,128781,2,0,P|152:62|184:59,1,65,8|0,0:0|3:0,0:0:0:0:
262,10,129089,2,0,P|294:6|325:0,1,65,8|4,0:3|0:3,0:0:0:0:
394,50,129397,6,0,P|439:60|477:1,2,104,2|0|0,0:0|0:0|0:0,0:0:0:0:
281,142,130320,2,0,P|295:231|301:356,1,208,2|2,0:0|0:0,0:0:0:0:
301,348,131551,1,2,0:0:0:0:
445,365,131858,6,0,P|434:298|430:204,1,156,2|2,0:0|0:0,0:0:0:0:
511,88,132628,1,0,0:0:0:0:
389,7,132935,2,0,B|333:19|333:19|311:50|311:50|245:65,1,156,2|0,0:0|0:0,0:0:0:0:
252,63,134012,1,2,0:0:0:0:
146,19,134166,5,8,0:0:0:0:
146,19,134243,1,8,0:0:0:0:
146,19,134320,2,0,P|74:15|54:74,1,130,2|0,3:2|3:0,0:0:0:0:
22,145,134781,2,0,P|34:202|37:231,1,65,2|0,3:2|3:0,0:0:0:0:
124,190,135089,2,0,P|112:133|109:104,1,65,2|0,3:2|3:0,0:0:0:0:
97,275,135397,6,0,P|165:287|241:306,1,130,2|0,3:2|3:0,0:0:0:0:
304,258,135858,1,2,3:2:0:0:
304,258,136012,1,0,3:0:0:0:
250,184,136166,1,0,3:0:0:0:
350,32,136474,2,0,P|384:25|423:16,1,65,6|8,3:2|0:0,0:0:0:0:
502,35,136781,6,0,P|490:106|483:178,1,130,6|8,3:2|0:0,0:0:0:0:
509,251,137243,2,0,P|504:289|498:326,1,65,8|8,0:0|0:0,0:0:0:0:
416,352,137551,2,0,P|412:379|408:405,2,32.5,8|8|8,0:0|0:0|0:0,0:0:0:0:
340,300,137858,5,10,3:2:0:0:
183,382,138166,1,10,3:2:0:0:
101,225,138474,1,10,3:2:0:0:
258,143,138781,1,10,3:2:0:0:
229,268,139089,5,6,3:2:0:0:
256,192,139166,12,2,141243,3:0:0:0:
256,192,141551,5,2,3:0:0:0:
256,192,141628,12,0,143089,0:0:0:0:
256,192,143397,6,0,L|261:234,2,29.2499991073609,0|0|8,3:0|3:0|0:0,0:0:0:0:
304,125,143704,1,0,3:0:0:0:
375,178,143858,1,8,0:0:0:0:
435,98,144012,5,4,3:2:0:0:
256,192,144089,12,2,146166,3:0:0:0:
256,192,146474,5,2,3:0:0:0:
256,192,146551,12,0,148628,0:0:0:0:
256,192,148935,6,0,P|202:180|71:172,1,175.499994644165,6|0,3:2|3:2,0:0:0:0:
46,11,149704,2,0,P|81:18|167:24,1,116.999996429443,2|0,3:2|3:0,0:0:0:0:
325,12,150320,2,0,P|317:47|311:133,1,116.999996429443,2|0,3:2|3:0,0:0:0:0:
392,270,150935,1,10,0:0:0:0:
392,270,151089,1,2,3:2:0:0:
258,364,151397,6,0,P|181:353|68:351,1,175.499994644165,2|0,3:2|3:0,0:0:0:0:
2,207,152166,2,0,P|9:155|10:78,1,116.999996429443,10|0,0:0|3:0,0:0:0:0:
152,8,152781,2,0,P|203:15|280:16,1,116.999996429443,2|0,3:2|3:0,0:0:0:0:
328,73,153243,2,0,P|326:92|325:108,2,29.2499991073609,0|0|10,3:0|3:0|0:0,0:0:0:0:
391,19,153551,1,2,3:2:0:0:
391,19,153704,1,8,0:0:0:0:
397,146,153858,6,0,P|332:152|245:171,1,130,6|0,3:2|0:0,0:0:0:0:
187,135,154320,1,0,3:0:0:0:
187,135,154474,2,0,P|153:129|120:151,1,65,2|0,0:0|3:0,0:0:0:0:
142,232,154781,2,0,P|176:238|209:216,1,65,2|0,0:0|3:0,0:0:0:0:
59,199,155089,2,0,P|25:193|-8:215,1,65,2|0,0:0|3:0,0:0:0:0:
14,296,155396,2,0,P|48:302|81:280,1,65,2|8,0:0|0:0,0:0:0:0:
142,232,155704,1,2,0:0:0:0:
199,323,155858,1,8,0:0:0:0:
199,323,156012,1,0,3:0:0:0:
199,323,156320,6,0,P|274:307|342:299,1,130,2|0,3:2|0:0,0:0:0:0:
401,352,156781,1,0,3:0:0:0:
401,352,156935,1,0,0:0:0:0:
479,305,157089,1,8,3:2:0:0:
479,305,157243,1,0,0:0:0:0:
446,219,157397,1,8,3:2:0:0:
508,152,157551,2,0,L|514:118,1,32.5,0|8,3:0|0:0,0:0:0:0:
174,286,177858,5,2,0:0:0:0:
174,286,178012,2,0,P|180:330|183:371,2,58.4999982147217,2|0|2,0:0|0:0|0:0,0:0:0:0:
93,261,178474,2,0,P|30:225|59:138,1,175.499994644165,2|2,0:0|0:0,0:0:0:0:
56,139,179243,6,0,P|122:150|198:166,1,130,12|0,3:2|0:0,0:0:0:0:
273,197,179704,1,0,0:0:0:0:
273,197,179858,2,0,P|280:156|292:118,1,65,10|0,0:0|0:0,0:0:0:0:
319,50,180166,1,0,3:0:0:0:
319,50,180320,1,10,0:0:0:0:
143,1,180628,1,2,3:2:0:0:
6,146,180935,6,0,P|17:202|29:296,1,143.000004364014,4|0,3:2|3:0,0:0:0:0:
24,299,181320,1,0,3:0:0:0:
20,309,181397,2,0,P|58:352|105:343,1,107.25000327301,12|0,0:0|0:0,0:0:0:0:
113,335,181704,1,0,3:0:0:0:
208,364,181858,1,0,3:0:0:0:
283,298,182012,6,0,P|289:251|294:223,1,71.5000021820069,8|0,0:0|0:0,0:0:0:0:
228,149,182320,2,0,P|233:113|238:78,1,71.5000021820069,0|2,3:0|3:2,0:0:0:0:
321,21,182628,2,0,P|356:26|391:31,1,71.5000021820069,10|2,0:0|0:0,0:0:0:0:
441,118,182935,2,0,P|476:122|511:128,2,71.5000021820069,8|8|8,0:3|0:3|0:0,0:0:0:0:
377,177,183397,5,10,0:0:0:0:
377,177,184166,2,0,P|315:183|219:207,1,143.000004364014,4|10,3:2|0:0,0:0:0:0:
226,197,184551,1,8,0:0:0:0:
215,194,184628,2,0,P|211:169|207:148,2,35.7500010910034,8|8|2,0:0|0:0|0:0,0:0:0:0:
215,194,185858,6,0,P|266:239|249:312,1,143.000004364014,4|0,3:2|3:0,0:0:0:0:
248,316,186243,1,0,3:0:0:0:
242,324,186320,2,0,P|176:334|117:349,1,107.25000327301,12|0,0:0|0:0,0:0:0:0:
124,349,186628,1,0,3:0:0:0:
35,302,186781,1,0,3:0:0:0:
75,210,186935,6,0,P|68:165|60:136,1,71.5000021820069,10|4,0:0|3:2,0:0:0:0:
6,55,187243,2,0,P|51:48|80:40,1,71.5000021820069,2|8,0:0|0:0,0:0:0:0:
87,34,187474,1,8,0:0:0:0:
96,24,187551,1,8,0:0:0:0:
174,85,187704,1,2,3:2:0:0:
174,85,187858,2,0,P|208:76|244:71,1,71.5000021820069,2|10,0:0|0:0,0:0:0:0:
315,0,188166,1,2,3:2:0:0:
430,61,188320,5,0,3:2:0:0:
430,61,188397,1,8,0:0:0:0:
430,61,188474,2,0,P|422:122|416:226,1,143.000004364014,4|10,3:2|0:0,0:0:0:0:
325,238,188935,1,0,0:0:0:0:
325,238,189089,2,0,P|294:234|242:231,1,71.5000021820069,0|0,3:0|3:0,0:0:0:0:
196,148,189397,2,0,P|160:145|124:141,1,71.5000021820069,10|0,0:0|0:0,0:0:0:0:
34,185,189704,6,0,P|-3:219|27:307,1,143.000004364014,2|10,3:2|0:0,0:0:0:0:
104,352,190166,2,0,P|173:335|267:326,1,143.000004364014,2|0,0:0|3:0,0:0:0:0:
331,378,190628,1,10,0:0:0:0:
495,265,190935,6,0,P|486:229|481:181,1,71.5000021820069,2|0,3:2|3:0,0:0:0:0:
492,98,191243,1,10,0:0:0:0:
492,98,191397,2,0,P|454:81|389:145,1,143.000004364014,2|0,0:0|3:0,0:0:0:0:
314,208,191858,1,8,0:0:0:0:
314,208,192012,2,0,P|276:225|211:161,1,143.000004364014,6|0,3:2|3:0,0:0:0:0:
148,84,192474,1,8,0:0:0:0:
223,17,192628,1,6,3:2:0:0:
223,17,192781,2,0,P|281:25|312:25,2,71.5000021820069,2|2|10,0:0|3:2|0:0,0:0:0:0:
142,95,193243,6,0,P|77:88|-15:82,1,143.000004364014,6|0,3:2|3:0,0:0:0:0:
0,82,193858,2,0,P|5:105|8:121,1,35.7500010910034,2|0,3:2|3:0,0:0:0:0:
3,129,194012,1,10,0:0:0:0:
79,193,194166,1,0,3:0:0:0:
79,193,194320,1,0,0:0:0:0:
31,281,194474,6,0,P|102:285|173:293,1,143.000004364014,2|0,3:2|3:0,0:0:0:0:
173,293,195089,2,0,P|168:270|165:254,1,35.7500010910034,2|0,3:2|3:0,0:0:0:0:
170,246,195243,1,10,0:0:0:0:
216,159,195397,1,0,3:0:0:0:
216,159,195551,1,8,0:0:0:0:
309,193,195704,6,0,P|322:262|338:332,1,143.000004364014,6|2,3:2|3:2,0:0:0:0:
432,381,196166,1,10,0:0:0:0:
432,381,196320,1,0,0:0:0:0:
491,300,196474,2,0,P|481:257|473:215,1,71.5000021820069,0|0,3:0|3:0,0:0:0:0:
510,136,196781,1,8,0:0:0:0:
411,45,196935,6,0,B|360:60|360:60|345:92|345:92|279:113,1,143.000004364014,4|0,3:2|3:0,0:0:0:0:
214,171,197397,1,8,0:0:0:0:
133,110,197551,1,2,0:0:0:0:
133,110,197704,2,0,P|138:57|144:21,2,71.5000021820069,2|0|0,3:2|0:0|3:0,0:0:0:0:
57,176,198166,1,8,0:0:0:0:
60,187,198243,1,8,0:0:0:0:
63,198,198320,1,0,0:0:0:0:
256,192,201397,12,12,202935,0:0:0:0:
244,324,203243,6,0,P|166:332|60:354,1,175.499994644165,6|6,3:2|3:2,0:0:0:0:
70,351,204166,2,0,P|25:298|138:257,1,233.999992858887,6|0,3:2|0:0,0:0:0:0:
259,146,205089,2,0,P|254:110|246:78,1,58.4999982147217,10|8,0:0|0:3,0:0:0:0:
330,76,205397,2,0,P|336:104|340:133,1,58.4999982147217,4|4,0:3|0:3,0:0:0:0:
413,223,205704,6,0,P|378:190|311:229,1,116.999996429443,6|8,3:2|0:0,0:0:0:0:
310,293,206166,2,0,P|345:326|412:287,1,116.999996429443,6|8,3:2|0:0,0:0:0:0:
490,273,206628,6,0,P|495:212|515:88,1,175.499994644165,6|0,3:2|0:0,0:0:0:0:
470,29,207243,1,8,0:0:0:0:
321,98,207551,2,0,P|258:103|218:113,1,87.7499973220826,8|0,0:0|0:0,0:0:0:0:
221,112,207858,1,2,0:0:0:0:
161,168,208012,1,0,0:0:0:0:
99,114,208166,6,0,P|55:99|15:127,1,87.7499973220826,6|0,3:2|0:0,0:0:0:0:
13,118,208474,2,0,P|-11:152|8:201,1,87.7499973220826,10|0,0:0|0:0,0:0:0:0:
13,198,208781,1,4,0:3:0:0:
7,361,209089,6,0,P|63:330|183:308,1,175.499994644165,6|0,3:2|0:0,0:0:0:0:
241,360,209704,1,10,0:0:0:0:
241,360,209858,1,0,0:0:0:0:
308,313,210012,2,0,P|360:325|386:332,2,58.4999982147217,2|8|8,0:0|0:0|0:3,0:0:0:0:
169,223,210628,6,0,P|168:178|163:145,1,58.4999982147217,14|0,0:0|3:0,0:0:0:0:
90,120,210935,1,0,3:0:0:0:
90,120,211089,2,0,P|87:90|87:61,1,58.4999982147217,14|0,0:0|3:0,0:0:0:0:
164,26,211397,1,0,3:0:0:0:
164,26,211551,6,0,P|199:81|295:62,1,175.499994644165,14|0,0:0|0:0,0:0:0:0:
351,1,212166,1,2,0:0:0:0:
471,112,212474,2,0,L|465:162,3,29.2499991073609,8|8|8|8,0:0|0:0|0:0|0:0,0:0:0:0:
498,178,212781,2,0,L|492:228,3,29.2499991073609,8|8|8|8,0:0|0:0|0:0|0:0,0:0:0:0:
463,237,213089,6,0,P|418:245|384:256,1,65,6|0,3:2|3:0,0:0:0:0:
342,186,213397,1,8,0:0:0:0:
342,186,213551,2,0,P|297:178|263:167,1,65,2|0,3:2|0:0,0:0:0:0:
192,191,213858,1,0,3:0:0:0:
192,191,214012,6,0,P|129:230|155:334,1,195,10|0,0:0|3:0,0:0:0:0:
234,378,214628,1,8,0:0:0:0:
407,323,214935,2,0,P|403:275|399:253,1,65,2|0,3:2|3:0,0:0:0:0:
459,188,215243,2,0,P|454:155|452:123,1,65,8|0,0:0|0:0,0:0:0:0:
344,64,215551,6,0,P|340:16|336:-6,2,65,6|0|10,3:2|3:0|0:0,0:0:0:0:
277,126,216012,1,2,3:2:0:0:
212,62,216166,2,0,P|208:23|205:6,2,32.5,8|8|0,0:0|0:0|3:0,0:0:0:0:
271,131,216474,1,10,0:0:0:0:
204,237,216628,6,0,P|133:228|56:225,1,130,6|0,3:2|3:0,0:0:0:0:
8,288,217089,1,8,0:0:0:0:
8,288,217243,1,0,3:0:0:0:
71,353,217397,2,0,P|108:355|146:359,1,65,10|0,0:0|3:0,0:0:0:0:
225,372,217704,1,8,0:0:0:0:
402,332,218012,6,0,P|427:297|392:243,1,97.5,6|0,3:2|0:0,0:0:0:0:
399,245,218320,2,0,P|379:202|404:163,1,97.5,10|0,0:0|0:0,0:0:0:0:
415,157,218628,1,4,0:3:0:0:
508,1,218935,6,0,P|469:39|325:48,1,195,6|8,3:2|0:0,0:0:0:0:
259,0,219551,1,2,3:2:0:0:
259,0,219704,1,0,3:0:0:0:
196,66,219858,2,0,P|202:118|204:145,1,65,10|8,0:0|0:0,0:0:0:0:
278,182,220166,2,0,P|280:214|285:246,1,65,8|8,0:0|0:0,0:0:0:0:
248,320,220474,6,0,P|181:324|143:367,1,116.999996429443,2|0,0:0|0:0,0:0:0:0:
80,310,220935,2,0,P|110:249|91:195,1,116.999996429443,2|0,0:0|0:0,0:0:0:0:
191,232,221397,1,2,0:0:0:0:
256,192,221474,12,0,224166,0:0:0:0:
