osu file format v14

[General]
AudioFilename: audio.mp3
AudioLeadIn: 0
PreviewTime: 60858
Countdown: 0
SampleSet: Soft
StackLeniency: 0.4
Mode: 0
LetterboxInBreaks: 0
WidescreenStoryboard: 0

[Editor]
Bookmarks: 224166
DistanceSpacing: 1.4
BeatDivisor: 4
GridSize: 32
TimelineZoom: 1.8

[Metadata]
Title:Mirai Isho
TitleUnicode:未来遺書
Artist:PHAZE
ArtistUnicode:PHAZE
Creator:KaedeharaKazuha
Version:Final Farewell
Source:
Tags:Addy2607 Kaedehara Kazuha Kyouren gokugohan12468 KittyAdventure FA featured artist japanese rock jrock j-rock vrchat mappers' guild mg mpg showcase
BeatmapID:4132104
BeatmapSetID:1989072

[Difficulty]
HPDrainRate:6
CircleSize:3.8
OverallDifficulty:8.5
ApproachRate:9.3
SliderMultiplier:1.8
SliderTickRate:1

[Events]
//Background and Video events
0,0,"BG.jpg",0,0
//Break Periods
2,22520,30381
2,198520,200843
//Storyboard Layer 0 (Background)
//Storyboard Layer 1 (Fail)
//Storyboard Layer 2 (Pass)
//Storyboard Layer 3 (Foreground)
//Storyboard Layer 4 (Overlay)
//Storyboard Sound Samples

[TimingPoints]
167,307.692307692308,4,2,1,40,1,0
1859,-166.666666666667,4,2,1,40,0,0
2474,-153.846153846154,4,2,1,50,0,0
2628,307.692307692308,4,2,1,50,1,0
2628,-153.846153846154,4,2,1,50,0,0
12474,-100,4,2,1,60,0,0
17628,-100,4,2,1,5,0,0
17704,-90.9090909090909,4,2,1,60,0,0
17935,-90.9090909090909,4,2,1,5,0,0
18012,-83.3333333333333,4,2,1,60,0,0
18243,-83.3333333333333,4,2,1,5,0,0
18320,-100,4,2,1,60,0,0
18858,-100,4,2,1,5,0,0
18935,-100,4,2,1,60,0,0
19858,-117.647058823529,4,2,1,40,0,0
20781,-200,4,2,1,40,0,0
22320,-153.846153846154,4,2,1,50,0,0
32166,-117.647058823529,4,2,1,60,0,0
42012,-133.333333333333,4,2,1,70,0,0
51858,-200,4,2,1,50,0,0
56166,-133.333333333333,4,2,1,50,0,0
56781,-111.111111111111,4,2,1,60,0,0
59243,-95.2380952380952,4,2,1,70,0,0
60397,-95.2380952380952,4,2,1,5,0,0
60628,-95.2380952380952,4,2,1,70,0,0
60704,-95.2380952380952,4,2,1,5,0,0
60781,-95.2380952380952,4,2,1,70,0,0
60857,-95.2380952380952,4,2,1,5,0,0
60935,-222.222222222222,4,2,1,50,0,0
61551,-83.3333333333333,4,2,1,80,0,1
76320,-90.9090909090909,4,2,1,80,0,1
79243,-90.9090909090909,4,2,1,30,0,1
79320,-90.9090909090909,4,2,1,34,0,1
79397,-90.9090909090909,4,2,1,38,0,1
79474,-90.9090909090909,4,2,1,42,0,1
79551,-90.9090909090909,4,2,1,46,0,1
79628,-90.9090909090909,4,2,1,50,0,1
79705,-90.9090909090909,4,2,1,54,0,1
79782,-90.9090909090909,4,2,1,58,0,1
79859,-90.9090909090909,4,2,1,62,0,1
79936,-90.9090909090909,4,2,1,66,0,1
80013,-90.9090909090909,4,2,1,70,0,1
80090,-90.9090909090909,4,2,1,74,0,1
80166,-83.3333333333333,4,2,1,80,0,0
81397,-111.111111111111,4,2,1,60,0,0
86551,-111.111111111111,4,2,1,5,0,0
86628,-100,4,2,1,60,0,0
86858,-100,4,2,1,5,0,0
86935,-90.9090909090909,4,2,1,60,0,0
87166,-90.9090909090909,4,2,1,5,0,0
87243,-111.111111111111,4,2,1,60,0,0
90628,-111.111111111111,4,2,1,30,0,0
90704,-111.111111111111,4,2,1,35,0,0
90781,-111.111111111111,4,2,1,40,0,0
90858,-111.111111111111,4,2,1,45,0,0
90935,-111.111111111111,4,2,1,50,0,0
91012,-111.111111111111,4,2,1,55,0,0
91089,-111.111111111111,4,2,1,60,0,0
91166,-111.111111111111,4,2,1,65,0,0
91243,-100,4,2,1,70,0,0
98089,-100,4,2,1,5,0,0
98243,-100,4,2,1,70,0,0
98320,-100,4,2,1,5,0,0
98474,-100,4,2,1,70,0,0
98551,-100,4,2,1,5,0,0
99858,-133.333333333333,4,2,2,50,0,0
109704,-117.647058823529,4,2,2,60,0,0
118935,-117.647058823529,4,2,0,60,0,0
119397,-105.263157894737,4,2,1,70,0,0
129397,-200,4,2,1,50,0,0
134320,-111.111111111111,4,2,1,60,0,0
136781,-95.2380952380952,4,2,1,70,0,0
136858,-95.2380952380952,4,2,1,30,0,0
136935,-95.2380952380952,4,2,1,34,0,0
137012,-95.2380952380952,4,2,1,38,0,0
137089,-95.2380952380952,4,2,1,42,0,0
137166,-95.2380952380952,4,2,1,46,0,0
137243,-95.2380952380952,4,2,1,50,0,0
137320,-95.2380952380952,4,2,1,54,0,0
137397,-95.2380952380952,4,2,1,58,0,0
137474,-95.2380952380952,4,2,1,62,0,0
137551,-95.2380952380952,4,2,1,66,0,0
137628,-95.2380952380952,4,2,1,70,0,0
137705,-95.2380952380952,4,2,1,74,0,0
137781,-95.2380952380952,4,2,1,78,0,0
137858,-86.9565217391304,4,2,1,80,0,0
139089,-117.647058823529,4,2,1,60,0,0
151397,-105.263157894737,4,2,1,65,0,0
153858,-95.2380952380952,4,2,1,70,0,0
156320,-86.9565217391304,4,2,1,75,0,0
158166,-500,4,2,1,50,0,0
158858,-500,4,2,1,5,0,0
158935,-181.818181818182,4,2,1,40,0,0
177858,-153.846153846154,4,2,1,60,0,0
178781,-153.846153846154,4,2,1,5,0,0
178935,-153.846153846154,4,2,1,60,0,0
179243,-117.647058823529,4,2,1,70,0,0
180397,-117.647058823529,4,2,1,5,0,0
180628,-117.647058823529,4,2,1,70,0,0
180704,-117.647058823529,4,2,1,5,0,0
180935,-83.3333333333333,4,2,1,80,0,1
183397,-100,4,2,1,60,0,0
184166,-83.3333333333333,4,2,1,80,0,1
184397,-83.3333333333333,4,2,1,5,0,1
184474,-83.3333333333333,4,2,1,40,0,1
184551,-83.3333333333333,4,2,1,50,0,1
184628,-83.3333333333333,4,2,1,60,0,1
184704,-83.3333333333333,4,2,1,70,0,1
184781,-100,4,2,1,60,0,0
185858,-83.3333333333333,4,2,1,80,0,1
198320,-142.857142857143,4,2,1,50,0,0
203243,-111.111111111111,4,2,1,60,0,0
208166,-100,4,2,1,60,0,0
208397,-100,4,2,1,5,0,0
208473,-90.9090909090909,4,2,1,60,0,0
208704,-90.9090909090909,4,2,1,5,0,0
208781,-83.3333333333333,4,2,1,60,0,0
209012,-83.3333333333333,4,2,1,5,0,0
209089,-100,4,2,1,60,0,0
209628,-100,4,2,1,5,0,0
209704,-100,4,2,1,60,0,0
212474,-100,4,2,1,30,0,0
212550,-100,4,2,1,35,0,0
212627,-100,4,2,1,40,0,0
212704,-100,4,2,1,45,0,0
212781,-100,4,2,1,50,0,0
212858,-100,4,2,1,55,0,0
212935,-100,4,2,1,60,0,0
213012,-100,4,2,1,65,0,0
213089,-100,4,2,1,70,0,0
218243,-100,4,2,1,5,0,0
218320,-86.9565217391304,4,2,1,70,0,0
218551,-86.9565217391304,4,2,1,5,0,0
218628,-76.9230769230769,4,2,1,70,0,0
218858,-76.9230769230769,4,2,1,5,0,0
218935,-75.187969924812,4,2,1,70,0,0
220474,-250,4,2,1,50,0,0
221397,-400,4,2,1,50,0,0
222012,-400,4,2,2,40,0,0
222628,-400,4,2,1,30,0,0
223243,-400,4,2,2,20,0,0
224166,-400,4,2,1,5,0,0

[Colours]
Combo1 : 111,139,206
Combo2 : 165,205,218
Combo3 : 86,148,239
Combo4 : 182,223,243

[HitObjects]
470,57,1859,5,2,0:0:0:0:
470,57,2013,2,0,P|477:22|481:-6,2,53.9999983520508,2|0|2,0:0|0:0|0:0,0:0:0:0:
512,179,2474,6,0,P|497:119|390:135,1,175.499991966248,6|2,3:2|0:0,0:0:0:0:
330,152,3089,1,0,0:0:0:0:
290,85,3243,2,0,P|295:52|298:18,1,58.4999973220827
223,13,3551,2,0,P|219:43|216:72,1,58.4999973220827,2|0,0:0|0:0,0:0:0:0:
238,154,3858,6,0,P|180:145|121:139,1,116.999994644165,2|0,0:0|0:0,0:0:0:0:
60,186,4320,2,0,P|31:181|1:178,1,58.4999973220827,2|0,0:0|0:0,0:0:0:0:
16,74,4628,2,0,P|44:78|74:81,1,58.4999973220827,2|0,3:2|0:0,0:0:0:0:
238,154,4935,6,0,P|270:207|238:253,1,116.999994644165,2|0,3:2|0:0,0:0:0:0:
179,293,5397,2,0,P|189:334|192:360,1,58.4999973220827,2|0,0:3|0:0,0:0:0:0:
117,368,5704,2,0,P|112:339|104:310,1,58.4999973220827
32,327,6012,2,0,P|39:355|44:384,1,58.4999973220827,2|0,0:3|0:0,0:0:0:0:
130,237,6320,5,0,0:0:0:0:
1,147,6474,1,2,0:0:0:0:
44,227,6628,1,2,0:0:0:0:
179,161,6781,1,0,3:0:0:0:
179,161,6858,1,0,3:0:0:0:
179,161,6935,1,10,0:0:0:0:
86,58,7089,1,0,3:0:0:0:
35,234,7243,1,10,0:0:0:0:
258,179,7397,6,0,P|316:177|382:212,1,116.999994644165,6|0,3:2|0:0,0:0:0:0:
451,183,7858,2,0,P|482:194|475:272,1,116.999994644165,2|0,0:0|0:0,0:0:0:0:
397,127,8320,1,0,0:0:0:0:
397,127,8474,2,0,P|394:97|390:68,1,58.4999973220827,2|0,0:0|0:0,0:0:0:0:
243,62,8781,6,0,P|253:130|258:198,1,116.999994644165,2|0,0:0|0:0,0:0:0:0:
337,209,9243,2,0,P|380:243|364:295,1,116.999994644165,2|0,0:0|3:0,0:0:0:0:
311,358,9704,1,0,0:0:0:0:
200,327,9858,6,0,P|132:332|73:354,1,116.999994644165,2|0,3:2|0:0,0:0:0:0:
20,299,10320,2,0,P|11:270|31:239,1,58.4999973220826,2|0,0:3|0:0,0:0:0:0:
148,202,10628,2,0,P|127:223|90:221,1,58.4999973220826
0,140,10935,2,0,P|29:147|46:179,1,58.4999973220826,2|0,0:3|0:0,0:0:0:0:
220,251,11243,5,2,0:0:0:0:
266,182,11397,2,0,P|257:139|255:107,2,58.4999973220826,2|2|2,0:0|0:0|0:0,0:0:0:0:
509,363,12371,5,2,0:0:0:0:
509,363,12422,5,2,0:0:0:0:
509,363,12474,6,0,P|469:316|399:345,1,135,6|0,3:2|0:0,0:0:0:0:
407,348,12781,1,8,0:0:0:0:
328,317,12935,2,0,P|325:296|317:267,1,45,2|0,3:2|0:0,0:0:0:0:
511,66,13397,6,0,P|414:-10|414:123,1,315,6|0,3:2|0:0,0:0:0:0:
487,146,14012,2,0,P|435:150|347:191,1,135,8|0,0:0|0:0,0:0:0:0:
348,192,14320,1,10,0:0:0:0:
246,112,14474,1,8,0:0:0:0:
147,243,14628,1,4,0:3:0:0:
52,66,14781,1,0,0:0:0:0:
257,217,14935,5,14,0:0:0:0:
4,330,15089,1,0,3:0:0:0:
95,157,15243,1,0,3:0:0:0:
293,321,15397,2,0,P|358:307|433:301,1,135,14|0,0:0|0:0,0:0:0:0:
506,269,15704,5,0,3:0:0:0:
506,269,15781,1,0,3:0:0:0:
506,269,15858,2,0,P|518:192|432:161,1,180,14|0,0:0|0:0,0:0:0:0:
366,212,16320,1,8,0:0:0:0:
246,93,16474,1,8,0:0:0:0:
374,0,16628,1,8,0:0:0:0:
258,180,16781,5,8,0:0:0:0:
232,216,16857,1,8,0:0:0:0:
219,259,16934,1,8,0:0:0:0:
219,304,17011,1,8,0:0:0:0:
236,345,17088,1,8,0:3:0:0:
274,368,17165,1,8,0:3:0:0:
316,357,17242,1,4,0:3:0:0:
335,318,17319,1,4,0:3:0:0:
315,280,17397,6,0,P|234:285|170:318,1,135,10|0,0:0|0:0,0:0:0:0:
112,277,17704,2,0,P|107:195|74:132,1,148.50000453186,8|0,0:3|0:0,0:0:0:0:
112,63,18012,2,0,P|198:57|266:22,1,161.999995056153,4|0,0:3|0:0,0:0:0:0:
339,56,18320,6,0,B|384:141|511:148|542:77|539:20|506:-9|427:-11|442:49,1,315,6|0,3:2|0:0,0:0:0:0:
443,26,18935,1,10,0:0:0:0:
504,187,19089,1,8,0:0:0:0:
324,218,19243,1,10,0:0:0:0:
286,120,19397,1,8,0:0:0:0:
429,245,19551,1,4,0:3:0:0:
429,245,19704,1,4,0:3:0:0:
321,357,19858,6,0,P|291:352|242:344,1,76.5000014591217,2|0,0:0|0:0,0:0:0:0:
173,374,20166,1,0,0:0:0:0:
173,374,20320,2,0,P|143:369|94:361,1,76.5000014591217,2|0,0:0|0:0,0:0:0:0:
40,303,20628,1,0,0:0:0:0:
40,303,20781,6,0,P|8:209|179:244,1,360,2|2,0:0|0:3,0:0:0:0:
95,235,22166,1,2,0:0:0:0:
95,235,22320,1,2,0:0:0:0:
95,235,30935,6,0,P|87:188|79:157,1,58.4999973220826,2|0,3:2|0:0,0:0:0:0:
141,102,31243,1,10,0:0:0:0:
234,196,31397,1,8,0:3:0:0:
234,196,31474,1,8,0:3:0:0:
234,196,31551,1,10,3:2:0:0:
344,43,31704,1,10,3:2:0:0:
344,43,32012,5,0,0:0:0:0:
407,118,32166,2,0,P|396:173|392:210,1,76.5000014591217,6|0,3:2|3:0,0:0:0:0:
344,43,32474,1,8,0:0:0:0:
490,112,32628,2,0,P|479:167|475:204,1,76.5000014591217,2|0,0:0|3:0,0:0:0:0:
507,323,32935,2,0,P|524:278|499:250,1,76.5000014591217,2|8,3:2|0:0,0:0:0:0:
393,193,33243,6,0,P|339:199|306:207,1,76.5000014591217,2|0,0:0|3:0,0:0:0:0:
351,355,33551,2,0,P|388:347|426:344,1,76.5000014591217,2|8,3:2|0:0,0:0:0:0:
247,283,33858,1,2,0:0:0:0:
189,370,34012,1,2,3:2:0:0:
205,186,34166,1,0,3:0:0:0:
353,274,34320,1,10,0:0:0:0:
196,364,34474,1,0,0:0:0:0:
310,193,34628,6,0,P|304:156|296:112,1,76.5000014591217,2|0,3:2|3:0,0:0:0:0:
234,68,34935,1,8,0:0:0:0:
386,183,35089,2,0,P|380:146|372:102,1,76.5000014591217,2|0,0:0|3:0,0:0:0:0:
411,37,35397,1,0,3:0:0:0:
217,150,35551,1,10,0:0:0:0:
217,150,35704,6,0,P|164:158|64:184,1,153.000002918243,0|0,0:0|3:0,0:0:0:0:
29,31,36166,1,8,0:0:0:0:
29,31,36320,2,0,P|79:11|117:94,1,153.000002918243,0|2,0:0|3:2,0:0:0:0:
0,223,36781,1,10,0:0:0:0:
38,114,36935,1,0,3:0:0:0:
196,233,37089,6,0,P|187:275|180:319,1,76.5000014591217,6|0,3:2|3:0,0:0:0:0:
123,182,37397,1,10,0:0:0:0:
273,286,37551,2,0,P|310:292|354:303,1,76.5000014591217,2|0,0:0|3:0,0:0:0:0:
328,194,37858,2,0,P|291:187|252:176,1,76.5000014591217,2|8,3:2|0:0,0:0:0:0:
79,338,38166,6,0,P|73:294|66:256,1,76.5000014591217,2|0,0:0|3:0,0:0:0:0:
145,384,38474,1,2,3:2:0:0:
190,318,38628,2,0,P|184:274|177:236,1,76.5000014591217,10|0,0:0|0:0,0:0:0:0:
311,103,38935,1,2,3:2:0:0:
394,238,39089,1,0,3:0:0:0:
253,176,39243,1,10,0:0:0:0:
406,103,39397,1,0,0:0:0:0:
236,19,39551,5,0,3:0:0:0:
236,19,39704,2,0,P|188:9|150:-6,1,76.5000014591217,0|8,3:0|0:0,0:0:0:0:
73,99,40012,1,0,3:0:0:0:
73,99,40165,2,0,P|109:86|146:79,1,76.5000014591217,0|0,3:0|3:0,0:0:0:0:
0,20,40474,1,8,0:0:0:0:
66,184,40628,5,0,3:0:0:0:
66,184,40704,1,0,3:0:0:0:
66,184,40781,1,10,0:0:0:0:
0,321,40935,1,0,3:0:0:0:
234,380,41089,1,8,0:0:0:0:
171,156,41243,1,0,3:0:0:0:
72,289,41397,5,8,0:0:0:0:
166,147,41551,1,8,0:3:0:0:
260,258,41704,1,4,0:3:0:0:
340,191,41858,1,4,0:3:0:0:
406,242,42012,6,0,P|399:280|392:335,1,67.5000025749208,6|0,3:2|0:0,0:0:0:0:
471,321,42243,2,0,P|475:287|482:254,1,67.5000025749208,0|0,3:0|0:0,0:0:0:0:
458,180,42474,1,0,3:0:0:0:
296,333,42628,1,8,0:0:0:0:
296,333,42935,5,0,0:0:0:0:
229,376,43089,1,0,3:0:0:0:
83,292,43243,6,0,P|77:249|70:219,1,67.5000025749208,2|0,3:2|0:0,0:0:0:0:
147,213,43474,2,0,P|154:246|158:279,1,67.5000025749208,0|0,3:0|0:0,0:0:0:0:
134,352,43704,1,0,3:0:0:0:
32,144,43858,1,10,0:0:0:0:
32,144,44166,1,0,0:0:0:0:
32,144,44474,6,0,P|78:151|106:157,1,67.5000025749208,4|0,3:2|0:0,0:0:0:0:
151,100,44704,2,0,P|197:93|225:87,1,67.5000025749208,0|0,3:0|0:0,0:0:0:0:
279,138,44935,1,0,3:0:0:0:
400,0,45089,1,8,0:0:0:0:
400,0,45397,5,0,0:0:0:0:
455,62,45551,1,0,0:0:0:0:
395,191,45704,6,0,P|349:198|321:204,1,67.5000025749208,2|0,3:2|0:0,0:0:0:0:
350,274,45935,2,0,P|383:267|416:262,1,67.5000025749208,0|0,3:0|0:0,0:0:0:0:
471,207,46166,1,0,3:0:0:0:
308,66,46320,5,10,0:0:0:0:
266,139,46474,1,0,3:0:0:0:
233,7,46628,1,0,0:0:0:0:
385,108,46781,1,2,0:0:0:0:
272,257,46935,6,0,P|238:250|205:245,1,67.5000025749208,4|0,3:2|0:0,0:0:0:0:
149,195,47166,2,0,P|115:201|82:206,1,67.5000025749208,0|0,3:0|0:0,0:0:0:0:
40,270,47397,1,0,3:0:0:0:
205,84,47551,1,8,0:0:0:0:
205,84,47858,5,0,0:0:0:0:
155,18,48012,1,0,3:0:0:0:
6,77,48166,6,0,P|13:111|18:144,1,67.5000025749208,2|0,3:2|0:0,0:0:0:0:
91,127,48397,2,0,P|85:93|79:60,1,67.5000025749208,0|0,3:0|0:0,0:0:0:0:
29,2,48628,1,0,3:0:0:0:
71,208,48781,1,10,0:0:0:0:
71,208,49089,1,0,0:0:0:0:
71,208,49397,6,0,P|64:258|59:288,1,67.5000025749208,4|0,3:2|0:0,0:0:0:0:
135,289,49628,2,0,P|140:255|144:222,1,67.5000025749208,0|0,3:0|0:0,0:0:0:0:
208,177,49858,1,0,3:0:0:0:
299,245,50012,2,0,L|336:237,3,33.7500012874604,8|0|0|0,0:0|0:0|0:0|0:0,0:0:0:0:
390,290,50320,2,0,L|427:298,3,33.7500012874604
499,269,50628,6,0,L|507:232,3,33.7500012874604
460,175,50935,2,0,L|452:138,3,33.7500012874604
396,89,51243,5,0,0:0:0:0:
374,75,51319,1,0,0:0:0:0:
350,69,51396,1,0,0:0:0:0:
325,73,51473,1,0,0:0:0:0:
303,86,51550,1,0,0:0:0:0:
288,106,51627,1,0,0:0:0:0:
281,130,51704,1,0,0:0:0:0:
283,155,51781,1,0,0:0:0:0:
294,178,51858,6,0,P|249:164|205:157,2,90,2|0|0,0:0|0:0|0:0,0:0:0:0:
465,212,52781,2,0,P|407:186|360:230,1,135,2|0,0:0|0:0,0:0:0:0:
482,299,53397,2,0,P|453:336|369:301,1,135
305,286,54012,1,2,0:0:0:0:
305,286,54166,1,0,0:0:0:0:
202,368,54320,6,0,P|166:360|98:352,1,90,2|0,0:0|0:0,0:0:0:0:
63,298,54781,2,0,P|28:294|2:348,1,90
194,279,55397,2,0,P|199:231|209:184,1,90,2|0,0:0|0:0,0:0:0:0:
132,199,55858,2,0,P|127:221|124:243,1,45
153,119,56166,6,0,P|127:166|49:147,1,135.000005149842,0|2,0:0|0:0,0:0:0:0:
117,28,56628,5,8,0:0:0:0:
117,28,56704,1,8,0:0:0:0:
117,28,56781,2,0,P|171:36|247:58,1,121.499996292114,6|0,3:2|0:0,0:0:0:0:
251,60,57089,5,0,3:0:0:0:
320,26,57243,1,2,3:2:0:0:
374,95,57397,1,0,3:0:0:0:
433,18,57551,1,2,3:2:0:0:
489,102,57704,1,0,3:0:0:0:
429,5,57858,1,2,3:2:0:0:
297,124,58012,5,0,3:0:0:0:
358,216,58166,1,0,3:0:0:0:
262,287,58320,1,2,3:2:0:0:
395,369,58474,1,0,3:0:0:0:
252,197,58628,5,0,3:0:0:0:
158,324,58781,1,8,0:3:0:0:
78,176,58935,1,4,3:2:0:0:
275,289,59089,1,8,0:0:0:0:
48,376,59243,6,0,P|42:323|30:276,1,94.499997116089,6|0,3:2|0:0,0:0:0:0:
0,138,59551,5,0,3:0:0:0:
32,170,59627,1,8,0:0:0:0:
78,176,59704,1,10,0:0:0:0:
118,152,59781,1,8,0:0:0:0:
134,108,59858,1,0,3:0:0:0:
150,64,59935,1,8,0:0:0:0:
189,40,60012,1,10,0:0:0:0:
235,45,60089,1,8,0:0:0:0:
268,78,60165,1,0,3:0:0:0:
264,91,60243,1,8,0:0:0:0:
261,103,60320,6,0,L|242:169,1,47.2499985580445,10|0,3:2|0:0,0:0:0:0:
261,103,60628,6,0,L|242:169,1,47.2499985580445,10|0,3:2|0:0,0:0:0:0:
293,215,60781,6,0,L|312:281,1,47.2499985580445,8|0,3:2|0:0,0:0:0:0:
255,318,60935,6,0,L|207:309,2,40.4999987640381,2|2|2,0:0|0:0|0:0,0:0:0:0:
306,378,61397,1,2,0:0:0:0:
475,283,61551,6,0,P|483:216|505:113,1,161.999995056153,4|0,3:1|0:0,0:0:0:0:
506,111,61858,1,0,3:0:0:0:
402,244,62012,2,0,P|408:198|424:128,1,107.999996704102,10|0,0:0|0:0,0:0:0:0:
369,46,62320,1,0,3:0:0:0:
369,46,62474,1,0,3:0:0:0:
245,164,62628,2,0,P|299:179|334:138,1,107.999996704102,10|0,0:0|0:0,0:0:0:0:
162,11,62935,6,0,P|173:63|181:117,1,107.999996704102,2|0,3:2|3:0,0:0:0:0:
283,33,63243,1,8,0:0:0:0:
75,0,63397,2,0,P|93:83|105:167,1,161.999995056153,6|0,3:2|0:0,0:0:0:0:
86,238,63704,2,0,P|45:261|-4:206,1,107.999996704102,2|10,3:2|0:0,0:0:0:0:
181,117,64012,6,0,P|256:127|391:170,1,215.999993408203,4|0,3:2|3:0,0:0:0:0:
471,157,64397,1,0,3:0:0:0:
471,157,64474,2,0,P|502:130|458:68,1,107.999996704102,12|0,0:0|0:0,0:0:0:0:
303,188,64781,1,0,3:0:0:0:
303,188,64935,1,0,3:0:0:0:
458,337,65089,2,0,P|450:283|442:230,1,107.999996704102,10|0,0:0|0:0,0:0:0:0:
409,32,65397,5,2,3:2:0:0:
303,188,65551,1,2,3:2:0:0:
481,73,65704,1,10,0:0:0:0:
258,2,65858,1,0,0:0:0:0:
418,143,66012,5,8,0:3:0:0:
418,143,66089,1,8,0:3:0:0:
418,143,66166,1,8,0:3:0:0:
283,322,66320,1,4,0:3:0:0:
88,176,66474,6,0,P|81:125|58:14,1,161.999995056153,6|0,3:2|0:0,0:0:0:0:
54,2,66781,1,2,3:2:0:0:
161,143,66935,2,0,P|156:108|140:32,1,107.999996704102,10|0,0:0|0:0,0:0:0:0:
6,136,67243,1,0,3:0:0:0:
6,136,67397,1,0,3:0:0:0:
161,224,67551,2,0,P|219:217|231:154,1,107.999996704102,10|0,0:0|0:0,0:0:0:0:
29,232,67858,6,0,P|40:284|48:338,1,107.999996704102,2|0,3:2|3:0,0:0:0:0:
143,371,68166,1,10,0:0:0:0:
90,151,68320,2,0,P|114:265|132:380,1,215.999993408203,6|0,3:2|3:0,0:0:0:0:
29,232,68781,1,10,0:0:0:0:
219,311,68935,6,0,P|308:313|436:275,1,215.999993408203,6|0,3:2|3:0,0:0:0:0:
486,225,69320,1,0,3:0:0:0:
486,225,69397,2,0,P|528:270|493:318,1,107.999996704102,12|0,0:0|0:0,0:0:0:0:
325,231,69704,1,0,3:0:0:0:
477,136,69858,1,0,3:0:0:0:
335,74,70012,1,8,0:0:0:0:
381,149,70166,1,0,3:0:0:0:
446,6,70320,5,8,0:0:0:0:
276,147,70474,1,0,3:0:0:0:
439,285,70628,1,8,0:0:0:0:
335,74,70781,1,2,3:2:0:0:
169,204,70935,2,0,P|181:274|186:322,2,107.999996704102,2|2|2,3:2|0:0|3:2,0:0:0:0:
231,60,71397,5,8,0:0:0:0:
231,60,71474,1,8,0:0:0:0:
231,60,71551,1,6,3:2:0:0:
134,1,71704,1,2,3:2:0:0:
56,135,71858,2,0,P|112:141|139:102,1,107.999996704102,10|0,0:0|0:0,0:0:0:0:
52,43,72166,1,0,3:2:0:0:
52,43,72320,1,0,3:2:0:0:
216,140,72474,2,0,P|283:143|394:169,1,161.999995056153,10|0,0:0|0:0,0:0:0:0:
450,133,72781,6,0,P|491:162|471:222,1,107.999996704102,2|0,3:2|3:0,0:0:0:0:
384,84,73089,1,10,0:0:0:0:
384,84,73243,2,0,P|388:33|450:21,2,107.999996704102,2|0|0,0:0|3:0|3:0,0:0:0:0:
450,133,73704,1,10,0:0:0:0:
351,301,73858,5,2,0:3:0:0:
351,301,73935,1,2,0:3:0:0:
351,301,74012,2,0,P|270:311|193:335,1,161.999995056153,2|0,3:2|0:0,0:0:0:0:
182,342,74320,1,8,0:0:0:0:
304,227,74474,2,0,P|243:234|187:254,2,107.999996704102,2|0|0,0:0|3:0|3:0,0:0:0:0:
365,160,74935,1,10,0:0:0:0:
465,294,75089,1,2,0:0:0:0:
507,85,75243,5,0,3:0:0:0:
462,154,75397,1,0,3:0:0:0:
322,72,75551,1,12,0:0:0:0:
367,3,75705,1,2,0:0:0:0:
473,164,75858,5,2,3:2:0:0:
370,284,76012,1,0,3:0:0:0:
370,284,76089,1,0,3:0:0:0:
370,284,76166,1,8,0:0:0:0:
239,103,76320,6,0,P|180:102|83:162,1,148.50000453186,6|0,3:2|0:0,0:0:0:0:
26,126,76628,2,0,P|-7:87|14:39,1,99.0000030212403,2|0,3:2|0:0,0:0:0:0:
165,220,76935,5,0,3:0:0:0:
165,220,77012,1,0,3:0:0:0:
165,220,77089,2,0,P|101:231|57:244,2,99.0000030212403,10|0|0,0:0|3:0|0:0,0:0:0:0:
239,274,77551,6,0,P|298:273|395:333,1,148.50000453186,2|0,3:2|0:0,0:0:0:0:
454,303,77859,2,0,P|487:264|466:216,1,99.0000030212403,2|0,3:2|0:0,0:0:0:0:
388,106,78166,1,0,3:0:0:0:
388,106,78243,1,0,3:0:0:0:
388,106,78320,1,10,0:0:0:0:
501,61,78474,1,0,3:0:0:0:
392,212,78628,1,14,0:0:0:0:
275,27,78781,1,0,0:0:0:0:
388,106,78935,5,0,3:0:0:0:
388,106,79243,5,8,0:0:0:0:
363,110,79319,1,8,0:0:0:0:
339,115,79396,1,8,0:0:0:0:
315,120,79473,1,8,0:0:0:0:
283,102,79551,5,8,0:0:0:0:
247,110,79627,1,8,0:0:0:0:
212,117,79704,1,8,0:0:0:0:
178,124,79781,1,8,0:0:0:0:
145,95,79858,5,8,0:0:0:0:
99,105,79934,1,8,0:0:0:0:
55,113,80011,1,8,0:0:0:0:
12,122,80088,1,8,0:0:0:0:
19,131,80166,5,0,0:0:0:0:
19,131,81397,6,0,P|80:148|56:254,1,161.999995056153,4|0,3:2|0:0,0:0:0:0:
8,312,81858,2,0,P|65:267|161:298,1,161.999995056153,6|0,3:2|0:0,0:0:0:0:
308,242,82320,2,0,B|336:199|314:138|243:121|153:177|265:346,1,323.999990112305,6|0,3:2|0:0,0:0:0:0:
256,332,83243,5,10,0:0:0:0:
379,279,83397,1,8,0:3:0:0:
501,371,83551,5,4,0:3:0:0:
372,285,83704,1,4,0:3:0:0:
489,106,83858,6,0,P|477:158|470:196,1,80.9999975280763,6|0,3:2|0:0,0:0:0:0:
509,255,84166,1,8,0:0:0:0:
420,67,84320,2,0,P|408:119|401:157,1,80.9999975280763,6|0,3:2|0:0,0:0:0:0:
337,192,84628,1,8,0:0:0:0:
257,27,84781,5,6,3:2:0:0:
326,95,84935,1,2,0:3:0:0:
256,17,85089,1,2,0:3:0:0:
147,114,85243,2,0,P|109:155|109:47,1,242.999992584229,4|0,3:2|0:0,0:0:0:0:
81,45,86012,5,2,0:0:0:0:
13,151,86166,1,0,0:0:0:0:
193,206,86320,6,0,P|264:190|328:195,1,121.499996292114,6|0,3:2|0:0,0:0:0:0:
327,271,86628,2,0,P|256:267|188:293,1,135,10|0,0:0|0:0,0:0:0:0:
203,374,86935,2,0,P|271:344|348:358,1,148.50000453186,4|0,0:3|0:0,0:0:0:0:
404,294,87243,6,0,P|454:331|442:223,1,242.999992584229,6|0,3:2|0:0,0:0:0:0:
398,154,87858,1,10,0:0:0:0:
398,154,88012,1,0,0:0:0:0:
323,224,88166,5,2,0:0:0:0:
480,145,88320,1,8,0:3:0:0:
302,60,88474,2,0,P|316:129|320:160,1,80.9999975280763,4|0,0:3|0:0,0:0:0:0:
211,301,88781,5,14,0:0:0:0:
107,243,88935,1,0,3:0:0:0:
129,132,89089,1,0,3:0:0:0:
206,314,89243,5,14,0:0:0:0:
39,303,89397,1,0,3:0:0:0:
10,137,89551,1,0,3:0:0:0:
212,324,89704,6,0,P|291:311|459:303,1,242.999992584229,14|0,0:0|0:0,0:0:0:0:
283,237,90320,2,0,P|310:232|368:229,1,80.9999975280763,2|0,0:0|0:0,0:0:0:0:
488,127,90628,5,8,0:0:0:0:
491,118,90704,1,8,0:0:0:0:
492,102,90781,1,8,0:0:0:0:
481,79,90858,1,8,0:0:0:0:
455,56,90935,1,8,0:0:0:0:
414,62,91012,1,8,0:0:0:0:
375,91,91089,1,8,0:0:0:0:
317,88,91166,1,8,0:0:0:0:
266,36,91243,5,6,3:2:0:0:
141,149,91397,1,0,3:0:0:0:
14,11,91551,1,8,0:0:0:0:
132,142,91704,2,0,P|124:198|117:252,1,90,2|0,3:2|0:0,0:0:0:0:
41,265,92012,1,0,3:0:0:0:
222,119,92166,5,10,0:0:0:0:
222,119,92320,2,0,P|208:211|197:300,1,180,0|0,3:0|3:0,0:0:0:0:
49,340,92781,2,0,P|24:298|51:259,1,90,8|0,0:0|0:0,0:0:0:0:
244,200,93089,5,2,3:2:0:0:
315,265,93243,1,0,3:0:0:0:
500,196,93397,5,10,0:0:0:0:
342,345,93551,1,0,0:0:0:0:
375,119,93704,5,6,3:2:0:0:
484,323,93858,1,2,3:2:0:0:
374,107,94012,1,10,0:0:0:0:
237,326,94166,1,2,3:2:0:0:
494,187,94320,5,8,0:0:0:0:
450,177,94396,1,8,0:0:0:0:
410,195,94473,1,0,3:0:0:0:
387,233,94550,1,0,3:0:0:0:
390,277,94627,1,10,0:0:0:0:
480,78,94781,6,0,P|410:81|295:33,1,180,6|0,3:2|3:0,0:0:0:0:
75,4,95243,5,8,0:0:0:0:
98,102,95397,1,0,3:0:0:0:
331,140,95551,5,8,0:0:0:0:
308,42,95705,1,0,3:0:0:0:
165,152,95858,5,8,0:0:0:0:
165,152,96012,1,0,0:0:0:0:
348,231,96166,5,12,0:0:0:0:
239,102,96320,1,0,0:0:0:0:
181,260,96474,1,0,0:0:0:0:
261,199,96628,5,12,0:0:0:0:
254,191,96782,1,0,3:0:0:0:
251,201,96936,1,0,3:0:0:0:
366,237,97089,5,12,0:0:0:0:
235,83,97243,1,0,3:0:0:0:
166,272,97397,1,0,3:0:0:0:
376,128,97551,5,12,0:0:0:0:
153,32,97704,1,0,3:0:0:0:
284,297,97858,5,0,3:0:0:0:
284,297,97935,1,0,3:0:0:0:
284,297,98012,2,0,L|267:356,1,45,10|0,3:2|0:0,0:0:0:0:
386,309,98243,6,0,L|369:368,1,45,10|0,3:2|0:0,0:0:0:0:
486,321,98474,6,0,L|469:380,1,45,10|0,3:2|0:0,0:0:0:0:
474,364,99858,6,0,P|400:350|322:337,1,135.000005149842,2|2,3:0|0:3,0:0:0:0:
270,379,100320,1,2,3:0:0:0:
209,329,100474,1,8,0:0:0:0:
209,329,101243,6,0,P|202:283|190:252,1,67.5000025749208,2|2,3:0|0:3,0:0:0:0:
255,214,101551,2,0,P|258:180|268:148,1,67.5000025749208,2|8,3:0|0:0,0:0:0:0:
221,88,101858,1,2,0:3:0:0:
221,88,102012,2,0,L|216:57,4,16.8750006437302,2|2|2|2|2,0:3|0:3|0:3|0:3|3:0,0:0:0:0:
159,137,102320,6,0,P|119:143|85:156,1,67.5000025749208,2|2,3:0|0:3,0:0:0:0:
27,112,102628,1,2,0:3:0:0:
27,112,102781,1,2,3:0:0:0:
56,38,102935,1,8,0:0:0:0:
56,38,103704,6,0,P|96:32|130:19,1,67.5000025749208,2|2,3:0|0:3,0:0:0:0:
196,50,104012,1,2,3:0:0:0:
192,61,104089,1,2,3:0:0:0:
192,61,104781,6,0,P|183:122|168:211,1,135.000005149842,2|2,3:0|0:3,0:0:0:0:
224,254,105243,1,2,3:0:0:0:
285,201,105397,1,8,0:0:0:0:
285,201,105551,1,0,0:0:0:0:
334,265,105704,2,0,L|331:281,4,16.8750006437302,2|2|2|2|2,0:3|0:3|0:3|0:3|0:3,0:0:0:0:
479,138,106166,6,0,P|422:151|394:158,1,67.5000025749208,2|2,3:0|0:3,0:0:0:0:
395,80,106474,2,0,P|427:72|460:64,1,67.5000025749208,2|8,3:0|0:0,0:0:0:0:
336,135,106781,1,2,0:3:0:0:
291,71,106935,2,0,L|293:54,4,16.8750006437302,2|2|2|2|2,0:3|0:3|0:3|0:3|3:0,0:0:0:0:
203,144,107243,6,0,P|212:192|217:229,1,67.5000025749208,2|2,3:0|0:3,0:0:0:0:
285,255,107551,1,2,0:3:0:0:
285,255,107704,1,2,3:0:0:0:
242,330,107858,1,8,0:0:0:0:
242,330,108628,6,0,P|180:320|155:319,1,67.5000025749208,2|2,3:0|0:3,0:0:0:0:
104,348,108935,1,2,3:0:0:0:
108,359,109012,1,2,3:0:0:0:
108,359,109704,6,0,P|44:369|44:279,1,153.000002918243,2|2,3:0|0:3,0:0:0:0:
93,243,110166,1,2,3:0:0:0:
0,137,110320,1,8,0:0:0:0:
0,137,110474,2,0,P|11:180|16:217,1,76.5000014591217
155,294,110781,6,0,P|242:271|317:261,1,153.000002918243,0|2,0:0|3:0,0:0:0:0:
371,306,111243,1,2,0:3:0:0:
437,262,111397,2,0,P|452:234|434:191,1,76.5000014591217,2|8,3:0|0:0,0:0:0:0:
343,101,111704,1,2,0:3:0:0:
290,165,111858,2,0,L|297:199,4,19.1250003647804,2|2|2|2|2,0:3|0:3|0:3|0:3|3:0,0:0:0:0:
166,101,112166,6,0,P|96:113|76:120,1,76.5000014591217,2|2,3:0|0:3,0:0:0:0:
40,55,112474,1,2,0:3:0:0:
0,178,112628,2,0,P|70:190|90:197,1,76.5000014591217,2|8,3:0|0:0,0:0:0:0:
132,244,112935,1,0,0:0:0:0:
191,190,113089,1,0,0:0:0:0:
257,308,113243,6,0,P|323:315|416:355,1,153.000002918243,0|2,0:0|3:0,0:0:0:0:
481,315,113704,1,2,0:3:0:0:
385,174,113858,1,2,3:0:0:0:
385,174,113935,1,2,3:0:0:0:
385,174,114012,1,8,0:0:0:0:
412,253,114166,1,0,0:0:0:0:
498,204,114320,1,0,0:0:0:0:
471,125,114474,1,0,0:0:0:0:
321,226,114628,6,0,P|246:217|158:208,1,153.000002918243,2|2,3:0|0:3,0:0:0:0:
106,253,115089,2,0,P|70:231|77:181,1,76.5000014591217,2|8,3:0|0:0,0:0:0:0:
5,153,115397,2,0,P|6:110|52:91,1,76.5000014591217,0|2,0:0|0:3,0:0:0:0:
41,15,115704,6,0,P|78:-5|117:25,1,76.5000014591217,2|0,0:3|0:0,0:0:0:0:
166,70,116012,1,2,3:0:0:0:
166,70,116166,1,2,0:3:0:0:
281,9,116320,2,0,P|272:46|267:84,1,76.5000014591217,2|8,3:0|0:0,0:0:0:0:
321,144,116628,1,2,0:3:0:0:
259,191,116781,2,0,L|230:195,4,19.1250003647804,2|2|2|2|2,0:3|0:3|0:3|0:3|3:0,0:0:0:0:
356,279,117089,5,2,3:0:0:0:
437,251,117243,1,2,0:3:0:0:
489,316,117397,1,2,0:3:0:0:
408,344,117551,1,2,3:0:0:0:
278,311,117704,5,8,0:0:0:0:
197,283,117858,1,2,0:3:0:0:
145,348,118012,1,2,0:3:0:0:
226,376,118166,1,2,3:0:0:0:
221,365,118243,1,2,3:0:0:0:
221,365,118935,6,0,L|212:312,1,38.2500007295609,2|0,0:3|0:0,0:0:0:0:
229,362,119089,2,0,L|220:309,1,38.2500007295609,2|0,0:3|0:0,0:0:0:0:
260,256,119243,1,0,0:0:0:0:
470,353,119397,6,0,P|408:335|301:324,1,170.999995433807,6|0,3:2|3:0,0:0:0:0:
440,267,119858,2,0,P|408:257|353:252,1,85.4999977169037,10|4,0:0|0:3,0:0:0:0:
261,170,120166,1,0,3:0:0:0:
179,255,120320,1,0,3:0:0:0:
230,88,120474,1,10,0:0:0:0:
376,166,120628,1,0,3:0:0:0:
171,159,120781,6,0,P|124:167|80:187,1,85.4999977169037,4|0,0:3|3:0,0:0:0:0:
4,53,121089,2,0,P|46:75|37:124,1,85.4999977169037,10|4,0:0|0:3,0:0:0:0:
10,183,121320,1,4,0:3:0:0:
10,183,121397,2,0,P|28:254|32:282,1,85.4999977169037,2|0,3:2|3:0,0:0:0:0:
179,332,121704,2,0,P|161:261|157:233,1,85.4999977169037,10|0,0:0|3:0,0:0:0:0:
19,372,122012,5,4,0:3:0:0:
88,320,122166,1,0,3:0:0:0:
247,375,122320,1,8,0:0:0:0:
317,321,122474,1,4,0:3:0:0:
317,321,122551,1,4,0:3:0:0:
317,321,122628,1,0,3:0:0:0:
385,372,122781,1,0,3:0:0:0:
473,268,122935,1,8,0:0:0:0:
380,383,123089,1,0,3:0:0:0:
245,236,123243,6,0,P|237:182|224:141,1,85.4999977169037,2|0,0:0|3:0,0:0:0:0:
268,2,123551,2,0,P|276:56|289:97,1,85.4999977169037,10|0,0:0|3:0,0:0:0:0:
165,242,123858,2,0,P|157:188|144:147,1,85.4999977169037,10|8,0:0|0:3,0:0:0:0:
184,80,124166,1,4,0:3:0:0:
332,180,124320,6,0,P|359:208|415:173,1,85.4999977169037,6|0,3:2|0:0,0:0:0:0:
457,105,124628,2,0,P|448:166|432:284,1,170.999995433807,2|4,3:2|0:3,0:0:0:0:
373,108,125089,2,0,P|377:76|385:15,1,85.4999977169037,0|0,3:0|3:0,0:0:0:0:
285,102,125397,1,10,0:0:0:0:
401,199,125551,1,0,3:0:0:0:
284,314,125704,6,0,P|234:322|195:342,1,85.4999977169037,4|0,0:3|3:0,0:0:0:0:
87,378,126012,1,10,0:0:0:0:
15,306,126166,1,4,0:3:0:0:
15,306,126243,1,4,0:3:0:0:
15,306,126320,2,0,P|6:249|-4:211,1,85.4999977169037,2|0,3:2|3:0,0:0:0:0:
154,151,126628,2,0,P|163:208|173:246,1,85.4999977169037,10|0,0:0|3:0,0:0:0:0:
20,135,126935,5,4,0:3:0:0:
74,68,127089,1,0,3:0:0:0:
235,138,127243,1,8,0:0:0:0:
298,66,127397,1,4,0:3:0:0:
298,66,127474,1,4,0:3:0:0:
298,66,127551,1,0,3:0:0:0:
221,3,127704,1,0,3:0:0:0:
128,142,127858,1,8,0:0:0:0:
280,240,128012,1,0,3:0:0:0:
428,44,128166,5,8,0:0:0:0:
235,138,128320,1,0,3:0:0:0:
426,271,128474,5,8,0:0:0:0:
298,66,128628,1,0,3:0:0:0:
298,66,128705,1,0,3:0:0:0:
298,66,128782,1,8,0:0:0:0:
191,230,128935,5,0,3:0:0:0:
305,330,129089,1,8,0:3:0:0:
342,175,129243,1,4,0:3:0:0:
211,320,129397,6,0,P|161:328|111:343,2,90,2|0|0,0:0|0:0|0:0,0:0:0:0:
274,249,130320,2,0,P|318:253|406:284,1,135,2|0,0:0|0:0,0:0:0:0:
471,237,130935,2,0,P|493:274|472:322,2,90,2|0|2,0:0|0:0|0:0,0:0:0:0:
401,196,131704,1,0,0:0:0:0:
484,108,131858,6,0,P|490:67|502:-1,1,90,2|0,0:0|0:0,0:0:0:0:
422,2,132320,2,0,P|416:43|404:111,1,90,2|0,0:0|0:0,0:0:0:0:
333,245,132935,6,0,B|295:192|173:228|253:334|134:401|86:325,1,315,2|2,0:0|0:0,0:0:0:0:
6,243,134166,5,8,0:0:0:0:
6,243,134243,1,8,0:0:0:0:
6,243,134320,2,0,P|57:237|124:205,1,121.499996292114,2|0,3:2|0:0,0:0:0:0:
131,199,134628,5,0,3:0:0:0:
198,244,134781,1,2,3:2:0:0:
264,195,134935,1,0,3:0:0:0:
325,273,135089,1,2,3:2:0:0:
405,173,135243,1,0,3:0:0:0:
470,296,135397,1,2,3:2:0:0:
323,132,135551,5,0,3:0:0:0:
263,55,135704,1,0,3:0:0:0:
184,143,135858,1,2,3:2:0:0:
123,23,136012,1,0,3:0:0:0:
39,166,136166,5,0,3:0:0:0:
228,257,136320,1,8,0:3:0:0:
105,106,136474,1,6,3:2:0:0:
19,311,136628,1,8,0:0:0:0:
255,179,136781,6,0,L|307:193,3,47.2499985580445,6|8|8|8,3:2|0:0|0:0|0:0,0:0:0:0:
357,136,137089,2,0,L|409:122,3,47.2499985580445,8|8|8|8,0:0|0:0|0:0|0:0,0:0:0:0:
465,170,137397,5,8,0:0:0:0:
458,216,137473,1,8,0:0:0:0:
451,263,137550,1,8,0:0:0:0:
445,310,137627,1,8,0:0:0:0:
438,357,137704,1,8,0:0:0:0:
284,104,137858,5,10,3:2:0:0:
505,2,138166,5,10,3:2:0:0:
281,272,138474,5,10,0:0:0:0:
49,10,138781,5,8,0:3:0:0:
256,192,139089,5,6,3:2:0:0:
256,192,139166,12,2,141243,3:0:0:0:
256,192,141551,5,2,3:0:0:0:
256,192,141628,12,0,143243,0:0:0:0:
332,131,143397,5,0,3:0:0:0:
332,131,143474,1,0,3:0:0:0:
332,131,143550,1,8,0:0:0:0:
224,233,143704,1,0,3:0:0:0:
171,72,143858,1,8,0:0:0:0:
349,250,144012,1,4,3:2:0:0:
256,192,144089,12,2,146166,3:0:0:0:
256,192,146474,5,2,3:0:0:0:
256,192,146551,12,0,148628,0:0:0:0:
48,365,148935,6,0,P|40:317|14:214,1,153.000002918243,6|0,3:2|0:0,0:0:0:0:
116,318,149397,2,0,P|110:287|94:222,1,76.5000014591217,0|0,3:2|0:0,0:0:0:0:
196,128,149704,2,0,P|187:165|180:202,1,76.5000014591217,2|0,3:2|0:0,0:0:0:0:
274,137,150012,2,0,P|265:174|258:211,1,76.5000014591217,0|0,3:0|0:0,0:0:0:0:
333,351,150320,2,0,P|326:313|317:276,1,76.5000014591217,2|0,3:2|0:0,0:0:0:0:
408,337,150628,2,0,P|401:299|392:262,1,76.5000014591217,0|0,3:0|0:0,0:0:0:0:
343,201,150935,5,10,0:0:0:0:
502,12,151089,1,2,3:2:0:0:
502,12,151397,6,0,P|478:98|462:186,1,170.999995433807,2|0,3:2|0:0,0:0:0:0:
417,32,151858,2,0,P|405:75|397:119,1,85.4999977169037,0|0,3:0|0:0,0:0:0:0:
343,262,152166,2,0,P|335:219|324:178,1,85.4999977169037,10|0,0:0|0:0,0:0:0:0:
267,280,152474,2,0,P|259:237|248:196,1,85.4999977169037,0|0,3:0|0:0,0:0:0:0:
198,20,152781,2,0,P|186:63|178:107,1,85.4999977169037,2|0,3:2|0:0,0:0:0:0:
123,4,153089,2,0,P|111:47|103:91,1,85.4999977169037,0|0,3:0|3:0,0:0:0:0:
130,163,153320,5,0,3:0:0:0:
130,163,153397,1,10,0:0:0:0:
0,254,153551,1,2,3:2:0:0:
28,43,153704,1,8,0:0:0:0:
259,116,153858,6,0,P|317:97|446:85,1,188.999994232178,6|0,3:2|0:0,0:0:0:0:
443,84,154320,1,0,3:0:0:0:
333,272,154474,2,0,P|326:225|314:179,1,94.499997116089,2|0,0:0|3:0,0:0:0:0:
254,287,154781,2,0,P|247:240|235:194,1,94.499997116089,2|0,0:0|3:0,0:0:0:0:
415,356,155089,2,0,P|421:309|433:263,1,94.499997116089,2|0,0:0|3:0,0:0:0:0:
494,371,155396,2,0,P|500:324|512:278,1,94.499997116089,2|8,0:0|0:0,0:0:0:0:
488,203,155704,1,2,0:0:0:0:
316,349,155858,5,8,0:0:0:0:
254,287,156012,1,0,3:0:0:0:
254,287,156320,6,0,P|185:298|48:349,1,207.000003948212,2|0,3:2|0:0,0:0:0:0:
101,148,156781,5,0,3:0:0:0:
157,217,156935,1,0,0:0:0:0:
31,259,157089,5,8,3:2:0:0:
111,63,157243,1,0,0:0:0:0:
317,234,157397,5,8,3:2:0:0:
368,168,157551,1,0,3:0:0:0:
363,158,157628,1,8,0:0:0:0:
363,158,158166,6,0,L|370:76,1,81
364,64,158935,5,0,3:0:0:0:
291,91,159089,1,2,0:3:0:0:
236,39,159243,1,2,0:3:0:0:
163,66,159397,1,2,0:3:0:0:
163,66,160320,5,2,0:3:0:0:
115,134,160474,1,2,0:3:0:0:
167,210,160628,1,2,0:3:0:0:
167,210,160704,1,2,0:3:0:0:
167,210,160781,1,2,0:3:0:0:
247,189,160935,1,2,0:3:0:0:
319,228,161089,1,2,0:3:0:0:
316,308,161243,1,2,0:3:0:0:
218,378,161397,5,0,3:0:0:0:
158,330,161551,1,2,0:3:0:0:
90,367,161704,1,2,0:3:0:0:
30,319,161858,1,2,0:3:0:0:
30,319,162474,5,2,0:3:0:0:
34,306,162551,1,2,0:3:0:0:
3,205,162781,5,2,0:3:0:0:
81,222,162935,1,2,0:3:0:0:
159,239,163089,1,2,0:3:0:0:
237,256,163243,1,2,0:3:0:0:
237,256,163858,5,0,3:0:0:0:
280,188,164012,1,2,0:3:0:0:
235,119,164166,1,2,0:3:0:0:
278,51,164320,1,2,0:3:0:0:
278,51,164935,5,2,0:3:0:0:
288,57,165012,1,2,0:3:0:0:
298,63,165089,1,2,0:3:0:0:
369,28,165243,1,2,0:3:0:0:
431,82,165397,1,2,0:3:0:0:
431,82,165858,5,2,0:3:0:0:
420,160,166012,1,2,0:3:0:0:
409,238,166166,1,2,0:3:0:0:
462,330,166320,5,0,3:0:0:0:
386,347,166474,1,2,0:3:0:0:
310,364,166627,1,2,0:3:0:0:
234,381,166781,1,2,0:3:0:0:
234,381,168166,5,2,0:0:0:0:
259,232,168474,1,0,0:0:0:0:
284,83,168781,5,0,3:0:0:0:
224,28,168935,1,2,0:3:0:0:
153,64,169089,1,2,0:3:0:0:
157,140,169243,1,2,0:3:0:0:
157,140,170166,5,2,0:3:0:0:
79,111,170320,1,2,0:3:0:0:
17,163,170474,1,2,0:3:0:0:
17,163,170551,1,2,0:3:0:0:
17,163,170628,1,2,0:3:0:0:
31,244,170781,1,2,0:3:0:0:
108,272,170934,1,2,0:3:0:0:
170,219,171088,1,2,0:3:0:0:
249,330,171243,5,0,3:0:0:0:
319,288,171397,1,2,0:3:0:0:
389,330,171551,1,2,0:3:0:0:
459,288,171704,1,2,0:3:0:0:
459,288,172320,5,2,0:3:0:0:
456,277,172397,1,2,0:3:0:0:
503,170,172628,5,2,0:3:0:0:
469,92,172781,1,2,0:3:0:0:
508,19,172935,1,2,0:3:0:0:
508,19,173704,5,0,3:0:0:0:
427,22,173858,1,2,0:3:0:0:
346,25,174012,1,2,0:3:0:0:
265,28,174166,1,2,0:3:0:0:
265,28,174781,5,2,0:3:0:0:
269,41,174858,1,2,0:3:0:0:
216,139,175089,5,2,0:3:0:0:
280,202,175243,1,2,0:3:0:0:
234,272,175397,1,2,0:3:0:0:
234,272,175858,5,2,0:3:0:0:
152,290,176012,1,2,0:3:0:0:
156,294,177858,5,2,0:0:0:0:
156,294,178012,2,0,P|164:337|169:371,2,58.4999973220826,2|0|2,0:0|0:0|0:0,0:0:0:0:
81,260,178474,2,0,P|69:186|59:134,1,116.999994644165,2|0,0:0|0:0,0:0:0:0:
145,160,178935,2,0,P|151:194|157:229,1,58.4999973220826,2|0,0:0|0:0,0:0:0:0:
2,86,179243,6,0,P|68:116|85:-4,1,229.500004377365,12|0,3:2|0:0,0:0:0:0:
92,0,179858,5,10,0:0:0:0:
206,74,180012,1,0,3:0:0:0:
271,17,180166,1,0,3:0:0:0:
428,128,180320,6,0,L|419:181,1,38.2500007295609,10|0,0:0|0:0,0:0:0:0:
440,124,180628,6,0,L|431:177,1,38.2500007295609,2|0,3:2|0:0,0:0:0:0:
452,120,180935,6,0,L|416:337,1,215.999993408203,4|0,3:2|3:0,0:0:0:0:
346,367,181320,1,0,3:0:0:0:
346,367,181397,2,0,P|294:370|264:328,1,107.999996704102,12|0,0:0|0:0,0:0:0:0:
356,157,181704,1,0,3:0:0:0:
356,157,181858,1,0,3:0:0:0:
193,294,182012,2,0,P|130:306|77:330,1,107.999996704102,8|0,0:0|0:0,0:0:0:0:
0,165,182320,5,0,3:0:0:0:
128,39,182474,1,2,3:2:0:0:
207,195,182628,1,10,0:0:0:0:
124,138,182781,1,2,0:0:0:0:
260,19,182935,1,8,0:3:0:0:
121,230,183089,1,8,0:3:0:0:
121,230,183166,1,8,0:3:0:0:
121,230,183243,1,8,0:0:0:0:
0,0,183397,5,10,0:0:0:0:
0,0,184089,5,8,0:0:0:0:
2,12,184166,2,0,P|31:48|144:17,1,161.999995056153,4|0,3:2|0:0,0:0:0:0:
144,23,184474,5,10,0:0:0:0:
169,14,184551,1,8,0:0:0:0:
209,30,184628,1,8,0:0:0:0:
224,86,184704,1,8,0:0:0:0:
173,131,184781,1,2,0:0:0:0:
173,131,185858,6,0,P|241:138|348:173,1,161.999995056153,4|0,3:2|0:0,0:0:0:0:
414,154,186166,1,0,3:0:0:0:
414,154,186243,1,0,3:0:0:0:
414,154,186320,2,0,P|439:99|387:60,1,107.999996704102,12|0,0:0|0:0,0:0:0:0:
236,212,186627,1,0,3:0:0:0:
308,272,186781,1,0,3:0:0:0:
275,112,186935,1,10,0:0:0:0:
135,239,187089,1,4,3:2:0:0:
392,361,187243,5,2,0:0:0:0:
333,192,187397,1,8,0:0:0:0:
333,192,187474,1,8,0:0:0:0:
333,192,187551,1,8,0:0:0:0:
194,335,187704,1,2,3:2:0:0:
411,239,187858,5,2,0:0:0:0:
328,36,188012,1,10,0:0:0:0:
111,132,188166,1,2,3:2:0:0:
333,281,188320,5,0,3:2:0:0:
333,281,188397,1,8,0:0:0:0:
333,281,188474,1,4,3:2:0:0:
414,151,188628,1,2,3:2:0:0:
245,60,188781,2,0,P|175:57|79:22,1,161.999995056153,10|0,0:0|0:0,0:0:0:0:
13,52,189089,1,0,3:0:0:0:
13,52,189243,1,0,3:0:0:0:
103,216,189397,2,0,P|184:210|164:129,1,161.999995056153,10|0,0:0|0:0,0:0:0:0:
191,137,189704,6,0,P|158:109|97:139,1,107.999996704102,2|0,3:2|3:0,0:0:0:0:
5,250,190012,1,10,0:0:0:0:
5,250,190166,2,0,P|21:304|32:373,2,107.999996704102,2|0|0,0:0|3:0|3:0,0:0:0:0:
30,166,190628,1,10,0:0:0:0:
232,263,190781,5,0,0:0:0:0:
232,263,190858,1,2,0:3:0:0:
232,263,190935,2,0,P|306:271|401:308,1,161.999995056153,2|0,3:2|0:0,0:0:0:0:
401,311,191243,1,10,0:0:0:0:
505,194,191397,2,0,P|485:145|422:234,1,215.999993408203,2|0,0:0|3:0,0:0:0:0:
480,278,191858,1,8,0:0:0:0:
201,347,192012,6,0,P|194:287|159:120,1,215.999993408203,6|0,3:2|3:0,0:0:0:0:
291,2,192474,1,8,0:0:0:0:
315,89,192628,1,6,3:2:0:0:
73,146,192781,1,2,0:0:0:0:
39,43,192935,1,2,3:2:0:0:
39,43,193012,1,0,3:0:0:0:
39,43,193089,1,10,0:0:0:0:
260,174,193243,6,0,P|341:178|420:211,1,161.999995056153,6|0,3:2|0:0,0:0:0:0:
491,186,193551,2,0,P|527:135|409:90,1,215.999993408203,0|2,3:0|3:2,0:0:0:0:
420,87,193935,1,0,3:0:0:0:
416,97,194012,1,10,0:0:0:0:
301,26,194166,1,0,3:0:0:0:
240,86,194320,1,0,0:0:0:0:
84,48,194474,6,0,P|103:126|118:206,1,161.999995056153,2|0,3:2|0:0,0:0:0:0:
50,247,194781,2,0,P|28:137|1:29,1,215.999993408203,0|2,3:0|3:2,0:0:0:0:
6,24,195166,1,0,3:0:0:0:
10,13,195243,1,10,0:0:0:0:
170,52,195397,1,0,3:0:0:0:
122,122,195551,1,8,0:0:0:0:
263,231,195704,6,0,P|331:241|387:264,1,107.999996704102,6|0,3:2|0:0,0:0:0:0:
342,150,196012,1,2,3:2:0:0:
198,283,196166,2,0,P|151:342|69:309,1,161.999995056153,10|0,0:0|0:0,0:0:0:0:
68,308,196474,1,0,3:0:0:0:
10,375,196628,1,0,3:0:0:0:
76,198,196781,1,8,0:0:0:0:
259,358,196935,6,0,P|357:338|483:331,1,215.999993408203,4|0,3:2|3:0,0:0:0:0:
295,271,197397,2,0,P|349:259|419:255,1,107.999996704102,8|2,0:0|0:0,0:0:0:0:
506,147,197704,1,2,3:2:0:0:
436,32,197858,1,0,0:0:0:0:
285,72,198012,5,0,3:0:0:0:
233,81,198088,1,8,0:0:0:0:
188,53,198165,1,8,0:0:0:0:
174,2,198242,1,8,0:0:0:0:
185,7,198320,5,0,0:0:0:0:
256,192,201397,12,12,202935,0:0:0:0:
359,283,203243,6,0,P|405:344|495:322,1,161.999995056153,6|0,3:2|0:0,0:0:0:0:
442,228,203704,2,0,L|435:294,1,40.4999987640381,6|0,3:2|0:0,0:0:0:0:
66,360,204166,6,0,B|85:258|17:145|17:145|91:246|195:217,1,404.999987640381,6|0,3:2|0:0,0:0:0:0:
241,168,205089,1,10,0:0:0:0:
309,255,205243,1,8,0:3:0:0:
389,134,205397,1,4,0:3:0:0:
316,245,205551,1,4,0:3:0:0:
210,70,205704,6,0,P|274:85|312:101,1,80.9999975280763,6|0,3:2|0:0,0:0:0:0:
352,37,206012,1,8,0:0:0:0:
512,179,206166,6,0,P|448:194|410:210,1,80.9999975280763,6|0,3:2|0:0,0:0:0:0:
370,146,206474,1,8,0:0:0:0:
177,284,206628,6,0,P|280:308|347:335,1,161.999995056153,6|2,3:2|0:3,0:0:0:0:
399,287,207089,1,0,0:0:0:0:
494,363,207243,1,8,0:0:0:0:
311,236,207397,1,2,0:3:0:0:
311,236,207474,1,2,0:3:0:0:
311,236,207551,2,0,L|303:186,1,40.4999987640381,8|0,0:0|0:0,0:0:0:0:
510,8,207858,5,2,0:0:0:0:
460,87,208012,1,0,0:0:0:0:
256,27,208166,6,0,P|175:22|111:-11,1,135,6|0,3:2|0:0,0:0:0:0:
53,30,208473,2,0,P|48:112|15:175,1,148.50000453186,10|0,0:0|0:0,0:0:0:0:
53,244,208781,2,0,P|139:250|207:285,1,161.999995056153,4|0,0:3|0:0,0:0:0:0:
278,252,209089,6,0,B|323:337|450:344|481:273|478:216|445:187|366:185|381:245,1,315,6|0,3:2|0:0,0:0:0:0:
382,220,209704,5,10,0:0:0:0:
256,351,209858,1,0,0:0:0:0:
185,150,210012,1,2,0:0:0:0:
283,243,210166,1,8,0:0:0:0:
428,127,210320,2,0,P|433:69|443:22,1,90,8|0,0:3|0:0,0:0:0:0:
286,131,210628,5,14,0:0:0:0:
474,252,210781,1,0,3:0:0:0:
394,310,210935,1,0,3:0:0:0:
207,225,211089,5,14,0:0:0:0:
428,127,211243,1,0,3:0:0:0:
317,49,211397,1,0,3:0:0:0:
81,180,211551,6,0,P|96:257|111:360,1,180,14|0,0:0|0:0,0:0:0:0:
16,245,212012,1,2,0:0:0:0:
16,245,212089,1,0,0:0:0:0:
16,245,212166,2,0,P|24:289|31:334,1,90,2|0,0:0|0:0,0:0:0:0:
295,352,212474,5,8,0:0:0:0:
330,353,212550,1,8,0:0:0:0:
358,329,212627,1,8,0:0:0:0:
359,292,212704,1,8,0:0:0:0:
335,265,212782,5,8,0:0:0:0:
303,222,212858,1,8,0:0:0:0:
319,170,212935,1,8,0:0:0:0:
370,154,213012,1,8,0:0:0:0:
413,187,213089,6,0,P|448:196|488:163,2,90,6|0|8,3:2|3:0|0:0,0:0:0:0:
311,64,213551,2,0,P|261:57|219:41,1,90,2|0,3:2|0:0,0:0:0:0:
155,1,213858,1,0,3:0:0:0:
38,123,214012,6,0,P|108:157|144:59,1,180,10|0,0:0|0:0,0:0:0:0:
155,1,214474,1,0,3:0:0:0:
268,142,214628,2,0,P|253:195|246:239,1,90,8|0,0:0|0:0,0:0:0:0:
246,359,214935,1,2,3:2:0:0:
154,276,215089,1,0,3:0:0:0:
17,375,215243,1,8,0:0:0:0:
164,280,215397,1,0,0:0:0:0:
17,138,215551,5,6,3:2:0:0:
117,353,215705,1,0,3:0:0:0:
330,211,215858,1,10,0:0:0:0:
212,28,216012,1,2,3:2:0:0:
87,190,216166,5,8,0:0:0:0:
130,199,216242,1,8,0:0:0:0:
168,178,216319,1,0,3:0:0:0:
183,136,216396,1,0,3:0:0:0:
167,95,216473,1,10,0:0:0:0:
8,262,216628,6,0,P|81:268|202:302,1,180,6|0,3:2|3:0,0:0:0:0:
374,364,217089,1,8,0:0:0:0:
499,222,217243,1,0,3:0:0:0:
271,144,217397,1,10,0:0:0:0:
349,233,217551,1,0,3:0:0:0:
487,114,217704,2,0,P|494:65|507:8,1,90,8|0,0:0|0:0,0:0:0:0:
271,144,218012,6,0,P|341:150|366:91,1,135,6|0,3:2|0:0,0:0:0:0:
259,149,218320,6,0,P|215:212|257:267,1,155.250002961159,10|0,0:0|0:0,0:0:0:0:
261,135,218628,6,0,P|223:56|145:65,1,175.499991966248,4|0,0:3|0:0,0:0:0:0:
33,3,218935,6,0,B|101:34|158:96|138:186|101:208|52:213|7:188|-10:141|28:97,1,360,6|8,3:2|0:0,0:0:0:0:
197,196,219551,1,2,3:2:0:0:
6,360,219704,1,0,3:0:0:0:
6,360,219781,1,0,3:0:0:0:
6,360,219858,5,10,0:0:0:0:
291,228,220012,1,8,0:0:0:0:
17,112,220166,1,8,0:0:0:0:
134,377,220320,1,8,0:0:0:0:
185,315,220474,6,0,L|177:276,1,36,2|0,0:0|0:0,0:0:0:0:
116,233,220781,1,0,0:0:0:0:
116,233,220935,2,0,L|108:194,1,36,2|0,0:0|0:0,0:0:0:0:
147,128,221243,1,0,0:0:0:0:
147,128,221397,6,0,B|231:32|345:174|260:205|398:326|463:230,1,405,2|0,0:0|0:0,0:0:0:0:
