osu file format v14

[General]
AudioFilename: audio.mp3
AudioLeadIn: 0
PreviewTime: 60858
Countdown: 0
SampleSet: Soft
StackLeniency: 0.4
Mode: 0
LetterboxInBreaks: 0
WidescreenStoryboard: 1

[Editor]
Bookmarks: 224166
DistanceSpacing: 1
BeatDivisor: 4
GridSize: 32
TimelineZoom: 1.7

[Metadata]
Title:Mirai Isho
TitleUnicode:未来遺書
Artist:PHAZE
ArtistUnicode:PHAZE
Creator:KaedeharaKazuha
Version:Easy
Source:
Tags:Addy2607 Kaedehara Kazuha Kyouren gokugohan12468 KittyAdventure FA featured artist japanese rock jrock j-rock vrchat mappers' guild mg mpg showcase
BeatmapID:4159104
BeatmapSetID:1989072

[Difficulty]
HPDrainRate:2
CircleSize:2.5
OverallDifficulty:3
ApproachRate:4
SliderMultiplier:0.9
SliderTickRate:1

[Events]
//Background and Video events
0,0,"BG.jpg",0,0
//Break Periods
2,22520,29615
2,141751,147615
2,158935,176692
2,198520,201923
//Storyboard Layer 0 (Background)
//Storyboard Layer 1 (Fail)
//Storyboard Layer 2 (Pass)
//Storyboard Layer 3 (Foreground)
//Storyboard Layer 4 (Overlay)
//Storyboard Sound Samples

[TimingPoints]
167,307.692307692308,4,2,1,40,1,0
1859,-100,4,2,1,40,0,0
2474,-100,4,2,1,50,0,0
2628,307.692307692308,4,2,1,50,1,0
2628,-100,4,2,1,50,0,0
12474,-100,4,2,1,60,0,0
17628,-100,4,2,1,5,0,0
17704,-100,4,2,1,60,0,0
17935,-100,4,2,1,5,0,0
18012,-100,4,2,1,60,0,0
18243,-100,4,2,1,5,0,0
18320,-100,4,2,1,60,0,0
19858,-100,4,2,1,40,0,0
20781,-100,4,2,1,40,0,0
22320,-100,4,2,1,50,0,0
32166,-100,4,2,1,60,0,0
42012,-100,4,2,1,70,0,0
51858,-100,4,2,1,50,0,0
56166,-100,4,2,1,50,0,0
56781,-100,4,2,1,60,0,0
59243,-100,4,2,1,70,0,0
60935,-100,4,2,1,50,0,0
61551,-100,4,2,1,80,0,1
76320,-100,4,2,1,80,0,1
79243,-100,4,2,1,30,0,1
79320,-100,4,2,1,34,0,1
79397,-100,4,2,1,38,0,1
79474,-100,4,2,1,42,0,1
79551,-100,4,2,1,46,0,1
79628,-100,4,2,1,50,0,1
79705,-100,4,2,1,54,0,1
79782,-100,4,2,1,58,0,1
79859,-100,4,2,1,62,0,1
79936,-100,4,2,1,66,0,1
80013,-100,4,2,1,70,0,1
80090,-100,4,2,1,74,0,1
80166,-100,4,2,1,80,0,0
81397,-100,4,2,1,60,0,0
86551,-100,4,2,1,5,0,0
86628,-100,4,2,1,60,0,0
86858,-100,4,2,1,5,0,0
86935,-100,4,2,1,60,0,0
87166,-100,4,2,1,5,0,0
87243,-100,4,2,1,60,0,0
90628,-100,4,2,1,30,0,0
90704,-100,4,2,1,35,0,0
90781,-100,4,2,1,40,0,0
90858,-100,4,2,1,45,0,0
90935,-100,4,2,1,50,0,0
91012,-100,4,2,1,55,0,0
91089,-100,4,2,1,60,0,0
91166,-100,4,2,1,65,0,0
91243,-100,4,2,1,70,0,0
99858,-100,4,2,2,50,0,0
109704,-100,4,2,2,60,0,0
118935,-100,4,2,0,60,0,0
119397,-100,4,2,1,70,0,0
129397,-100,4,2,1,50,0,0
134320,-100,4,2,1,60,0,0
136781,-100,4,2,1,70,0,0
136858,-100,4,2,1,30,0,0
136935,-100,4,2,1,34,0,0
137012,-100,4,2,1,38,0,0
137089,-100,4,2,1,42,0,0
137166,-100,4,2,1,46,0,0
137243,-100,4,2,1,50,0,0
137320,-100,4,2,1,54,0,0
137397,-100,4,2,1,58,0,0
137474,-100,4,2,1,62,0,0
137551,-100,4,2,1,66,0,0
137628,-100,4,2,1,70,0,0
137705,-100,4,2,1,74,0,0
137781,-100,4,2,1,78,0,0
137858,-100,4,2,1,80,0,0
139089,-100,4,2,1,60,0,0
151397,-100,4,2,1,65,0,0
153858,-100,4,2,1,70,0,0
156320,-100,4,2,1,75,0,0
158166,-100,4,2,1,50,0,0
158935,-100,4,2,1,40,0,0
177858,-100,4,2,1,60,0,0
178781,-100,4,2,1,5,0,0
178935,-100,4,2,1,60,0,0
179243,-100,4,2,1,70,0,0
180935,-100,4,2,1,80,0,1
183397,-100,4,2,1,60,0,0
184166,-100,4,2,1,80,0,1
184474,-100,4,2,1,40,0,1
184551,-100,4,2,1,50,0,1
184628,-100,4,2,1,60,0,1
184704,-100,4,2,1,70,0,1
184781,-100,4,2,1,60,0,0
185858,-100,4,2,1,80,0,1
198320,-100,4,2,1,50,0,0
203243,-100,4,2,1,60,0,0
208166,-100,4,2,1,60,0,0
208397,-100,4,2,1,5,0,0
208473,-100,4,2,1,60,0,0
208704,-100,4,2,1,5,0,0
208781,-100,4,2,1,60,0,0
209012,-100,4,2,1,5,0,0
209089,-100,4,2,1,60,0,0
212474,-100,4,2,1,30,0,0
212550,-100,4,2,1,35,0,0
212627,-100,4,2,1,40,0,0
212704,-100,4,2,1,45,0,0
212781,-100,4,2,1,50,0,0
212858,-100,4,2,1,55,0,0
212935,-100,4,2,1,60,0,0
213012,-100,4,2,1,65,0,0
213089,-100,4,2,1,70,0,0
218243,-100,4,2,1,5,0,0
218320,-100,4,2,1,70,0,0
218551,-100,4,2,1,5,0,0
218628,-100,4,2,1,70,0,0
218858,-100,4,2,1,5,0,0
218935,-100,4,2,1,70,0,0
220474,-100,4,2,1,50,0,0
221397,-100,4,2,1,50,0,0
222012,-100,4,2,2,40,0,0
222628,-100,4,2,1,30,0,0
223243,-100,4,2,2,20,0,0
224166,-100,4,2,1,5,0,0

[Colours]
Combo1 : 111,139,206
Combo2 : 165,205,218
Combo3 : 86,148,239
Combo4 : 182,223,243

[HitObjects]
471,347,2474,6,0,P|475:288|486:202,1,135,6|2,3:2|0:0,0:0:0:0:
324,128,3551,1,2,0:0:0:0:
262,192,3858,2,0,P|253:258|248:326,1,135,2|2,0:0|0:0,0:0:0:0:
174,378,4628,1,2,3:2:0:0:
110,314,4935,6,0,P|114:246|123:179,1,135,2|2,3:2|0:3,0:0:0:0:
79,101,5704,2,0,P|52:82|-7:100,2,90,0|2|0,0:0|0:3|0:0,0:0:0:0:
155,52,6628,1,2,0:0:0:0:
230,101,6935,1,10,0:0:0:0:
349,37,7397,6,0,P|410:46|407:122,1,135,6|2,3:2|0:0,0:0:0:0:
359,282,8474,1,2,0:0:0:0:
359,282,8781,6,0,P|425:293|487:319,2,135,2|2|0,0:0|0:0|0:0,0:0:0:0:
318,300,9858,2,0,P|273:322|207:195,1,225,2|0,3:2|0:0,0:0:0:0:
250,129,10935,1,2,0:3:0:0:
184,65,11243,2,0,P|120:83|40:85,1,135,2|2,0:0|0:0,0:0:0:0:
16,308,12474,6,0,P|80:290|160:288,1,135,6|2,3:2|3:2,0:0:0:0:
273,338,13397,2,0,P|324:360|388:262,1,180,6|8,3:2|0:0,0:0:0:0:
345,200,14320,1,10,0:0:0:0:
392,123,14628,1,4,0:3:0:0:
333,54,14935,6,0,P|270:56|189:33,1,135,14|14,0:0|0:0,0:0:0:0:
67,62,15858,2,0,P|12:85|27:192,1,180,14|8,0:0|0:0,0:0:0:0:
98,238,16781,1,8,0:0:0:0:
153,167,17089,1,8,0:3:0:0:
219,227,17397,6,0,P|215:274|212:324,2,90,10|8|4,0:0|0:3|0:3,0:0:0:0:
305,200,18320,2,0,P|298:109|291:11,1,180,6|10,3:2|0:0,0:0:0:0:
378,43,19243,2,0,P|381:91|385:143,1,90,10|4,0:0|0:3,0:0:0:0:
455,188,19858,5,2,0:0:0:0:
399,311,20320,1,2,0:0:0:0:
268,278,20781,1,2,0:0:0:0:
256,192,20935,12,2,22320,0:0:0:0:
128,122,30935,6,0,P|138:178|145:224,1,90,2|10,3:2|0:0,0:0:0:0:
91,284,31551,1,10,3:2:0:0:
248,370,32166,2,0,P|312:356|398:345,1,135,6|2,3:2|0:0,0:0:0:0:
424,267,32935,1,2,3:2:0:0:
353,211,33243,2,0,P|307:217|261:227,1,90,2|2,0:0|3:2,0:0:0:0:
131,251,34012,1,2,3:2:0:0:
61,193,34320,1,10,0:0:0:0:
105,114,34628,6,0,P|172:104|239:90,1,135,2|2,3:2|0:0,0:0:0:0:
361,37,35551,2,0,P|441:10|494:76,1,180,10|8,0:0|0:0,0:0:0:0:
437,145,36474,1,0,3:0:0:0:
493,214,36781,1,10,0:0:0:0:
428,276,37089,6,0,P|372:263|291:259,1,135,6|2,3:2|0:0,0:0:0:0:
227,318,37858,1,2,3:2:0:0:
144,282,38166,2,0,P|99:241|129:175,1,135,2|10,0:0|0:0,0:0:0:0:
192,122,38935,1,2,3:2:0:0:
372,125,39551,2,0,P|429:131|511:155,2,135,0|0|8,3:0|3:0|0:0,0:0:0:0:
308,61,40781,1,10,0:0:0:0:
226,99,41089,1,8,0:0:0:0:
165,32,41397,1,8,0:0:0:0:
16,132,42012,6,0,P|24:180|33:233,1,90,6|2,3:2|0:0,0:0:0:0:
107,268,42628,1,8,0:0:0:0:
272,197,43243,2,0,P|279:241|286:285,2,90,2|2|10,3:2|0:0|0:0,0:0:0:0:
331,129,44166,1,0,0:0:0:0:
400,71,44474,2,0,P|393:33|387:-4,2,67.5,4|0|0,3:2|3:0|3:0,0:0:0:0:
500,161,45397,1,0,0:0:0:0:
441,229,45704,2,0,P|448:273|455:317,2,90,2|2|10,3:2|0:0|0:0,0:0:0:0:
308,204,46781,6,0,P|256:213|166:232,1,135,2|2,0:0|0:0,0:0:0:0:
95,186,47551,1,8,0:0:0:0:
202,41,48166,2,0,P|241:34|304:22,2,90,2|2|10,3:2|0:0|0:0,0:0:0:0:
119,5,49089,1,0,0:0:0:0:
67,78,49397,2,0,P|31:84|-3:90,2,67.5,4|0|0,3:2|3:0|3:0,0:0:0:0:
156,179,50320,1,0,0:0:0:0:
101,250,50628,2,0,P|56:258|12:266,2,90
152,323,51551,1,0,0:0:0:0:
239,301,51858,6,0,P|302:307|418:338,1,180,2|0,0:0|0:0,0:0:0:0:
475,270,52781,2,0,P|481:207|512:91,1,180,2|0,0:0|0:0,0:0:0:0:
348,14,54012,1,2,0:0:0:0:
274,66,54320,2,0,P|262:129|314:167,1,135,2|0,0:0|0:0,0:0:0:0:
384,224,55089,1,0,0:0:0:0:
323,290,55397,2,0,P|242:301|176:323,1,135,2|0,0:0|0:0,0:0:0:0:
15,279,56474,1,2,0:0:0:0:
61,201,56781,6,0,P|50:120|28:54,1,135,6|2,3:2|3:2,0:0:0:0:
96,4,57551,1,2,3:2:0:0:
180,34,57858,2,0,P|191:115|213:181,1,135,2|2,3:2|3:2,0:0:0:0:
162,340,58935,1,4,3:2:0:0:
247,367,59243,6,0,P|305:352|382:343,1,135,6|10,3:2|0:0,0:0:0:0:
465,370,60012,1,10,0:0:0:0:
510,292,60320,1,10,3:2:0:0:
453,221,60628,1,10,3:2:0:0:
217,353,61551,6,0,P|173:340|81:344,1,135,4|10,3:1|0:0,0:0:0:0:
18,282,62320,1,0,3:0:0:0:
74,211,62628,1,10,0:0:0:0:
9,148,62935,2,0,P|-20:104|39:40,1,135,2|6,3:2|3:2,0:0:0:0:
105,73,63704,1,2,3:2:0:0:
174,16,64012,6,0,P|239:33|305:44,1,135,4|12,3:2|0:0,0:0:0:0:
390,13,64781,2,0,P|421:9|462:52,1,90,0|10,3:0|0:0,0:0:0:0:
436,133,65397,2,0,P|454:157|438:214,1,90,2|10,3:2|0:0,0:0:0:0:
368,263,66012,1,8,0:3:0:0:
284,156,66474,6,0,P|217:147|151:130,1,135,6|10,3:2|0:0,0:0:0:0:
65,157,67243,1,0,3:0:0:0:
119,228,67551,1,10,0:0:0:0:
96,315,67858,2,0,P|51:306|-1:373,2,135,2|6|10,3:2|3:2|0:0,0:0:0:0:
136,335,68935,6,0,P|186:324|277:321,1,135,6|12,3:2|0:0,0:0:0:0:
348,364,69704,1,0,3:0:0:0:
490,253,70320,2,0,P|490:208|497:149,1,90,8|8,0:0|0:0,0:0:0:0:
438,92,70935,1,2,3:2:0:0:
372,153,71243,1,2,3:2:0:0:
301,97,71551,6,0,P|256:73|201:162,1,180,6|0,3:2|3:2,0:0:0:0:
271,217,72474,1,10,0:0:0:0:
220,291,72781,2,0,P|166:296|80:321,1,135,2|2,3:2|0:0,0:0:0:0:
4,211,73705,1,10,0:0:0:0:
55,137,74012,6,0,P|109:132|195:107,1,135,2|2,3:2|0:0,0:0:0:0:
286,19,74935,1,10,0:0:0:0:
368,54,75243,2,0,P|411:31|458:47,2,90,0|12|2,3:0|0:0|3:2,0:0:0:0:
308,175,76320,6,0,P|320:229|331:273,1,90,6|2,3:2|3:2,0:0:0:0:
248,371,77089,1,10,0:0:0:0:
130,303,77551,2,0,P|119:259|109:215,1,90,2|2,3:2|3:2,0:0:0:0:
25,109,78320,1,10,0:0:0:0:
64,28,78628,1,14,0:0:0:0:
147,61,78935,6,0,P|193:66|243:81,1,90,0|8,3:0|0:0,0:0:0:0:
300,16,79551,2,0,P|346:11|396:-4,1,90,8|8,0:0|0:0,0:0:0:0:
465,45,80166,1,0,0:0:0:0:
465,45,81397,6,0,P|502:70|476:163,1,135,4|6,3:2|3:2,0:0:0:0:
512,285,82320,2,0,P|464:261|323:241,1,180,6|0,3:2|0:0,0:0:0:0:
282,309,83243,1,10,0:0:0:0:
209,255,83551,1,4,0:3:0:0:
143,316,83858,6,0,P|82:331|51:271,1,135,6|6,3:2|3:2,0:0:0:0:
2,150,84781,2,0,P|63:165|94:105,1,135,6|4,3:2|3:2,0:0:0:0:
297,12,86012,1,2,0:0:0:0:
370,64,86320,6,0,P|418:55|466:46,2,90,6|10|4,3:2|0:0|0:3,0:0:0:0:
307,128,87243,2,0,P|237:117|113:96,1,180,6|10,3:2|0:0,0:0:0:0:
54,148,88166,1,2,0:0:0:0:
129,311,88781,6,0,P|200:322|270:334,1,135,14|14,0:0|0:0,0:0:0:0:
395,357,89704,2,0,P|461:350|470:245,1,180,14|2,0:0|0:0,0:0:0:0:
429,174,90628,1,8,0:0:0:0:
488,106,90935,1,8,0:0:0:0:
424,41,91243,6,0,P|374:48|282:65,1,135,6|2,3:2|3:2,0:0:0:0:
163,18,92166,2,0,P|179:106|192:195,1,180,10|8,0:0|0:0,0:0:0:0:
141,269,93089,1,2,3:2:0:0:
66,218,93397,1,10,0:0:0:0:
5,283,93704,6,0,P|17:327|21:371,2,90,6|10|8,3:2|0:0|0:0,0:0:0:0:
0,147,94781,2,0,P|25:84|91:87,1,135,6|8,3:2|0:0,0:0:0:0:
162,128,95551,1,8,0:0:0:0:
218,58,95858,1,8,0:0:0:0:
297,100,96166,6,0,P|339:85|436:73,1,135,12|12,0:0|0:0,0:0:0:0:
457,204,97089,2,0,P|389:210|325:231,1,135,12|12,0:0|0:0,0:0:0:0:
210,301,98012,2,0,P|192:329|204:376,2,67.5,10|10|10,3:2|3:2|3:2,0:0:0:0:
210,301,99858,6,0,P|202:228|189:148,1,135,2|2,3:0|3:0,0:0:0:0:
243,92,100628,1,0,0:0:0:0:
321,136,100935,2,0,P|328:185|333:235,2,90,0|2|2,0:0|3:0|3:0,0:0:0:0:
412,36,102012,1,2,0:3:0:0:
486,86,102320,6,0,P|496:152|503:219,1,135,2|2,3:0|3:0,0:0:0:0:
470,350,103243,2,0,P|430:305|353:327,1,135,0|2,0:0|3:0,0:0:0:0:
297,379,104012,1,2,3:0:0:0:
80,319,104781,6,0,P|73:261|53:184,1,135,2|2,3:0|3:0,0:0:0:0:
123,129,105551,1,0,0:0:0:0:
77,51,105858,2,0,P|51:26|-11:37,2,90,2|2|2,0:3|3:0|3:0,0:0:0:0:
207,87,106935,1,2,0:3:0:0:
269,21,107243,6,0,P|317:19|404:-3,1,135,2|2,3:0|3:0,0:0:0:0:
477,45,108012,1,0,0:0:0:0:
431,122,108320,1,2,0:3:0:0:
497,183,108628,2,0,P|502:219|514:283,1,90,2|2,3:0|3:0,0:0:0:0:
304,360,109704,6,0,P|297:310|280:221,1,135,2|2,3:0|3:0,0:0:0:0:
328,149,110474,1,0,0:0:0:0:
257,92,110781,2,0,P|250:46|239:2,2,90,0|2|2,0:0|3:0|3:0,0:0:0:0:
151,176,111858,1,2,0:3:0:0:
75,126,112166,6,0,P|26:130|17:218,1,135,2|2,3:0|3:0,0:0:0:0:
9,338,113089,2,0,P|61:322|157:307,1,135,0|2,0:0|3:0,0:0:0:0:
266,355,114012,1,8,0:0:0:0:
336,299,114320,1,0,0:0:0:0:
281,227,114628,6,0,P|275:159|262:93,1,135,2|2,3:0|3:0,0:0:0:0:
313,19,115397,1,0,0:0:0:0:
391,62,115704,2,0,P|443:51|497:46,1,90,2|2,0:3|3:0,0:0:0:0:
495,136,116320,2,0,P|450:140|406:150,1,90,2|2,3:0|0:3,0:0:0:0:
351,221,116935,2,0,P|274:250|218:134,1,225,2|8,3:0|0:0,0:0:0:0:
268,72,118012,1,2,0:3:0:0:
198,14,118320,1,2,0:0:0:0:
9,266,119397,6,0,P|63:270|158:292,1,135,6|10,3:2|0:0,0:0:0:0:
200,355,120166,1,0,3:0:0:0:
263,290,120474,1,10,0:0:0:0:
326,353,120781,2,0,P|369:342|414:338,1,90,4|10,0:3|0:0,0:0:0:0:
474,270,121397,2,0,P|463:227|459:182,1,90,2|10,3:2|0:0,0:0:0:0:
509,106,122012,6,0,P|474:60|363:89,1,180,4|0,0:3|3:0,0:0:0:0:
311,154,122935,1,8,0:0:0:0:
240,98,123243,2,0,P|236:50|230:0,2,90,2|10|10,0:0|0:0|0:0,0:0:0:0:
149,198,124320,6,0,P|157:273|164:350,1,135,6|8,3:2|0:0,0:0:0:0:
241,375,125089,1,0,3:0:0:0:
302,309,125397,1,10,0:0:0:0:
378,355,125704,2,0,P|435:363|463:330,1,90,4|10,0:3|0:0,0:0:0:0:
489,259,126320,2,0,P|467:205|424:197,1,90,2|10,3:2|0:0,0:0:0:0:
351,211,126935,6,0,P|285:222|161:257,1,180,4|0,0:3|3:0,0:0:0:0:
90,281,127858,1,8,0:0:0:0:
15,230,128166,1,8,0:0:0:0:
42,144,128474,1,8,0:0:0:0:
130,128,128781,2,0,P|173:115|217:107,1,90,8|8,0:0|0:3,0:0:0:0:
288,51,129397,6,0,P|331:93|439:61,1,180,2|0,0:0|0:0,0:0:0:0:
503,3,130320,2,0,P|489:89|474:184,1,180,2|2,0:0|0:0,0:0:0:0:
499,359,131551,1,2,0:0:0:0:
411,340,131858,2,0,P|362:349|267:368,1,135,2|2,0:0|0:0,0:0:0:0:
212,303,132628,1,0,0:0:0:0:
271,236,132935,2,0,P|289:194|235:129,1,135,2|0,0:0|0:0,0:0:0:0:
59,115,134012,1,2,0:0:0:0:
20,196,134320,6,0,P|89:202|155:219,1,135,2|2,3:2|3:2,0:0:0:0:
208,289,135089,1,2,3:2:0:0:
276,347,135397,2,0,P|343:352|408:369,1,135,2|2,3:2|3:2,0:0:0:0:
508,218,136474,1,6,3:2:0:0:
452,147,136781,6,0,P|384:141|319:124,1,135,6|8,3:2|0:0,0:0:0:0:
244,175,137551,1,8,0:0:0:0:
170,123,137858,2,0,P|146:78|173:37,2,90,10|10|10,3:2|3:2|0:0,0:0:0:0:
122,199,138781,1,8,0:3:0:0:
40,161,139089,1,6,3:2:0:0:
256,192,139243,12,2,141551,3:0:0:0:
40,161,148935,6,0,P|122:144|181:136,1,135,6|0,3:2|3:2,0:0:0:0:
255,102,149704,2,0,P|261:148|271:193,1,90,2|0,3:2|3:0,0:0:0:0:
217,263,150320,1,2,3:2:0:0:
275,331,150628,1,0,3:0:0:0:
354,288,150935,1,10,0:0:0:0:
482,328,151397,6,0,P|485:268|496:179,1,135,2|0,3:2|3:0,0:0:0:0:
446,116,152166,2,0,P|408:114|353:107,1,90,10|0,0:0|3:0,0:0:0:0:
297,39,152781,1,2,3:2:0:0:
226,95,153089,1,0,3:0:0:0:
168,26,153397,1,10,0:0:0:0:
46,83,153858,6,0,P|54:132|61:182,1,90,6|0,3:2|0:0,0:0:0:0:
7,246,154474,2,0,P|15:295|22:345,1,90,2|2,0:0|0:0,0:0:0:0:
102,372,155089,2,0,P|151:364|201:357,1,90,2|2,0:0|0:0,0:0:0:0:
262,303,155704,1,2,0:0:0:0:
196,241,156012,1,0,3:0:0:0:
245,165,156320,6,0,P|318:154|391:142,1,135,2|0,3:2|3:0,0:0:0:0:
455,191,157089,1,8,3:2:0:0:
408,268,157397,1,8,3:2:0:0:
385,183,178012,6,0,P|394:226|405:270,1,90,2|2,0:0|0:0,0:0:0:0:
395,314,178474,2,0,P|366:353|287:334,1,135,2|2,0:0|0:0,0:0:0:0:
213,289,179243,1,12,3:2:0:0:
156,360,179551,1,2,0:0:0:0:
81,310,179858,2,0,P|76:260|61:171,1,135,10|10,0:0|0:0,0:0:0:0:
97,93,180628,1,2,3:2:0:0:
173,139,180935,6,0,P|231:150|279:88,1,135,4|12,3:2|0:0,0:0:0:0:
350,44,181704,2,0,P|398:46|426:93,1,90,0|8,3:0|0:0,0:0:0:0:
508,106,182320,2,0,P|522:151|487:194,1,90,0|10,3:0|0:0,0:0:0:0:
427,235,182935,2,0,P|367:225|283:218,1,135,8|10,0:3|0:0,0:0:0:0:
159,37,184166,6,0,P|110:32|62:25,1,90,4|10,3:2|0:0,0:0:0:0:
2,86,184781,1,2,0:0:0:0:
165,355,185858,6,0,P|232:360|298:371,1,135,4|12,3:2|0:0,0:0:0:0:
374,321,186628,1,0,3:0:0:0:
455,358,186935,1,10,0:0:0:0:
511,288,187243,2,0,P|505:229|504:180,1,90,2|8,0:0|0:0,0:0:0:0:
511,108,187858,1,2,0:0:0:0:
450,40,188166,1,2,3:2:0:0:
379,96,188474,6,0,P|323:138|253:71,1,180,4|0,3:2|3:0,0:0:0:0:
191,7,189397,1,10,0:0:0:0:
120,63,189704,2,0,P|127:116|137:208,1,135,2|2,3:2|0:0,0:0:0:0:
248,271,190628,1,10,0:0:0:0:
201,347,190935,6,0,P|129:357|110:363,1,90,2|10,3:2|0:0,0:0:0:0:
67,366,191397,2,0,P|12:348|20:271,1,135,2|8,0:0|0:0,0:0:0:0:
49,255,192012,2,0,P|82:237|71:145,1,135,6|8,3:2|0:0,0:0:0:0:
16,84,192781,1,2,0:0:0:0:
134,18,193243,6,0,P|192:19|267:-1,1,135,6|0,3:2|0:0,0:0:0:0:
346,40,194012,1,10,0:0:0:0:
294,165,194474,2,0,P|229:183|161:183,1,135,2|0,3:2|0:0,0:0:0:0:
86,232,195243,1,10,0:0:0:0:
176,331,195704,6,0,P|243:330|308:312,1,135,6|10,3:2|0:0,0:0:0:0:
384,360,196474,1,0,3:0:0:0:
490,277,196935,2,0,P|495:213|510:135,1,135,4|8,3:2|0:0,0:0:0:0:
454,70,197704,1,2,3:2:0:0:
384,127,198012,1,0,3:0:0:0:
315,68,198320,1,0,0:0:0:0:
315,68,203243,6,0,P|325:142|334:212,1,135,6|6,3:2|3:2,0:0:0:0:
222,279,204166,2,0,P|209:181|196:83,1,180,6|0,3:2|0:0,0:0:0:0:
138,32,205089,1,10,0:0:0:0:
48,43,205397,1,4,0:3:0:0:
4,121,205704,6,0,P|14:195|23:265,1,135,6|6,3:2|3:2,0:0:0:0:
118,349,206628,2,0,P|152:294|264:307,1,180,6|8,3:2|0:0,0:0:0:0:
333,347,207551,1,8,0:0:0:0:
415,310,207858,1,2,0:0:0:0:
417,219,208166,6,0,P|447:196|506:212,2,90,6|10|4,3:2|0:0|0:3,0:0:0:0:
337,176,209089,2,0,P|249:169|150:167,1,180,6|10,3:2|0:0,0:0:0:0:
68,183,210012,2,0,P|71:138|72:89,1,90,2|8,0:0|0:3,0:0:0:0:
131,24,210628,5,14,0:0:0:0:
249,87,211089,1,14,0:0:0:0:
365,19,211551,2,0,P|418:11|443:119,1,180,14|2,0:0|0:0,0:0:0:0:
401,187,212474,1,8,0:0:0:0:
461,253,212781,1,8,0:0:0:0:
414,330,213089,6,0,P|359:333|278:352,1,135,6|2,3:2|3:2,0:0:0:0:
156,299,214012,2,0,P|151:221|125:107,1,180,10|8,0:0|0:0,0:0:0:0:
184,49,214935,1,2,3:2:0:0:
258,99,215243,1,8,0:0:0:0:
324,38,215551,6,0,P|385:48|475:59,1,135,6|2,3:2|3:2,0:0:0:0:
508,131,216320,1,0,3:0:0:0:
442,193,216628,2,0,P|381:183|291:172,1,135,6|8,3:2|0:0,0:0:0:0:
258,99,217397,2,0,P|218:70|169:88,1,90,10|8,0:0|0:0,0:0:0:0:
126,149,218012,5,6,3:2:0:0:
38,129,218320,1,10,0:0:0:0:
8,214,218628,1,4,0:3:0:0:
69,279,218935,2,0,P|132:281|246:312,1,180,6|2,3:2|3:2,0:0:0:0:
328,277,219858,1,10,0:0:0:0:
401,329,220166,1,8,0:0:0:0:
471,273,220474,6,0,P|473:222|486:128,2,135,2|2|2,0:0|0:0|0:0,0:0:0:0:
256,192,221551,12,0,224166,0:0:0:0:
