osu file format v14

[General]
AudioFilename: audio.mp3
AudioLeadIn: 0
PreviewTime: 31722
Countdown: 0
SampleSet: Normal
StackLeniency: 0.7
Mode: 0
LetterboxInBreaks: 0
WidescreenStoryboard: 0

[Editor]
DistanceSpacing: 2
BeatDivisor: 4
GridSize: 4
TimelineZoom: 1

[Metadata]
Title:Diko, naprimer
TitleUnicode:Diko, naprimer
Artist:PHARAOH
ArtistUnicode:PHARAOH
Creator:avalanche
Version:Blunt
Source:
Tags:rap russian dead dynasty
BeatmapID:1388479
BeatmapSetID:655156

[Difficulty]
HPDrainRate:4
CircleSize:4
OverallDifficulty:9
ApproachRate:9.2
SliderMultiplier:1.8
SliderTickRate:2

[Events]
//Background and Video events
0,0,"1-Q4nI4OLyWQu6zWQZbK14EA.jpg",0,0
//Break Periods
//Storyboard Layer 0 (Background)
//Storyboard Layer 1 (Fail)
//Storyboard Layer 2 (Pass)
//Storyboard Layer 3 (Foreground)
//Storyboard Sound Samples

[TimingPoints]
21389,666.666666666667,4,2,0,50,1,0
32055,333.333333333333,4,1,0,70,1,0
32721,-71.4285714285714,4,1,0,70,0,0
33055,-125,4,1,0,70,0,0
34055,-100,4,1,0,70,0,0
35388,-83.3333333333333,4,1,0,70,0,0
38721,-71.4285714285714,4,1,0,70,0,0
39054,-76.9230769230769,4,1,0,70,0,0
39388,-62.5,4,1,0,70,0,0
40054,-100,4,1,0,70,0,0
42054,-66.6666666666667,4,1,0,70,0,0
42388,-200,4,1,0,70,0,0
43054,-100,4,1,0,70,0,0
45054,-200,4,1,0,70,0,0
45388,-100,4,1,0,70,0,0
47388,-66.6666666666667,4,1,0,70,0,0
47721,-133.333333333333,4,1,0,70,0,0
48054,-100,4,1,0,70,0,0
55054,-66.6666666666667,4,1,0,70,0,0
55388,-100,4,1,0,70,0,0
60054,-71.4285714285714,4,1,0,70,0,0
60721,-125,4,1,0,70,0,0
64054,-66.6666666666667,4,1,0,70,0,1
64388,-50,4,1,0,70,0,1
65054,-100,4,1,0,70,0,1
66054,-133.333333333333,4,1,0,70,0,1
66388,-66.6666666666667,4,1,0,70,0,1
67054,-50,4,1,0,70,0,1
68721,-133.333333333333,4,1,0,70,0,1
69054,-200,4,1,0,70,0,1
69388,-66.6666666666667,4,1,0,70,0,1
69721,-50,4,1,0,70,0,1
71388,-133.333333333333,4,1,0,70,0,1
71721,-66.6666666666667,4,1,0,70,0,1
74721,-66.6666666666667,4,1,0,70,0,1
75054,-50,4,1,0,70,0,1
76721,-133.333333333333,4,1,0,70,0,1
77054,-66.6666666666667,4,1,0,70,0,1
77721,-50,4,1,0,70,0,1
79388,-133.333333333333,4,1,0,70,0,1
79721,-66.6666666666667,4,1,0,70,0,1
80388,-50,4,1,0,70,0,1
82054,-133.333333333333,4,1,0,70,0,1
82388,-100,4,1,0,70,0,1
82721,-66.6666666666667,4,1,0,70,0,1
85054,-133.333333333333,4,1,0,70,0,1
85388,-100,4,1,0,70,0,0
86054,-71.4285714285714,4,1,0,70,0,0
87388,-100,4,1,0,70,0,0
90388,-71.4285714285714,4,1,0,70,0,0
90721,-100,4,1,0,70,0,0
92388,-71.4285714285714,4,1,0,70,0,0
92721,-100,4,1,0,70,0,0
93388,-100,4,1,0,70,0,0
98721,-133.333333333333,4,2,0,45,0,0
99388,-83.3333333333333,4,1,0,70,0,0
100721,-100,4,1,0,70,0,0
101054,-83.3333333333333,4,1,0,70,0,0
106721,-66.6666666666667,4,1,0,70,0,1
107054,-50,4,1,0,70,0,1
108054,-50,4,1,0,30,0,1
108721,-50,4,1,0,70,0,1
109388,-66.6666666666667,4,1,0,70,0,1
109721,-50,4,1,0,70,0,1
111388,-133.333333333333,4,1,0,70,0,1
111721,-66.6666666666667,4,1,0,70,0,1
112388,-50,4,1,0,70,0,1
114054,-133.333333333333,4,1,0,70,0,1
114388,-66.6666666666667,4,1,0,70,0,1
117388,-66.6666666666667,4,1,0,70,0,1
117721,-50,4,1,0,70,0,1
119388,-133.333333333333,4,1,0,70,0,1
119721,-66.6666666666667,4,1,0,70,0,1
120388,-50,4,1,0,70,0,1
122054,-133.333333333333,4,1,0,70,0,1
122388,-66.6666666666667,4,1,0,70,0,1
122721,-66.6666666666667,4,1,0,70,0,1
123054,-50,4,1,0,70,0,1
124721,-133.333333333333,4,1,0,70,0,1
125054,-66.6666666666667,4,1,0,70,0,0

[HitObjects]
88,332,21388,6,0,L|84:280,1,45
88,332,21722,2,0,L|84:280,1,45
120,224,22055,1,8,0:0:0:0:
164,364,22222,1,0,0:0:0:0:
120,224,22388,1,0,0:0:0:0:
168,84,22555,1,0,0:0:0:0:
284,112,22722,6,0,L|224:116,1,45
344,160,23055,1,0,0:0:0:0:
344,160,23222,1,0,0:0:0:0:
330,33,23388,2,0,P|318:105|362:177,1,135,8|0,0:0|0:0,0:0:0:0:
440,84,24055,6,0,L|384:88,1,45
440,84,24388,6,0,L|384:88,1,45
260,140,24722,1,8,0:0:0:0:
343,159,24888,1,0,0:0:0:0:
276,52,25055,1,0,0:0:0:0:
180,112,25222,1,0,0:0:0:0:
196,192,25388,5,0,0:0:0:0:
192,220,25555,1,0,0:0:0:0:
188,248,25722,1,0,0:0:0:0:
116,284,25888,1,0,0:0:0:0:
250,270,26055,2,0,L|94:286,1,135,8|0,0:0|0:0,0:0:0:0:
304,324,26722,6,0,P|332:332|364:328,1,45
280,200,27055,1,0,0:0:0:0:
296,336,27222,1,0,0:0:0:0:
282,155,27388,2,0,L|278:215,1,45,8|0,0:0|0:0,0:0:0:0:
336,260,27722,1,0,0:0:0:0:
308,84,27888,1,0,0:0:0:0:
234,199,28055,6,0,P|262:203|290:195,1,45
188,140,28388,2,0,P|164:132|136:136,1,45
226,257,28722,2,0,P|234:221|230:177,1,60,8|0,0:0|0:0,0:0:0:0:
220,268,29055,2,0,P|216:288|220:312,1,45
80,172,29388,6,0,P|80:200|68:228,1,45
40,112,29722,1,0,0:0:0:0:
40,112,29888,1,0,0:0:0:0:
80,172,30055,1,8,0:0:0:0:
148,136,30222,1,0,0:0:0:0:
108,72,30388,1,0,0:0:0:0:
144,216,30555,1,0,0:0:0:0:
240,272,30722,5,0,0:0:0:0:
148,136,30888,1,0,0:0:0:0:
208,344,31055,1,0,0:0:0:0:
220,348,31222,1,0,0:0:0:0:
232,352,31388,2,0,L|376:336,1,135
208,344,32055,6,0,B|153:349|111:311|111:311|131:308|139:317,1,135,6|0,0:0|0:0,0:0:0:0:
256,248,32388,2,0,B|279:225|303:225|303:225|278:262|219:273,1,135
246,67,32722,2,0,B|194:175|302:155|242:283,1,188.999994232178,8|0,0:0|0:0,0:0:0:0:
252,56,33055,2,0,P|308:44|364:84,1,108
160,236,33388,5,0,0:0:0:0:
188,16,33555,1,0,0:0:0:0:
216,312,33722,2,0,L|204:184,1,108
352,328,34055,2,0,B|260:312|260:312|188:324|188:324|72:302,1,270,8|0,0:0|0:0,0:0:0:0:
160,236,34722,5,0,0:0:0:0:
152,360,34888,1,0,0:0:0:0:
149,101,35055,2,0,L|161:249,1,135
48,110,35388,2,0,B|84:86|95:44|95:44|112:82|152:102,1,161.999995056153,8|0,0:0|0:0,0:0:0:0:
16,36,35722,1,0,0:0:0:0:
32,248,35888,1,0,0:0:0:0:
192,200,36055,6,0,L|72:192,1,107.999996704102
300,360,36388,2,0,L|428:344,1,107.999996704102
292,136,36722,2,0,B|292:80|292:80|272:128|272:128|280:180|280:180|268:228|268:228|284:288,1,269.999991760254,8|0,0:0|0:0,0:0:0:0:
232,36,37222,1,0,0:0:0:0:
292,136,37388,5,0,0:0:0:0:
390,118,37555,1,0,0:0:0:0:
200,176,37722,1,0,0:0:0:0:
132,132,37888,1,0,0:0:0:0:
292,136,38055,2,0,L|280:308,1,161.999995056153,8|0,0:0|0:0,0:0:0:0:
390,118,38388,2,0,P|334:110|290:138,1,107.999996704102
295,24,38722,6,0,P|227:84|203:208,1,188.999994232178
212,348,39055,2,0,B|176:243|224:275|196:160,1,175.499991966248
104,132,39388,2,0,B|148:244|84:232|136:376,1,216,8|0,0:0|0:0,0:0:0:0:
156,68,39722,1,0,0:0:0:0:
40,232,39888,1,0,0:0:0:0:
212,348,40055,6,0,B|247:356|247:356|335:340,1,90
76,124,40388,1,0,0:0:0:0:
44,316,40555,1,0,0:0:0:0:
248,268,40722,1,8,0:0:0:0:
156,68,40888,1,0,0:0:0:0:
136,264,41055,1,0,0:0:0:0:
92,12,41222,1,0,0:0:0:0:
124,356,41388,5,0,0:0:0:0:
156,360,41555,1,0,0:0:0:0:
290,345,41722,2,0,L|142:361,1,135
240,260,42055,2,0,L|472:280,1,202.500007724762,8|0,0:0|0:0,0:0:0:0:
234,193,42388,6,0,B|238:221|238:221|234:241|234:241|242:269,1,67.5
260,120,42722,5,0,0:0:0:0:
126,297,43055,6,0,P|199:300|242:249,1,135
224,48,43388,1,8,0:0:0:0:
272,344,43555,1,0,0:0:0:0:
364,200,43722,1,0,0:0:0:0:
348,280,43888,1,0,0:0:0:0:
260,120,44055,5,0,0:0:0:0:
408,32,44222,1,0,0:0:0:0:
388,352,44388,1,0,0:0:0:0:
364,200,44555,1,0,0:0:0:0:
497,179,44722,2,0,L|334:204,1,135,8|0,0:0|0:0,0:0:0:0:
304,244,45055,2,0,L|232:232,1,67.5
176,276,45388,5,0,0:0:0:0:
364,360,45555,1,0,0:0:0:0:
232,20,45722,1,0,0:0:0:0:
176,276,45888,1,0,0:0:0:0:
304,120,46055,1,8,0:0:0:0:
136,80,46222,1,0,0:0:0:0:
268,200,46388,1,0,0:0:0:0:
388,140,46555,1,0,0:0:0:0:
312,72,46722,5,0,0:0:0:0:
309,88,46888,1,0,0:0:0:0:
306,104,47055,1,0,0:0:0:0:
304,120,47222,1,0,0:0:0:0:
416,331,47388,6,0,P|424:215|376:127,1,202.500007724762,8|0,0:0|0:0,0:0:0:0:
244,296,47722,2,0,B|288:304|288:304|312:296|312:296|352:300,1,101.250003862381
184,248,48055,6,0,B|108:256|108:256|40:296,1,135
200,364,48388,1,0,0:0:0:0:
136,132,48555,1,0,0:0:0:0:
64,245,48722,2,0,L|192:248,1,120,8|0,0:0|0:0,0:0:0:0:
136,132,49055,1,0,0:0:0:0:
200,364,49222,1,0,0:0:0:0:
312,272,49388,5,0,0:0:0:0:
260,200,49555,1,0,0:0:0:0:
308,360,49722,1,0,0:0:0:0:
340,128,49888,1,0,0:0:0:0:
188,247,50055,2,0,P|240:279|312:271,1,135,8|0,0:0|0:0,0:0:0:0:
164,168,50388,1,0,0:0:0:0:
180,260,50555,1,0,0:0:0:0:
152,340,50722,6,0,L|56:348,1,90
164,168,51055,2,0,L|260:176,1,90
88,248,51388,1,8,0:0:0:0:
144,72,51555,1,0,0:0:0:0:
152,340,51722,1,0,0:0:0:0:
80,148,51888,1,0,0:0:0:0:
312,212,52055,5,0,0:0:0:0:
88,248,52222,1,0,0:0:0:0:
240,144,52388,1,0,0:0:0:0:
424,184,52555,1,0,0:0:0:0:
352,340,52722,2,0,B|336:240|336:240|344:168|344:168|328:48,1,270,8|0,0:0|0:0,0:0:0:0:
348,352,53388,5,0,0:0:0:0:
220,324,53555,1,0,0:0:0:0:
352,340,53722,1,0,0:0:0:0:
448,296,53888,1,0,0:0:0:0:
222,234,54055,2,0,L|218:354,1,90,8|0,0:0|0:0,0:0:0:0:
292,188,54388,1,0,0:0:0:0:
136,256,54555,1,0,0:0:0:0:
352,340,54722,6,0,L|344:248,1,90
360,136,55055,2,0,L|351:357,1,202.500007724762
316,68,55389,1,8,0:0:0:0:
351,338,55555,1,0,0:0:0:0:
360,136,55722,1,0,0:0:0:0:
272,224,55889,1,0,0:0:0:0:
160,180,56055,6,0,P|148:128|164:76,1,90
196,256,56389,1,0,0:0:0:0:
172,20,56555,1,0,0:0:0:0:
196,256,56722,2,0,P|128:292|52:272,1,135,8|0,0:0|0:0,0:0:0:0:
276,64,57055,1,0,0:0:0:0:
248,360,57222,1,0,0:0:0:0:
180,176,57389,5,0,0:0:0:0:
196,256,57555,1,0,0:0:0:0:
200,96,57722,1,0,0:0:0:0:
120,296,57889,1,0,0:0:0:0:
380,200,58055,1,0,0:0:0:0:
304,184,58222,1,0,0:0:0:0:
388,360,58389,1,0,0:0:0:0:
356,32,58555,1,0,0:0:0:0:
304,184,58722,5,0,0:0:0:0:
416,124,58889,1,0,0:0:0:0:
300,196,59055,1,0,0:0:0:0:
448,276,59222,1,0,0:0:0:0:
296,208,59389,2,0,P|276:140|308:56,1,135,8|0,0:0|0:0,0:0:0:0:
352,280,59722,1,0,0:0:0:0:
344,356,59889,1,0,0:0:0:0:
107,196,60055,6,0,L|311:208,1,188.999994232178
216,284,60389,2,0,L|8:292,1,188.999994232178
297,103,60722,2,0,P|309:155|293:211,1,108,8|0,0:0|0:0,0:0:0:0:
328,28,61055,1,0,0:0:0:0:
384,344,61222,1,0,0:0:0:0:
392,80,61389,5,0,0:0:0:0:
316,284,61555,1,0,0:0:0:0:
328,28,61722,1,0,0:0:0:0:
372,216,61889,1,0,0:0:0:0:
252,340,62055,2,0,L|128:320,1,108,8|0,0:0|0:0,0:0:0:0:
280,112,62389,1,0,0:0:0:0:
336,364,62555,1,0,0:0:0:0:
376,232,62722,5,0,0:0:0:0:
256,192,62805,12,0,63889,0:0:0:0:
112,100,64055,6,0,B|104:136|104:136|112:172|112:172|104:204|104:204|112:240|112:240|104:272|104:272|112:312,1,202.500007724762,6|0,0:0|0:0,0:0:0:0:
172,48,64389,2,0,P|288:96|464:60,1,270,8|0,0:0|0:0,0:0:0:0:
112,100,64722,2,0,P|76:184|128:108,1,270,8|0,0:0|0:0,0:0:0:0:
219,167,65055,2,0,P|208:92|159:39,1,135,8|0,0:0|0:0,0:0:0:0:
72,64,65389,5,8,0:0:0:0:
464,140,65555,1,0,0:0:0:0:
219,167,65722,1,0,0:0:0:0:
320,16,65889,1,0,0:0:0:0:
292,312,66055,2,0,L|280:192,1,101.250003862381,8|0,0:0|0:0,0:0:0:0:
392,304,66389,2,0,B|300:340|300:340|176:316,1,202.500007724762
452,144,66722,6,0,L|476:360,1,202.500007724762,2|0,0:0|0:0,0:0:0:0:
391,108,67055,2,0,P|399:56|435:144,1,270,8|0,0:0|0:0,0:0:0:0:
121,276,67389,2,0,P|113:328|77:240,1,270,8|0,0:0|0:0,0:0:0:0:
304,180,67722,1,8,0:0:0:0:
228,200,67889,1,0,0:0:0:0:
280,56,68055,5,8,0:0:0:0:
320,360,68222,1,0,0:0:0:0:
284,44,68389,1,0,0:0:0:0:
252,312,68555,1,0,0:0:0:0:
276,68,68722,2,0,L|400:56,1,101.250003862381,8|0,0:0|0:0,0:0:0:0:
252,312,69055,2,0,L|180:300,1,67.5
16,188,69389,6,0,B|132:140|100:224|232:164,1,202.500007724762,2|0,0:0|0:0,0:0:0:0:
40,60,69722,2,0,P|16:180|80:340,1,270,8|0,0:0|0:0,0:0:0:0:
212,172,70054,2,0,B|256:196|304:176|304:176|272:224|180:224|128:180,1,270,8|0,0:0|0:0,0:0:0:0:
40,60,70389,1,8,0:0:0:0:
132,348,70555,1,0,0:0:0:0:
304,268,70722,5,8,0:0:0:0:
32,328,70889,1,0,0:0:0:0:
312,276,71055,1,0,0:0:0:0:
0,240,71222,1,0,0:0:0:0:
384,128,71389,2,0,L|372:248,1,101.250003862381,8|0,0:0|0:0,0:0:0:0:
396,328,71722,6,0,B|387:263|387:263|396:212|396:212|383:123,1,202.500007724762,4|0,0:0|0:0,0:0:0:0:
416,64,72055,5,2,0:0:0:0:
312,276,72222,1,0,0:0:0:0:
236,296,72389,1,2,0:0:0:0:
188,232,72555,1,0,0:0:0:0:
221,94,72722,2,0,L|237:314,1,202.500007724762,10|0,0:0|0:0,0:0:0:0:
244,20,73055,1,2,0:0:0:0:
200,364,73222,1,0,0:0:0:0:
256,192,73389,12,0,74555,0:0:0:0:
156,216,74722,6,0,B|192:196|192:196|324:188|324:188|368:168,1,202.500007724762,6|0,0:0|0:0,0:0:0:0:
156,216,75055,2,0,B|92:184|92:184|36:228|36:228|100:260|100:260|156:220,1,270,8|0,0:0|0:0,0:0:0:0:
350,175,75389,2,0,B|414:207|414:207|470:163|470:163|406:131|406:131|350:171,1,270,8|0,0:0|0:0,0:0:0:0:
480,268,75722,1,8,0:0:0:0:
408,40,75889,1,0,0:0:0:0:
400,368,76055,5,8,0:0:0:0:
416,32,76222,1,0,0:0:0:0:
364,220,76389,1,0,0:0:0:0:
468,104,76555,1,0,0:0:0:0:
200,144,76722,2,0,L|324:152,1,101.250003862381,8|0,0:0|0:0,0:0:0:0:
144,192,77055,2,0,B|104:220|56:208|56:208|48:168|68:136|68:136|84:152|88:172,1,202.500007724762
192,248,77389,6,0,B|232:316|172:284|208:348|208:348|224:276|180:324|192:248,1,202.500007724762,2|0,0:0|0:0,0:0:0:0:
430,297,77722,6,0,B|386:321|386:321|214:285|214:285|190:245,1,270,8|0,0:0|0:0,0:0:0:0:
372,88,78055,2,0,L|384:388,1,270,8|0,0:0|0:0,0:0:0:0:
312,28,78389,1,8,0:0:0:0:
484,248,78555,1,0,0:0:0:0:
104,276,78722,5,8,0:0:0:0:
496,240,78889,1,0,0:0:0:0:
216,168,79055,1,0,0:0:0:0:
172,336,79222,1,0,0:0:0:0:
144,16,79389,2,0,L|152:140,1,101.250003862381,8|0,0:0|0:0,0:0:0:0:
158,213,79722,2,0,B|138:101|138:101|147:65|147:65|150:117,1,202.500007724762
244,264,80055,6,0,B|272:304|256:356|256:356|260:296|217:260,1,202.500007724762,2|0,0:0|0:0,0:0:0:0:
312,220,80389,2,0,B|360:159|338:62|338:62|341:127|313:161,1,270,8|0,0:0|0:0,0:0:0:0:
376,296,80722,2,0,B|427:321|507:303|507:303|439:261|379:261,1,270,8|0,0:0|0:0,0:0:0:0:
284,352,81055,1,8,0:0:0:0:
320,24,81222,1,0,0:0:0:0:
408,152,81389,1,8,0:0:0:0:
80,88,81555,1,0,0:0:0:0:
404,64,81722,1,0,0:0:0:0:
316,196,81889,1,0,0:0:0:0:
140,152,82054,6,0,L|244:140,1,101.250003862381,8|0,0:0|0:0,0:0:0:0:
160,236,82389,2,0,L|0:216,1,135,4|0,0:0|0:0,0:0:0:0:
184,64,82722,5,2,0:0:0:0:
216,356,82889,1,0,0:0:0:0:
236,4,83055,1,4,0:0:0:0:
224,368,83222,1,0,0:0:0:0:
236,4,83389,2,0,L|252:212,1,202.500007724762,10|0,0:0|0:0,0:0:0:0:
312,36,83722,1,2,0:0:0:0:
192,280,83889,1,0,0:0:0:0:
432,188,84055,5,2,0:0:0:0:
116,236,84222,1,0,0:0:0:0:
464,336,84389,1,4,0:0:0:0:
112,224,84555,1,0,0:0:0:0:
444,143,84722,2,0,P|480:239|456:351,1,202.500007724762,4|0,0:0|0:0,0:0:0:0:
444,68,85055,2,0,B|452:36|476:32|476:32|496:48|488:84,1,101.250003862381,4|0,0:0|0:0,0:0:0:0:
460,324,85389,6,0,L|312:312,1,135,6|0,0:0|0:0,0:0:0:0:
152,256,85722,2,0,L|308:244,1,135
92,176,86055,2,0,P|68:272|116:360,1,188.999994232178,8|0,0:0|0:0,0:0:0:0:
160,112,86389,1,0,0:0:0:0:
16,156,86555,1,0,0:0:0:0:
232,224,86722,5,0,0:0:0:0:
216,44,86889,1,0,0:0:0:0:
208,300,87055,1,0,0:0:0:0:
220,32,87222,1,0,0:0:0:0:
468,136,87389,2,0,B|351:95|367:175|236:128,1,225,8|0,0:0|0:0,0:0:0:0:
304,64,87889,1,0,0:0:0:0:
404,204,88055,6,0,L|396:308,1,90
488,352,88389,2,0,L|477:262,1,90
312,320,88722,1,8,0:0:0:0:
496,344,88889,1,0,0:0:0:0:
272,208,89055,1,0,0:0:0:0:
244,368,89222,1,0,0:0:0:0:
160,244,89389,5,0,0:0:0:0:
176,320,89555,1,0,0:0:0:0:
196,176,89722,1,0,0:0:0:0:
244,368,89889,1,0,0:0:0:0:
436,304,90055,2,0,B|392:296|392:296|296:316,1,135,8|0,0:0|0:0,0:0:0:0:
444,312,90389,2,0,B|432:212|432:212|440:184|440:184|448:256,1,188.999994232178
452,320,90722,5,0,0:0:0:0:
416,24,90889,1,0,0:0:0:0:
456,184,91055,1,0,0:0:0:0:
264,144,91222,1,0,0:0:0:0:
104,220,91389,1,8,0:0:0:0:
340,252,91555,1,0,0:0:0:0:
224,64,91722,1,0,0:0:0:0:
276,352,91889,1,0,0:0:0:0:
340,252,92055,5,0,0:0:0:0:
204,304,92222,1,0,0:0:0:0:
408,304,92389,1,0,0:0:0:0:
196,296,92555,1,0,0:0:0:0:
476,216,92721,2,0,L|488:352,1,135,8|0,0:0|0:0,0:0:0:0:
428,148,93054,1,0,0:0:0:0:
456,76,93222,1,0,0:0:0:0:
364,188,93389,6,0,P|312:200|264:172,1,90
320,32,93722,2,0,L|328:144,1,90
286,276,94055,2,0,L|278:176,1,90,8|0,0:0|0:0,0:0:0:0:
344,332,94389,1,0,0:0:0:0:
320,32,94555,1,0,0:0:0:0:
400,240,94722,5,0,0:0:0:0:
168,300,94889,1,0,0:0:0:0:
432,352,95055,1,0,0:0:0:0:
468,240,95222,1,0,0:0:0:0:
439,127,95389,2,0,L|431:363,1,225,8|0,0:0|0:0,0:0:0:0:
392,64,95889,1,0,0:0:0:0:
444,136,96055,6,0,P|400:152|348:140,1,90
392,64,96389,1,0,0:0:0:0:
360,316,96555,1,0,0:0:0:0:
308,84,96722,1,8,0:0:0:0:
444,136,96889,1,0,0:0:0:0:
200,188,97055,1,0,0:0:0:0:
252,24,97222,1,0,0:0:0:0:
256,260,97389,5,0,0:0:0:0:
204,96,97555,1,0,0:0:0:0:
192,308,97722,1,0,0:0:0:0:
196,88,97889,1,0,0:0:0:0:
288,188,98055,2,0,L|448:176,1,135,8|0,0:0|0:0,0:0:0:0:
280,180,98389,1,0,0:0:0:0:
196,88,98722,6,0,B|140:98|123:157|123:157|71:117|18:135,1,202.500007724762
226,149,99389,2,0,B|238:81|202:41|202:41|194:97,1,161.999995056153,8|0,0:0|0:0,0:0:0:0:
200,256,99722,1,0,0:0:0:0:
420,184,99889,1,0,0:0:0:0:
304,124,100055,1,0,0:0:0:0:
380,328,100222,1,0,0:0:0:0:
392,32,100389,1,0,0:0:0:0:
384,340,100555,1,0,0:0:0:0:
304,124,100722,2,0,B|320:172|320:172|316:224|316:224|336:276,1,135,8|0,0:0|0:0,0:0:0:0:
228,344,101055,6,0,B|240:280|240:280|232:236|232:236|248:164,1,161.999995056153
220,352,101389,1,0,0:0:0:0:
76,216,101555,1,0,0:0:0:0:
212,360,101722,1,0,0:0:0:0:
120,132,101889,1,0,0:0:0:0:
90,322,102055,2,0,L|74:206,1,107.999996704102,8|0,0:0|0:0,0:0:0:0:
152,208,102389,1,0,0:0:0:0:
8,304,102555,1,0,0:0:0:0:
172,64,102722,5,0,0:0:0:0:
228,348,102889,1,0,0:0:0:0:
240,16,103055,1,0,0:0:0:0:
220,356,103222,1,0,0:0:0:0:
288,136,103388,1,8,0:0:0:0:
212,364,103554,1,0,0:0:0:0:
232,260,103722,2,0,B|336:220|300:284|404:236,1,161.999995056153
128,132,104055,5,0,0:0:0:0:
104,336,104222,1,0,0:0:0:0:
204,148,104389,1,0,0:0:0:0:
72,192,104555,1,0,0:0:0:0:
288,172,104722,1,8,0:0:0:0:
184,64,104889,1,0,0:0:0:0:
276,348,105055,1,0,0:0:0:0:
288,172,105222,1,0,0:0:0:0:
256,192,105389,12,0,106555,0:0:0:0:
112,188,106722,6,0,B|132:252|132:252|112:320|112:320|100:284|100:284|112:248,1,202.500007724762,6|0,0:0|0:0,0:0:0:0:
148,120,107055,2,0,L|416:84,1,270,8|0,0:0|0:0,0:0:0:0:
112,188,107389,2,0,B|128:276|128:276|108:364|108:364|96:312|96:312|108:256,1,270,8|0,0:0|0:0,0:0:0:0:
200,336,107722,1,8,0:0:0:0:
20,264,107889,1,0,0:0:0:0:
276,208,108055,5,0,0:0:0:0:
284,288,108222,1,0,0:0:0:0:
352,240,108389,1,0,0:0:0:0:
332,352,108555,1,0,0:0:0:0:
340,160,108722,2,0,B|336:88|392:52|392:52|420:128|492:160,1,270,8|0,0:0|0:0,0:0:0:0:
352,240,109055,2,0,B|372:284|350:331|350:331|316:236|220:220,1,270
61,284,109389,6,0,P|168:288|229:202,1,202.500007724762,6|0,0:0|0:0,0:0:0:0:
32,96,109722,2,0,B|-24:284|116:168|44:396,1,270,8|0,0:0|0:0,0:0:0:0:
28,84,110055,2,0,B|108:44|200:48|200:48|152:76|96:64,1,270,8|0,0:0|0:0,0:0:0:0:
24,4,110389,1,8,0:0:0:0:
56,351,110555,1,0,0:0:0:0:
16,16,110722,5,8,0:0:0:0:
4,248,110889,1,0,0:0:0:0:
8,28,111055,1,0,0:0:0:0:
124,308,111222,1,0,0:0:0:0:
264,248,111389,2,0,L|276:120,1,101.250003862381,8|0,0:0|0:0,0:0:0:0:
288,349,111722,2,0,L|272:137,1,202.500007724762
320,60,112055,6,0,P|276:148|144:140,1,202.500007724762,6|0,0:0|0:0,0:0:0:0:
82,94,112388,2,0,B|90:38|126:10|126:10|213:64|172:193,1,270,8|0,0:0|0:0,0:0:0:0:
418,127,112721,2,0,B|410:183|374:211|374:211|287:157|328:28,1,270,8|0,0:0|0:0,0:0:0:0:
410,135,113055,1,8,0:0:0:0:
212,80,113222,1,0,0:0:0:0:
418,127,113389,5,8,0:0:0:0:
108,284,113555,1,0,0:0:0:0:
324,344,113722,1,0,0:0:0:0:
256,16,113889,1,0,0:0:0:0:
184,224,114055,2,0,L|192:336,1,101.250003862381,8|0,0:0|0:0,0:0:0:0:
204,122,114389,2,0,L|188:358,1,202.500007724762
156,56,114722,5,2,0:0:0:0:
272,356,114889,1,0,0:0:0:0:
312,156,115055,1,2,0:0:0:0:
68,228,115222,1,0,0:0:0:0:
452,288,115389,2,0,B|464:240|464:240|444:88,1,202.500007724762,10|0,0:0|0:0,0:0:0:0:
460,300,115722,1,0,0:0:0:0:
60,236,115889,1,0,0:0:0:0:
256,192,116055,12,0,117222,0:0:0:0:
184,208,117389,6,0,P|132:176|196:200,1,202.500007724762,6|0,0:0|0:0,0:0:0:0:
60,248,117722,2,0,P|92:332|56:248,1,270,8|0,0:0|0:0,0:0:0:0:
280,264,118055,2,0,P|366:203|345:307,1,270,8|0,0:0|0:0,0:0:0:0:
244,152,118388,1,8,0:0:0:0:
272,356,118555,1,0,0:0:0:0:
380,188,118722,5,8,0:0:0:0:
368,272,118889,1,0,0:0:0:0:
64,164,119055,1,0,0:0:0:0:
104,320,119222,1,0,0:0:0:0:
67,62,119389,2,0,L|63:182,1,101.250003862381,8|0,0:0|0:0,0:0:0:0:
200,219,119721,2,0,B|156:179|148:127|148:127|112:163|56:163,1,202.500007724762
280,80,120054,6,0,B|268:160|268:160|284:208|284:208|268:296,1,202.500007724762,6|0,0:0|0:0,0:0:0:0:
276,68,120388,2,0,B|380:80|380:80|436:48|436:48|376:68|376:68|312:60,1,270,8|0,0:0|0:0,0:0:0:0:
271,277,120721,2,0,B|167:265|167:265|111:297|111:297|171:277|171:277|208:281,1,270,8|0,0:0|0:0,0:0:0:0:
88,208,121054,1,8,0:0:0:0:
336,332,121221,1,0,0:0:0:0:
220,28,121388,5,8,0:0:0:0:
244,356,121554,1,0,0:0:0:0:
224,36,121721,1,0,0:0:0:0:
180,196,121888,1,0,0:0:0:0:
360,108,122054,2,0,P|304:120|252:88,1,101.250003862381,8|0,0:0|0:0,0:0:0:0:
420,64,122388,2,0,B|432:44|428:16|428:16|460:112|412:88|452:200,1,202.500007724762
450,363,122721,6,0,P|426:263|442:163,1,202.500007724762,6|0,0:0|0:0,0:0:0:0:
348,252,123054,2,0,B|340:308|308:352|308:352|276:316|272:268|272:268|268:312|236:340,1,270,8|0,0:0|0:0,0:0:0:0:
160,208,123388,2,0,B|168:152|200:108|200:108|232:144|236:192|236:192|240:148|272:120,1,270,8|0,0:0|0:0,0:0:0:0:
84,144,123721,1,8,0:0:0:0:
320,224,123888,1,0,0:0:0:0:
208,20,124054,5,8,0:0:0:0:
176,336,124221,1,0,0:0:0:0:
140,96,124388,1,0,0:0:0:0:
184,344,124554,1,0,0:0:0:0:
252,132,124721,2,0,L|356:116,1,101.250003862381,8|0,0:0|0:0,0:0:0:0:
239,224,125054,2,0,B|215:152|231:80|231:80|255:108|251:152,1,202.500007724762,6|0,0:0|0:0,0:0:0:0:
156,204,125388,5,6,0:0:0:0:
256,192,125471,12,0,128054,0:0:0:0:
