osu file format v14

[General]
AudioFilename: audio.mp3
AudioLeadIn: 0
PreviewTime: 190298
Countdown: 0
SampleSet: Soft
StackLeniency: 0.2
Mode: 0
LetterboxInBreaks: 0
WidescreenStoryboard: 1

[Editor]
Bookmarks: 12863,15939,28247,40555,46709,59016,71324,83632,95939,99016,123632,132862,139016,151324,163632,175939,188247,191324,203632,215939,225170,233632,245939,255170,267478,276452,279786,284401,296709,309016,318247,332862
DistanceSpacing: 1.4
BeatDivisor: 4
GridSize: 16
TimelineZoom: 2.5

[Metadata]
Title:Gesshoku no Vanitas
TitleUnicode:月蝕のヴァニタス
Artist:PHANTASM (FES (CV: Sakakibara Yui))
ArtistUnicode:ファンタズム(FES (CV: 榊原ゆい))
Creator:Heroine
Version:Delusion
Source:CHAOS;CHILD
Tags:Vanitas of the Eclipse ChäoS;Child chaos;child 5pb science adventure series Tatsushi Hayashi Chiyomaru Shikura Sakakibara Yui gesshoku no vanitas bad end kisata some_hero some hero collab collaboration japanese rock metal visual novel vn videogame ending ed
BeatmapID:4076961
BeatmapSetID:1966112

[Difficulty]
HPDrainRate:4.5
CircleSize:4.4
OverallDifficulty:8.8
ApproachRate:9.5
SliderMultiplier:1.6
SliderTickRate:1

[Events]
//Background and Video events
0,0,"eclipse.png",0,0
//Break Periods
2,96139,97722
2,188447,190030
2,281334,283107
//Storyboard Layer 0 (Background)
//Storyboard Layer 1 (Fail)
//Storyboard Layer 2 (Pass)
//Storyboard Layer 3 (Foreground)
//Storyboard Layer 4 (Overlay)
//Storyboard Sound Samples

[TimingPoints]
12863,256.410256410256,6,2,1,60,1,0
15939,-90.9090909090909,3,2,1,80,0,0
16516,-90.9090909090909,3,2,1,5,0,0
16580,-90.9090909090909,3,2,1,80,0,0
18055,-90.9090909090909,3,2,1,5,0,0
18119,-90.9090909090909,3,2,1,80,0,0
19337,-90.9090909090909,3,2,1,5,0,0
19401,-90.9090909090909,3,2,1,80,0,0
21132,-90.9090909090909,3,2,1,5,0,0
21196,-90.9090909090909,3,2,1,80,0,0
21516,-90.9090909090909,3,2,1,5,0,0
21580,-90.9090909090909,3,2,1,80,0,0
21773,-90.9090909090909,3,2,1,5,0,0
21837,-83.3333333333333,3,2,1,80,0,0
22029,-83.3333333333333,3,2,1,5,0,0
22093,-90.9090909090909,3,2,1,80,0,0
23055,-90.9090909090909,3,2,1,5,0,0
23119,-90.9090909090909,3,2,1,80,0,0
23952,-90.9090909090909,3,2,1,5,0,0
24016,-90.9090909090909,3,2,1,80,0,0
24593,-90.9090909090909,3,2,1,5,0,0
24657,-90.9090909090909,3,2,1,80,0,0
26132,-90.9090909090909,3,2,1,5,0,0
26196,-90.9090909090909,3,2,1,80,0,0
29209,-90.9090909090909,3,2,1,5,0,0
29273,-90.9090909090909,3,2,1,80,0,0
29465,-90.9090909090909,3,2,1,5,0,0
29529,-90.9090909090909,3,2,1,80,0,0
30362,-90.9090909090909,3,2,1,5,0,0
30426,-90.9090909090909,3,2,1,80,0,0
31645,-90.9090909090909,3,2,1,5,0,0
31709,-90.9090909090909,3,2,1,80,0,0
33439,-90.9090909090909,3,2,1,5,0,0
33503,-90.9090909090909,3,2,1,80,0,0
34337,-90.9090909090909,3,2,1,5,0,0
34401,-90.9090909090909,3,2,1,80,0,0
35362,-90.9090909090909,3,2,1,5,0,0
35426,-90.9090909090909,3,2,1,80,0,0
36901,-90.9090909090909,3,2,1,5,0,0
36965,-90.9090909090909,3,2,1,80,0,0
37414,-90.9090909090909,3,2,1,5,0,0
37478,-90.9090909090909,3,2,1,80,0,0
38439,-90.9090909090909,3,2,1,5,0,0
38503,-90.9090909090909,3,2,1,80,0,0
45811,-90.9090909090909,3,2,1,80,0,0
46709,-111.111111111111,3,2,1,60,0,0
55939,-200,3,2,1,60,0,0
56709,-111.111111111111,3,2,1,60,0,0
71324,-100,3,3,1,70,0,0
72221,-100,3,2,1,70,0,0
72349,-100,3,3,1,70,0,0
73246,-100,3,2,1,70,0,0
73375,-100,3,3,1,70,0,0
73759,-100,3,2,1,70,0,0
73888,-100,3,3,1,70,0,0
75298,-100,3,2,1,70,0,0
75426,-100,3,3,1,70,0,0
76067,-100,3,2,1,70,0,0
76195,-100,3,3,1,70,0,0
76323,-100,3,2,1,70,0,0
76452,-100,3,3,1,70,0,0
78439,-100,3,2,1,70,0,0
78503,-100,3,3,1,70,0,0
78631,-100,3,2,1,70,0,0
78760,-100,3,3,1,70,0,0
78888,-100,3,2,1,70,0,0
79016,-100,3,3,1,70,0,0
79401,-100,3,2,1,70,0,0
79529,-100,3,3,1,70,0,0
81965,-100,3,2,1,70,0,0
82093,-100,3,3,1,70,0,0
82221,-100,3,2,1,70,0,0
82350,-100,3,3,1,70,0,0
85042,-100,3,2,1,70,0,0
85170,-100,3,3,1,70,0,0
85554,-100,3,2,1,70,0,0
85683,-100,3,3,1,70,0,0
88119,-100,3,2,1,70,0,0
88247,-100,3,3,1,70,0,0
88375,-100,3,2,1,70,0,0
88504,-100,3,3,1,70,0,0
88631,-100,3,2,1,70,0,0
88759,-100,3,3,1,70,0,0
89913,-100,3,2,1,70,0,0
90042,-100,3,3,1,70,0,0
91196,-100,3,2,1,70,0,0
91324,-100,3,3,1,70,0,0
91452,-100,3,2,1,70,0,0
91580,-100,3,3,1,70,0,0
91708,-100,3,2,1,70,0,0
91837,-100,3,3,1,70,0,0
98247,-200,3,2,1,40,0,0
98503,-142.857142857143,3,2,1,50,0,0
98632,-142.857142857143,3,2,1,60,0,0
98760,-111.111111111111,3,2,1,60,0,0
99016,-90.9090909090909,3,2,1,80,0,0
99978,-90.9090909090909,3,2,1,5,0,0
100042,-90.9090909090909,3,2,1,80,0,0
103055,-90.9090909090909,3,2,1,5,0,0
103119,-90.9090909090909,3,2,1,80,0,0
103952,-90.9090909090909,3,2,1,5,0,0
104016,-90.9090909090909,3,2,1,80,0,0
104593,-90.9090909090909,3,2,1,5,0,0
104657,-90.9090909090909,3,2,1,80,0,0
106132,-90.9090909090909,3,2,1,5,0,0
106196,-90.9090909090909,3,2,1,80,0,0
107286,-90.9090909090909,3,2,1,5,0,0
107350,-90.9090909090909,3,2,1,80,0,0
108824,-90.9090909090909,3,2,1,5,0,0
108888,-90.9090909090909,3,2,1,80,0,0
112286,-90.9090909090909,3,2,1,5,0,0
112350,-90.9090909090909,3,2,1,80,0,0
116901,-90.9090909090909,3,2,1,5,0,0
116965,-90.9090909090909,3,2,1,80,0,0
118055,-90.9090909090909,3,2,1,5,0,0
118119,-90.9090909090909,3,2,1,80,0,0
119593,-90.9090909090909,3,2,1,5,0,0
119657,-90.9090909090909,3,2,1,80,0,0
121516,-90.9090909090909,3,2,1,5,0,0
121580,-90.9090909090909,3,2,1,80,0,0
124593,-90.9090909090909,3,2,1,5,0,0
124657,-90.9090909090909,3,2,1,80,0,0
139016,-111.111111111111,3,2,1,60,0,0
158183,-111.111111111111,3,2,1,5,0,0
158247,-111.111111111111,3,2,1,60,0,0
163632,-100,3,3,1,70,0,0
164529,-100,3,2,1,70,0,0
164657,-100,3,3,1,70,0,0
165554,-100,3,2,1,70,0,0
165683,-100,3,3,1,70,0,0
166067,-100,3,2,1,70,0,0
166196,-100,3,3,1,70,0,0
167606,-100,3,2,1,70,0,0
167734,-100,3,3,1,70,0,0
168118,-100,3,2,1,70,0,0
168247,-100,3,3,1,70,0,0
168375,-100,3,2,1,70,0,0
168503,-100,3,3,1,70,0,0
168632,-100,3,2,1,70,0,0
168760,-100,3,3,1,70,0,0
170683,-100,3,2,1,70,0,0
170811,-100,3,3,1,70,0,0
170939,-100,3,2,1,70,0,0
171068,-100,3,3,1,70,0,0
171196,-100,3,2,1,70,0,0
171324,-100,3,3,1,70,0,0
171709,-100,3,2,1,70,0,0
171837,-100,3,3,1,70,0,0
174273,-100,3,2,1,70,0,0
174401,-100,3,3,1,70,0,0
174529,-100,3,2,1,70,0,0
174657,-100,3,3,1,70,0,0
174785,-100,3,2,1,70,0,0
174914,-100,3,3,1,70,0,0
177350,-100,3,2,1,70,0,0
177478,-100,3,3,1,70,0,0
177862,-100,3,2,1,70,0,0
177990,-100,3,3,1,70,0,0
178375,-100,3,2,1,70,0,0
178504,-100,3,3,1,70,0,0
179914,-100,3,2,1,70,0,0
180042,-100,3,3,1,70,0,0
180426,-100,3,2,1,70,0,0
180555,-100,3,3,1,70,0,0
180939,-100,3,2,1,70,0,0
181067,-100,3,3,1,70,0,0
182221,-100,3,2,1,70,0,0
182478,-100,3,3,1,70,0,0
183504,-100,3,2,1,70,0,0
183632,-100,3,3,1,70,0,0
183760,-100,3,2,1,70,0,0
183888,-100,3,3,1,70,0,0
184016,-100,3,2,1,70,0,0
184145,-100,3,3,1,70,0,0
190555,-200,3,2,1,40,0,0
190811,-142.857142857143,3,2,1,50,0,0
190939,-142.857142857143,3,2,1,60,0,0
191068,-111.111111111111,3,2,1,60,0,0
191324,-90.9090909090909,3,2,1,80,0,0
192286,-90.9090909090909,3,2,1,5,0,0
192350,-90.9090909090909,3,2,1,80,0,0
193183,-90.9090909090909,3,2,1,5,0,0
193247,-90.9090909090909,3,2,1,80,0,0
195362,-90.9090909090909,3,2,1,5,0,0
195427,-90.9090909090909,3,2,1,80,0,0
196260,-90.9090909090909,3,2,1,5,0,0
196324,-90.9090909090909,3,2,1,80,0,0
197798,-90.9090909090909,3,2,1,5,0,0
197862,-90.9090909090909,3,2,1,80,0,0
198439,-90.9090909090909,3,2,1,5,0,0
198504,-90.9090909090909,3,2,1,80,0,0
199337,-90.9090909090909,3,2,1,5,0,0
199401,-90.9090909090909,3,2,1,80,0,0
199978,-90.9090909090909,3,2,1,5,0,0
200042,-90.9090909090909,3,2,1,80,0,0
201516,-90.9090909090909,3,2,1,5,0,0
201580,-90.9090909090909,3,2,1,80,0,0
202350,-90.9090909090909,3,2,1,80,0,0
202606,-90.9090909090909,3,2,1,80,0,0
202991,-90.9090909090909,3,2,1,80,0,0
203055,-90.9090909090909,3,2,2,80,0,0
203119,-90.9090909090909,3,2,1,80,0,0
203183,-90.9090909090909,3,2,2,80,0,0
203247,-90.9090909090909,3,2,1,80,0,0
203311,-90.9090909090909,3,2,2,80,0,0
203375,-90.9090909090909,3,2,1,80,0,0
203440,-90.9090909090909,3,2,2,80,0,0
203504,-90.9090909090909,3,2,1,80,0,0
203568,-90.9090909090909,3,2,2,80,0,0
203632,-90.9090909090909,3,2,1,80,0,0
204593,-90.9090909090909,3,2,1,5,0,0
204657,-90.9090909090909,3,2,1,80,0,0
205491,-90.9090909090909,3,2,1,5,0,0
205555,-90.9090909090909,3,2,1,80,0,0
207029,-90.9090909090909,3,2,1,5,0,0
207093,-90.9090909090909,3,2,1,80,0,0
207927,-90.9090909090909,3,2,1,5,0,0
207991,-90.9090909090909,3,2,1,80,0,0
208568,-90.9090909090909,3,2,1,5,0,0
208632,-90.9090909090909,3,2,1,80,0,0
210106,-90.9090909090909,3,2,1,5,0,0
210170,-90.9090909090909,3,2,1,80,0,0
211645,-90.9090909090909,3,2,1,5,0,0
211709,-90.9090909090909,3,2,1,80,0,0
213183,-90.9090909090909,3,2,1,5,0,0
213247,-90.9090909090909,3,2,1,80,0,0
214465,-90.9090909090909,3,2,1,80,0,0
214529,-90.9090909090909,3,2,1,80,0,0
215170,-74.0740740740741,3,2,1,80,0,0
215362,-74.0740740740741,3,2,1,5,0,0
215427,-74.0740740740741,3,2,1,80,0,0
215619,-74.0740740740741,3,2,1,5,0,0
215683,-74.0740740740741,3,2,1,80,0,0
215939,-90.9090909090909,3,2,1,80,0,0
216260,-90.9090909090909,3,2,1,5,0,0
216324,-90.9090909090909,3,2,1,80,0,0
216901,-90.9090909090909,3,2,1,5,0,0
216965,-90.9090909090909,3,2,1,80,0,0
217798,-90.9090909090909,3,2,1,5,0,0
217862,-90.9090909090909,3,2,1,80,0,0
219337,-90.9090909090909,3,2,1,5,0,0
219401,-90.9090909090909,3,2,1,80,0,0
219721,-90.9090909090909,3,2,1,80,0,0
219786,-90.9090909090909,3,2,1,80,0,0
220875,-90.9090909090909,3,2,1,5,0,0
220939,-90.9090909090909,3,2,1,80,0,0
221516,-90.9090909090909,3,2,1,5,0,0
221580,-90.9090909090909,3,2,1,80,0,0
222478,-74.0740740740741,3,2,1,80,0,0
223119,-90.9090909090909,3,2,1,80,0,0
224401,-200,3,2,1,80,0,0
224657,-200,3,2,1,5,0,0
224786,-90.9090909090909,3,2,1,80,0,0
225491,-90.9090909090909,3,2,1,80,0,0
225555,-90.9090909090909,3,2,1,80,0,0
226260,-90.9090909090909,3,2,1,5,0,0
226324,-90.9090909090909,3,2,1,80,0,0
227029,-90.9090909090909,3,2,1,5,0,0
227093,-90.9090909090909,3,2,1,80,0,0
227478,-74.0740740740741,3,2,1,80,0,0
227670,-74.0740740740741,3,2,1,5,0,0
227734,-74.0740740740741,3,2,1,80,0,0
227927,-74.0740740740741,3,2,1,5,0,0
227991,-74.0740740740741,3,2,1,80,0,0
228183,-74.0740740740741,3,2,1,5,0,0
228247,-90.9090909090909,3,2,1,80,0,0
228568,-90.9090909090909,3,2,1,5,0,0
228632,-90.9090909090909,3,2,1,80,0,0
230555,-74.0740740740741,3,2,1,70,0,0
230747,-74.0740740740741,3,2,1,5,0,0
230811,-74.0740740740741,3,2,1,70,0,0
231004,-74.0740740740741,3,2,1,5,0,0
231068,-74.0740740740741,3,2,1,70,0,0
231260,-74.0740740740741,3,2,1,70,0,0
231324,-74.0740740740741,3,2,1,70,0,0
231516,-74.0740740740741,3,2,1,5,0,0
231580,-74.0740740740741,3,2,1,70,0,0
231773,-74.0740740740741,3,2,1,5,0,0
231837,-74.0740740740741,3,2,1,70,0,0
232093,-74.0740740740741,3,2,1,70,0,0
232286,-74.0740740740741,3,2,1,5,0,0
232350,-74.0740740740741,3,2,1,70,0,0
232542,-74.0740740740741,3,2,1,5,0,0
232606,-90.9090909090909,3,2,1,70,0,0
232862,-90.9090909090909,3,2,1,65,0,0
233632,-111.111111111111,3,2,1,60,0,0
250939,-111.111111111111,3,2,1,60,0,0
251067,-111.111111111111,3,2,1,60,0,0
252093,-111.111111111111,3,2,1,60,0,0
252286,-111.111111111111,3,2,1,5,0,0
252350,-99.9999999999999,3,2,1,65,0,0
252542,-99.9999999999999,3,2,1,5,0,0
252606,-90.9090909090909,3,2,1,70,0,0
252798,-90.9090909090909,3,2,1,5,0,0
252862,-83.3333333333333,3,2,1,75,0,0
253055,-83.3333333333333,3,2,1,5,0,0
253119,-74.0740740740741,3,2,1,80,0,0
253311,-74.0740740740741,3,2,1,5,0,0
253375,-90.9090909090909,3,2,1,80,0,0
253568,-90.9090909090909,3,2,1,80,0,0
253632,-90.9090909090909,3,2,1,80,0,0
255170,-83.3333333333333,3,2,1,70,0,1
267478,-74.0740740740741,3,2,1,70,0,1
267670,-74.0740740740741,3,2,1,5,0,1
267734,-74.0740740740741,3,2,1,70,0,1
267927,-74.0740740740741,3,2,1,5,0,1
267991,-74.0740740740741,3,2,1,70,0,1
268183,-74.0740740740741,3,2,1,5,0,1
268247,-74.0740740740741,3,2,1,70,0,1
268439,-74.0740740740741,3,2,1,5,0,1
268504,-74.0740740740741,3,2,1,70,0,1
268696,-74.0740740740741,3,2,1,5,0,1
268760,-74.0740740740741,3,2,1,70,0,1
268952,-74.0740740740741,3,2,1,5,0,1
269016,-83.3333333333333,3,2,1,70,0,1
276709,-74.0740740740741,3,2,1,70,0,1
276901,-74.0740740740741,3,2,1,5,0,1
276965,-74.0740740740741,3,2,1,70,0,1
277157,-74.0740740740741,3,2,1,5,0,1
277221,-74.0740740740741,3,2,1,70,0,1
277414,-74.0740740740741,3,2,1,5,0,1
277478,-74.0740740740741,3,2,1,70,0,1
277670,-74.0740740740741,3,2,1,5,0,1
277734,-74.0740740740741,3,2,1,70,0,1
277927,-74.0740740740741,3,2,1,5,0,1
277991,-74.0740740740741,3,2,1,70,0,1
278183,-74.0740740740741,3,2,1,70,0,1
278247,-74.0740740740741,3,2,1,70,0,1
279786,-100,3,2,1,60,0,0
283632,-200,3,2,1,50,0,0
283888,-142.857142857143,3,2,1,60,0,0
284145,-111.111111111111,3,2,1,70,0,0
284401,-90.9090909090909,3,2,1,80,0,0
285362,-90.9090909090909,3,2,1,5,0,0
285427,-90.9090909090909,3,2,1,80,0,0
286260,-90.9090909090909,3,2,1,5,0,0
286324,-90.9090909090909,3,2,1,80,0,0
288439,-90.9090909090909,3,2,1,5,0,0
288504,-90.9090909090909,3,2,1,80,0,0
289337,-90.9090909090909,3,2,1,5,0,0
289401,-90.9090909090909,3,2,1,80,0,0
290875,-90.9090909090909,3,2,1,5,0,0
290939,-90.9090909090909,3,2,1,80,0,0
291516,-90.9090909090909,3,2,1,5,0,0
291580,-90.9090909090909,3,2,1,80,0,0
292414,-90.9090909090909,3,2,1,5,0,0
292478,-90.9090909090909,3,2,1,80,0,0
293055,-90.9090909090909,3,2,1,5,0,0
293119,-90.9090909090909,3,2,1,80,0,0
293952,-90.9090909090909,3,2,1,5,0,0
294016,-90.9090909090909,3,2,1,80,0,0
294593,-90.9090909090909,3,2,1,5,0,0
294657,-90.9090909090909,3,2,1,80,0,0
295427,-90.9090909090909,3,2,1,80,0,0
295811,-90.9090909090909,3,2,1,80,0,0
296068,-90.9090909090909,3,2,1,80,0,0
296132,-90.9090909090909,3,3,2,80,0,0
296196,-90.9090909090909,3,2,1,80,0,0
296260,-90.9090909090909,3,3,2,80,0,0
296324,-90.9090909090909,3,2,1,80,0,0
296388,-90.9090909090909,3,3,2,80,0,0
296452,-90.9090909090909,3,2,1,80,0,0
296516,-90.9090909090909,3,3,2,80,0,0
296580,-90.9090909090909,3,2,1,80,0,0
296644,-90.9090909090909,3,3,2,80,0,0
296709,-90.9090909090909,3,2,1,80,0,0
297670,-90.9090909090909,3,2,1,5,0,0
297734,-90.9090909090909,3,2,1,80,0,0
298568,-90.9090909090909,3,2,1,5,0,0
298632,-90.9090909090909,3,2,1,80,0,0
300106,-90.9090909090909,3,2,1,5,0,0
300170,-90.9090909090909,3,2,1,80,0,0
300747,-90.9090909090909,3,2,1,5,0,0
300811,-90.9090909090909,3,2,1,80,0,0
302029,-90.9090909090909,3,2,1,80,0,0
302093,-90.9090909090909,3,2,1,80,0,0
302286,-90.9090909090909,3,2,1,5,0,0
302350,-90.9090909090909,3,2,1,80,0,0
303183,-90.9090909090909,3,2,1,5,0,0
303247,-90.9090909090909,3,2,1,80,0,0
303824,-90.9090909090909,3,2,1,5,0,0
303888,-90.9090909090909,3,2,1,80,0,0
304721,-90.9090909090909,3,2,1,5,0,0
304786,-90.9090909090909,3,2,1,80,0,0
305362,-90.9090909090909,3,2,1,5,0,0
305427,-90.9090909090909,3,2,1,80,0,0
306260,-90.9090909090909,3,2,1,5,0,0
306324,-90.9090909090909,3,2,1,80,0,0
307670,-90.9090909090909,3,2,1,80,0,0
307734,-90.9090909090909,3,2,1,80,0,0
308055,-90.9090909090909,3,2,1,80,0,0
308119,-90.9090909090909,3,2,1,80,0,0
308247,-74.0740740740741,3,2,1,80,0,0
308439,-74.0740740740741,3,2,1,5,0,0
308504,-74.0740740740741,3,2,1,80,0,0
308696,-74.0740740740741,3,2,1,5,0,0
308760,-74.0740740740741,3,2,1,80,0,0
309016,-90.9090909090909,3,2,1,80,0,0
309337,-90.9090909090909,3,2,1,5,0,0
309401,-90.9090909090909,3,2,1,80,0,0
309978,-90.9090909090909,3,2,1,5,0,0
310042,-90.9090909090909,3,2,1,80,0,0
310875,-90.9090909090909,3,2,1,5,0,0
310939,-90.9090909090909,3,2,1,80,0,0
312414,-90.9090909090909,3,2,1,5,0,0
312478,-90.9090909090909,3,2,1,80,0,0
313055,-90.9090909090909,3,2,1,5,0,0
313119,-90.9090909090909,3,2,1,80,0,0
313952,-90.9090909090909,3,2,1,5,0,0
314016,-90.9090909090909,3,2,1,80,0,0
315427,-90.9090909090909,3,2,1,80,0,0
315747,-90.9090909090909,3,3,2,80,0,0
315811,-90.9090909090909,3,2,1,80,0,0
315939,-90.9090909090909,3,2,1,80,0,0
316324,-90.9090909090909,3,2,1,80,0,0
316388,-90.9090909090909,3,1,1,80,0,0
316452,-90.9090909090909,3,2,1,80,0,0
317478,-200,3,2,1,80,0,0
318247,-90.9090909090909,3,2,1,80,0,0
318568,-90.9090909090909,3,2,1,5,0,0
318632,-90.9090909090909,3,2,1,80,0,0
320106,-90.9090909090909,3,2,1,5,0,0
320170,-90.9090909090909,3,2,1,80,0,0
321645,-90.9090909090909,3,2,1,5,0,0
321709,-90.9090909090909,3,2,1,80,0,0
323375,-90.9090909090909,3,2,1,80,0,0
323503,-90.9090909090909,3,2,1,80,0,0
324059,-90.9090909090909,3,2,1,80,0,0
324145,-90.9090909090909,3,2,1,80,0,0
324315,-90.9090909090909,3,2,1,80,0,0
324401,-90.9090909090909,3,2,1,80,0,0
324721,-90.9090909090909,3,2,1,5,0,0
324786,-90.9090909090909,3,2,1,80,0,0
326260,-90.9090909090909,3,2,1,5,0,0
326324,-90.9090909090909,3,2,1,80,0,0
327798,-90.9090909090909,3,2,1,5,0,0
327862,-90.9090909090909,3,2,1,80,0,0
329529,-90.9090909090909,3,2,1,80,0,0
329657,-90.9090909090909,3,2,1,80,0,0
329786,-74.0740740740741,3,2,1,80,0,0

[Colours]
Combo1 : 0,128,128
Combo2 : 162,55,101

[HitObjects]
256,192,11324,12,2,12264,0:3:0:0:
256,192,12350,6,0,L|238:118,2,53.3333333333333,2|2|2,0:3|0:3|0:3,0:0:0:0:
216,236,12606,5,8,3:1:0:0:
216,236,12692,1,8,3:1:0:0:
216,236,12777,1,8,3:1:0:0:
152,226,12863,5,0,3:1:0:0:
237,356,12991,2,0,P|276:351|309:330,1,80,8|4,0:3|0:3,0:2:0:0:
160,308,13247,1,8,1:2:0:0:
354,266,13375,1,8,0:3:0:0:
361,188,13504,1,4,0:3:0:0:
160,308,13632,6,0,P|159:249|130:198,1,120,12|4,1:1|0:3,0:2:0:0:
193,120,13888,2,0,P|158:100|118:96,1,80,12|4,1:3|0:3,0:2:0:0:
35,121,14145,1,8,0:3:0:0:
0,199,14273,1,4,1:3:0:0:
37,274,14401,5,4,1:2:0:0:
37,274,14529,1,8,0:2:0:0:
37,274,14657,1,8,0:2:0:0:
155,285,14786,1,8,0:2:0:0:
80,384,14914,1,8,0:1:0:0:
93,318,15042,1,8,0:1:0:0:
295,192,15170,6,0,L|358:187,2,40,2|2|0,0:3|0:3|3:2,0:2:0:0:
218,200,15363,1,2,3:2:0:0:
218,200,15427,2,0,L|154:204,1,40,0|4,3:2|3:2,0:2:0:0:
295,192,15619,2,2,L|418:186,1,120,2|2,3:3|3:3,0:1:0:0:
178,202,15939,5,6,1:1:0:0:
131,286,16068,2,0,P|98:257|86:215,1,88.000002685547,4|8,1:2|0:3,0:2:0:0:
346,314,16324,2,0,P|298:359|234:370,1,132.00000402832,0|0,1:2|3:2,0:2:0:0:
159,372,16580,1,0,1:2:0:0:
150,374,16645,1,0,1:2:0:0:
142,376,16709,6,0,P|99:377|55:381,1,88.000002685547,12|0,0:2|0:2,0:2:0:0:
178,202,16965,2,0,P|179:158|183:114,1,88.000002685547,2|0,1:1|0:2,0:2:0:0:
191,28,17221,1,0,1:2:0:0:
106,22,17350,1,8,0:2:0:0:
274,113,17478,5,2,1:1:0:0:
367,115,17606,2,0,P|373:72|364:29,1,88.000002685547,4|0,1:3|0:2,0:2:0:0:
512,147,17862,2,0,P|490:208|494:274,1,132.00000402832,4|0,1:3|0:2,0:2:0:0:
465,358,18119,1,0,1:2:0:0:
465,358,18183,1,0,1:2:0:0:
465,358,18247,6,0,B|419:366|419:366|378:356,1,88.000002685547,12|0,0:2|0:2,0:2:0:0:
199,316,18504,1,0,1:2:0:0:
287,338,18632,1,12,0:2:0:0:
108,294,18760,2,0,P|66:283|23:274,1,88.000002685547,2|0,1:3|0:2,0:2:0:0:
266,247,19016,5,2,1:1:0:0:
148,121,19145,2,0,P|203:85|268:77,1,132.00000402832,0|0,1:2|0:2,0:2:0:0:
308,0,19401,2,0,P|342:26|357:67,1,88.000002685547,0|0,1:2|0:2,0:2:0:0:
481,175,19657,1,0,1:2:0:0:
483,183,19721,1,0,1:2:0:0:
486,190,19786,2,0,P|477:235|468:286,1,88.000002685547,12|0,0:2|0:2,0:2:0:0:
204,377,20042,2,0,B|208:337|222:300|222:300|228:247|228:247|234:233|238:204,1,176.000005371094,2|0,1:1|1:2,0:2:0:0:
268,77,20427,1,8,0:2:0:0:
310,279,20555,5,2,1:1:0:0:
375,228,20683,2,0,P|383:184|375:141,1,88.000002685547,4|0,1:3|0:2,0:2:0:0:
218,0,20939,2,0,P|177:50|182:115,1,132.00000402832,4|0,1:3|0:2,0:2:0:0:
375,141,21196,1,0,1:2:0:0:
386,139,21260,1,0,1:2:0:0:
397,137,21324,2,0,B|414:96|414:96|413:50|386:14,1,132.00000402832,12|0,0:1|0:2,0:2:0:0:
218,0,21580,2,0,B|186:27|186:27|171:75|183:118,1,132.00000402832,8|0,1:2|0:2,0:2:0:0:
397,137,21837,2,0,B|427:101|427:101|417:52|380:4,1,143.999995605469,12|0,0:2|0:2,0:2:0:0:
305,6,22093,5,6,1:1:0:0:
183,115,22221,2,0,P|197:157|229:185,1,88.000002685547,4|0,1:2|0:2,0:2:0:0:
270,105,22478,1,0,1:2:0:0:
171,252,22606,2,0,P|210:271|254:268,1,88.000002685547,0|0,0:2|1:2,0:2:0:0:
329,325,22798,1,0,1:2:0:0:
321,331,22862,2,0,B|297:336|274:350|274:350|249:349|249:349|223:363|197:370,1,132.00000402832,12|0,0:2|0:2,0:2:0:0:
113,354,23119,2,0,P|69:346|26:335,1,88.000002685547,0|0,1:2|0:2,0:2:0:0:
171,252,23375,5,0,1:2:0:0:
198,370,23504,1,8,0:2:0:0:
321,331,23632,1,2,1:1:0:0:
303,220,23760,2,0,P|367:207|431:191,1,132.00000402832,4|0,1:3|0:2,0:2:0:0:
512,201,24016,2,0,P|505:157|478:123,1,88.000002685547,4|2,1:3|0:1,0:2:0:0:
333,53,24273,1,0,1:2:0:0:
333,53,24337,1,0,1:2:0:0:
333,53,24401,6,0,B|309:48|286:34|286:34|261:35|261:35|235:21|209:13,1,132.00000402832,12|0,0:2|0:2,0:2:0:0:
129,36,24657,1,0,1:2:0:0:
381,119,24786,2,0,P|408:86|412:43,1,88.000002685547,12|2,0:2|1:3,0:2:0:0:
209,13,25042,1,0,0:2:0:0:
191,94,25170,5,2,1:1:0:0:
169,173,25298,2,0,P|183:214|196:256,1,88.000002685547,0|0,1:2|0:2,0:2:0:0:
41,307,25555,2,0,P|27:265|14:223,1,88.000002685547,0|0,1:2|0:2,0:2:0:0:
149,384,25811,1,0,1:2:0:0:
149,384,25875,1,0,1:2:0:0:
149,384,25939,6,0,P|211:363|275:345,1,132.00000402832,12|0,0:2|0:2,0:2:0:0:
350,319,26196,2,0,L|434:295,1,88.000002685547,0|0,1:2|0:2,0:2:0:0:
275,345,26452,1,0,1:2:0:0:
435,295,26580,1,0,0:2:0:0:
340,195,26709,5,6,1:1:0:0:
427,52,26965,1,8,0:1:0:0:
427,52,27029,1,8,0:1:0:0:
427,52,27093,1,8,0:1:0:0:
340,195,27221,1,10,0:1:0:0:
435,295,27350,5,8,0:1:0:0:
489,223,27478,1,8,0:1:0:0:
475,145,27606,1,8,0:3:0:0:
387,125,27734,1,2,1:1:0:0:
345,51,27862,1,4,0:3:0:0:
427,52,27991,1,6,1:1:0:0:
301,121,28119,1,4,0:3:0:0:
76,275,28247,5,6,1:1:0:0:
256,384,28375,1,4,1:2:0:0:
83,282,28888,5,0,1:2:0:0:
83,282,28952,1,0,1:2:0:0:
83,282,29017,2,0,B|50:247|51:197|51:197|68:157,1,132.00000402832,12|0,0:2|0:2,0:2:0:0:
140,149,29273,2,2,B|140:111|162:79|162:79|164:53|144:23,1,132.00000402832,2|0,1:1|0:2,0:2:0:0:
66,21,29529,1,0,1:2:0:0:
19,86,29657,1,8,0:2:0:0:
359,212,29786,5,2,1:1:0:0:
406,286,29914,2,0,P|420:326|420:370,1,88.000002685547,4|0,1:3|0:2,0:2:0:0:
140,149,30170,2,0,P|121:87|148:25,1,132.00000402832,4|0,1:3|0:2,0:2:0:0:
236,13,30427,1,0,1:2:0:0:
236,13,30491,1,0,1:2:0:0:
236,13,30555,6,0,P|279:7|323:0,1,88.000002685547,12|0,0:2|0:2,0:2:0:0:
206,89,30812,1,0,1:2:0:0:
145,27,30940,1,12,0:2:0:0:
234,9,31068,1,2,1:3:0:0:
383,219,31324,5,2,1:1:0:0:
247,299,31453,2,0,P|182:310|119:292,1,132.00000402832,0|0,1:2|0:2,0:2:0:0:
64,241,31709,2,0,P|42:204|36:146,1,88.000002685547,0|0,1:2|0:2,0:2:0:0:
41,82,31964,1,0,1:2:0:0:
41,82,32028,1,0,1:2:0:0:
41,82,32093,5,12,0:2:0:0:
120,292,32350,1,2,1:1:0:0:
247,299,32606,1,0,1:2:0:0:
322,269,32734,1,8,0:2:0:0:
383,219,32863,5,2,1:1:0:0:
394,140,32991,2,0,P|375:100|358:60,1,88.000002685547,4|0,1:3|0:2,0:2:0:0:
472,335,33247,2,0,P|506:279|513:214,1,132.00000402832,4|0,1:3|0:2,0:2:0:0:
489,139,33504,1,0,1:2:0:0:
478,141,33568,1,0,1:2:0:0:
467,143,33632,2,0,B|439:155|394:142|394:142|434:192|432:235,1,176.000005371094,12|8,0:1|1:2,0:2:0:0:
358,60,34016,1,0,0:2:0:0:
432,234,34145,2,0,P|412:296|356:326,1,132.00000402832,12|0,0:2|0:2,0:2:0:0:
279,335,34401,5,6,1:1:0:0:
394,141,34529,2,0,P|437:138|472:112,1,88.000002685547,4|0,1:2|0:2,0:2:0:0:
272,32,34786,2,0,P|228:35|194:61,1,88.000002685547,0|0,1:2|0:2,0:2:0:0:
140,118,35042,1,0,1:2:0:0:
145,128,35106,1,0,1:2:0:0:
149,137,35170,6,0,B|161:157|157:187|157:187|166:211|166:211|179:228|184:263,1,132.00000402832,12|0,0:2|0:2,0:2:0:0:
211,331,35427,1,0,1:2:0:0:
139,354,35555,1,0,0:2:0:0:
109,281,35683,1,0,1:2:0:0:
184,262,35812,1,8,0:2:0:0:
64,380,35940,5,2,1:1:0:0:
31,206,36068,1,4,1:3:0:0:
0,49,36324,1,4,1:3:0:0:
82,28,36580,1,0,1:2:0:0:
82,28,36645,1,0,1:2:0:0:
82,28,36709,6,0,P|146:40|211:53,1,132.00000402832,12|0,0:2|0:2,0:2:0:0:
290,70,36965,1,0,1:2:0:0:
135,125,37093,1,12,0:2:0:0:
184,262,37221,2,0,P|242:286|331:232,1,132.00000402832,2|0,1:3|0:2,0:2:0:0:
429,213,37478,5,2,1:1:0:0:
445,137,37606,2,0,L|457:49,1,88.000002685547,0|0,1:2|0:2,0:2:0:0:
290,70,37862,1,0,1:2:0:0:
372,84,37991,1,0,0:2:0:0:
328,156,38119,1,0,1:2:0:0:
328,156,38183,1,0,1:2:0:0:
328,156,38247,6,0,P|264:159|209:124,1,132.00000402832,12|0,0:2|0:2,0:2:0:0:
168,69,38504,1,8,0:2:0:0:
133,9,38632,1,8,0:2:0:0:
209,124,38760,1,10,0:2:0:0:
209,124,38888,1,10,0:2:0:0:
69,206,39017,5,14,1:1:0:0:
155,346,39145,1,12,3:2:0:0:
297,264,39273,1,4,1:3:0:0:
297,264,39337,1,0,1:2:0:0:
297,264,39401,1,8,0:1:0:0:
190,198,39529,1,14,0:1:0:0:
172,271,39657,1,0,1:2:0:0:
314,352,39786,5,8,0:1:0:0:
384,303,39914,2,0,P|389:259|377:217,1,88.000002685547,8|2,0:2|1:1,0:2:0:0:
287,91,40170,1,8,0:3:0:0:
268,191,40298,1,6,1:1:0:0:
396,111,40427,1,12,0:3:0:0:
478,87,40555,5,4,1:2:0:0:
461,167,40683,1,0,1:2:0:0:
464,171,40939,1,0,1:2:0:0:
467,175,41196,1,0,1:2:0:0:
445,254,41324,6,0,L|271:284,1,176.000005371094,14|0,0:1|1:2,0:2:0:0:
272,285,41965,1,0,1:2:0:0:
192,276,42093,5,4,1:2:0:0:
209,196,42221,1,0,1:2:0:0:
212,200,42477,1,0,1:2:0:0:
214,204,42734,1,0,1:2:0:0:
136,188,42862,5,14,0:1:0:0:
116,263,43119,1,0,1:2:0:0:
214,204,43247,1,8,0:2:0:0:
192,276,43375,1,2,1:3:0:0:
192,276,43504,1,0,0:2:0:0:
76,102,43632,5,4,1:2:0:0:
181,54,43760,1,0,1:2:0:0:
184,58,44016,1,0,1:2:0:0:
187,62,44273,1,0,1:2:0:0:
292,11,44401,6,0,L|465:41,1,176.000005371094,14|0,0:1|1:2,0:2:0:0:
465,41,44914,1,0,1:2:0:0:
465,41,45042,1,8,0:2:0:0:
512,109,45170,5,12,0:2:0:0:
467,176,45298,2,0,P|423:180|379:185,1,88.000002685547,0|0,1:2|0:2,0:2:0:0:
304,197,45555,2,0,P|238:203|172:212,1,132.00000402832,12|0,0:2|0:2,0:2:0:0:
101,223,45811,1,0,1:2:0:0:
127,384,45939,5,14,0:1:0:0:
127,384,46068,1,0,3:2:0:0:
175,318,46196,1,14,0:1:0:0:
210,384,46324,1,2,0:3:0:0:
330,326,46452,1,10,0:1:0:0:
235,272,46580,1,8,0:2:0:0:
310,252,46709,5,4,1:2:0:0:
310,252,47392,5,0,0:2:0:0:
315,249,47478,2,0,B|306:177|306:177|351:109,1,143.999995605469,10|0,0:2|3:2,0:2:0:0:
161,61,48076,1,0,0:2:0:0:
159,68,48162,1,0,0:2:0:0:
157,74,48247,6,0,B|158:111|158:111|168:144,1,71.9999978027344,2|0,1:2|0:2,0:2:0:0:
346,118,48632,2,0,B|345:81|345:81|334:47,1,71.9999978027344,0|0,0:2|1:2,0:2:0:0:
334,48,48888,1,0,1:2:0:0:
253,95,49016,1,10,0:2:0:0:
265,182,49273,1,2,3:2:0:0:
279,273,49529,1,2,3:3:0:0:
279,273,49786,6,0,L|203:291,1,71.9999978027344,0|0,1:2|0:2,0:2:0:0:
44,333,50384,1,0,0:2:0:0:
40,328,50469,1,0,0:2:0:0:
36,323,50555,6,0,P|18:253|0:183,1,143.999995605469,10|0,0:2|3:2,0:2:0:0:
221,34,51153,1,0,0:2:0:0:
225,38,51238,1,0,0:2:0:0:
230,42,51324,2,0,L|248:112,1,71.9999978027344,2|0,1:2|0:2,0:2:0:0:
330,88,51709,2,0,L|312:18,1,71.9999978027344,0|0,0:2|1:2,0:2:0:0:
409,212,51965,1,0,1:2:0:0:
398,292,52093,5,10,0:2:0:0:
337,239,52350,1,2,3:2:0:0:
239,364,52606,1,2,3:2:0:0:
239,364,52734,1,8,0:2:0:0:
233,176,52862,5,4,1:2:0:0:
167,216,52991,2,0,B|95:204|95:204|18:233|14:340,1,215.999993408203,0|0,0:2|1:2,0:2:0:0:
123,289,53461,1,0,0:2:0:0:
119,285,53546,1,0,0:2:0:0:
114,281,53632,6,0,P|91:212|128:142,1,143.999995605469,10|0,0:2|3:2,0:2:0:0:
354,140,54230,1,0,0:2:0:0:
359,144,54315,1,0,0:2:0:0:
364,148,54401,6,0,P|383:178|387:213,1,71.9999978027344,2|0,1:2|0:2,0:2:0:0:
248,111,54914,1,0,1:2:0:0:
316,74,55042,1,0,1:2:0:0:
385,46,55170,5,10,0:2:0:0:
385,46,55427,1,2,3:2:0:0:
385,46,55683,1,2,3:3:0:0:
256,384,55939,6,0,B|211:291|211:291|219:180,1,200,0|0,1:2|0:2,0:2:0:0:
271,131,56623,1,0,0:2:0:0:
277,135,56709,2,0,B|316:131|316:131|359:142,1,71.9999978027344,10|0,0:2|0:2,0:2:0:0:
496,147,56965,2,0,P|510:113|468:14,1,143.999995605469,0|2,3:2|3:3,0:2:0:0:
218,195,57478,5,2,1:2:0:0:
191,114,57649,1,6,0:3:0:0:
191,114,57734,1,10,1:3:0:0:
84,233,57905,1,2,1:2:0:0:
8,253,57990,2,0,P|-8:297|0:344,1,95.9999970703126,12|8,0:2|0:2,0:2:0:0:
78,384,58247,2,0,P|88:349|73:298,1,71.9999978027344,6|8,1:2|3:3,0:2:0:0:
112,151,58504,2,0,P|102:116|117:65,1,71.9999978027344,2|8,3:2|3:2,0:2:0:0:
191,21,58760,5,2,1:2:0:0:
239,39,58845,1,8,0:3:0:0:
271,82,58931,1,4,0:3:0:0:
277,135,59016,1,6,1:1:0:0:
361,208,59144,6,0,P|356:244|349:279,1,71.9999978027344,2|0,0:1|0:2,0:2:0:0:
279,330,59401,1,2,0:1:0:0:
427,312,59529,2,0,P|434:258|443:205,1,107.999996704102,0|0,1:2|0:2,0:2:0:0:
458,133,59786,1,10,0:2:0:0:
458,133,60042,1,0,3:2:0:0:
458,133,60298,1,2,3:3:0:0:
279,330,60554,5,2,1:1:0:0:
197,319,60683,2,0,P|164:334|130:348,1,71.9999978027344,2|0,0:1|0:2,0:2:0:0:
361,340,60939,2,0,P|393:325|427:311,1,71.9999978027344,2|0,0:1|1:2,0:2:0:0:
328,266,61196,1,2,1:1:0:0:
249,251,61324,1,10,0:2:0:0:
122,209,61580,1,2,3:2:0:0:
159,83,61837,1,2,3:3:0:0:
233,102,62093,5,2,1:1:0:0:
0,160,62221,2,0,B|36:149|36:149|71:153,1,71.9999978027344,2|0,0:1|0:2,0:2:0:0:
216,175,62478,1,2,0:1:0:0:
158,281,62606,2,0,P|88:285|43:232,1,143.999995605469,0|10,1:2|0:2,0:2:0:0:
44,233,63631,5,2,1:1:0:0:
1,302,63760,2,0,P|-3:345|9:380,1,71.9999978027344,2|0,0:1|0:2,0:2:0:0:
238,166,64016,2,0,P|207:210|195:262,1,107.999996704102,2|0,0:1|0:2,0:2:0:0:
197,338,64272,1,2,1:1:0:0:
394,165,64401,2,0,P|350:168|319:189,2,71.9999978027344,10|0|2,0:1|0:2|3:2,0:2:0:0:
430,243,64913,1,2,3:2:0:0:
430,243,65042,1,8,0:2:0:0:
489,181,65170,5,6,1:1:0:0:
456,111,65298,2,0,P|462:76|468:41,1,71.9999978027344,2|0,0:1|0:2,0:2:0:0:
394,165,65554,1,2,0:1:0:0:
226,84,65811,1,2,0:1:0:0:
152,108,65939,2,0,B|137:143|137:143|141:176,1,71.9999978027344,10|0,0:2|0:2,0:2:0:0:
142,176,66452,1,2,3:3:0:0:
49,366,66708,5,6,1:1:0:0:
23,285,66837,2,0,P|13:251|2:216,1,71.9999978027344,2|0,0:1|0:2,0:2:0:0:
195,309,67221,1,0,1:2:0:0:
198,313,67349,1,2,1:1:0:0:
282,275,67478,2,0,L|349:249,1,71.9999978027344,10|0,0:2|0:2,0:2:0:0:
227,149,67734,2,0,L|214:219,1,71.9999978027344,2|0,3:2|0:2,0:2:0:0:
358,156,67991,2,0,L|302:110,1,71.9999978027344,2|0,3:3|3:2,0:2:0:0:
349,250,68247,5,6,1:1:0:0:
447,181,68375,2,0,P|451:146|442:111,1,71.9999978027344,2|0,0:1|0:2,0:2:0:0:
227,149,68632,2,0,P|203:176|187:285,1,143.999995605469,2|2,0:1|0:1,0:2:0:0:
144,356,69016,2,0,L|-7:383,2,143.999995605469,10|2|2,0:1|3:1|3:1,0:2:0:0:
186,279,69785,5,6,1:1:0:0:
101,266,69913,1,2,0:1:0:0:
101,266,70170,1,2,1:1:0:0:
118,184,70298,1,8,0:2:0:0:
135,102,70427,1,2,1:1:0:0:
152,20,70555,1,10,0:1:0:0:
152,20,70939,1,8,3:2:0:0:
152,20,71067,1,8,3:2:0:0:
152,20,71196,1,8,0:1:0:0:
215,77,71324,6,0,B|286:49|286:49|326:69|326:69|369:66|473:35,1,240,6|10,1:1|0:0,0:2:0:0:
512,85,71837,1,2,3:2:0:0:
348,288,71965,1,0,1:0:0:0:
509,171,72093,2,0,B|470:164|470:164|440:135,1,80,14|0,0:2|0:2,0:2:0:0:
366,372,72349,2,0,P|425:323|420:247,1,160,8|0,0:3|1:2,0:2:0:0:
235,172,72862,6,0,P|180:227|190:308,1,160,0|2,1:2|0:3,0:2:0:0:
260,255,73246,1,0,0:2:0:0:
316,190,73375,1,0,3:2:0:0:
296,111,73503,1,0,1:2:0:0:
218,88,73631,2,0,L|139:71,1,80,14|0,0:2|0:2,0:2:0:0:
62,50,73888,2,0,L|45:128,1,80,2|2,3:2|0:2,0:2:0:0:
26,205,74144,1,0,1:2:0:0:
102,221,74272,1,8,0:2:0:0:
351,296,74401,6,0,P|293:348|216:345,1,160,6|2,1:1|0:3,0:2:0:0:
332,221,74785,1,10,0:0:0:0:
490,284,74913,1,2,3:2:0:0:
424,328,75042,1,0,1:0:0:0:
311,145,75170,2,0,B|293:108|293:108|299:69,1,80,14|0,0:2|0:2,0:2:0:0:
232,14,75426,2,0,P|154:7|92:55,1,160,2|0,0:2|1:2,0:2:0:0:
299,70,75939,1,0,1:2:0:0:
372,94,76067,6,0,B|392:131|392:131|387:168,2,80,0|2|0,0:2|0:3|0:2,0:2:0:0:
204,149,76452,1,0,3:2:0:0:
140,210,76580,1,0,1:2:0:0:
55,203,76708,2,0,B|19:276|19:276|51:346,1,160,14|2,0:2|3:2,0:2:0:0:
52,347,77221,1,0,1:2:0:0:
52,347,77349,1,8,0:2:0:0:
155,290,77478,1,6,1:1:0:0:
56,227,77734,5,2,0:3:0:0:
140,209,77862,2,0,P|181:212|218:234,1,80,10|2,0:0|3:2,0:2:0:0:
103,103,78119,1,0,1:0:0:0:
139,29,78247,2,0,P|189:0|247:8,1,120,14|0,0:2|0:2,0:2:0:0:
288,74,78503,2,0,P|284:113|262:146,1,80,8|0,0:3|0:2,0:2:0:0:
20,115,78760,2,0,P|23:75|45:42,1,80,0|0,1:2|0:2,0:2:0:0:
329,3,79016,6,0,B|362:25|387:30|387:30|431:14|500:10,1,160,0|2,1:2|0:3,0:2:0:0:
211,87,79401,1,0,0:2:0:0:
288,74,79529,1,0,3:2:0:0:
188,161,79657,1,0,1:2:0:0:
332,138,79785,2,0,P|421:126|497:115,2,160,14|2|0,0:2|3:2|1:2,0:2:0:0:
143,239,80427,1,8,0:2:0:0:
162,333,80554,6,0,P|236:359|279:230,1,240,6|10,1:1|0:0,0:2:0:0:
215,206,81067,1,2,3:2:0:0:
222,283,81196,1,0,1:0:0:0:
280,161,81324,1,14,0:2:0:0:
212,123,81452,5,0,1:2:0:0:
145,160,81580,1,0,3:3:0:0:
87,319,81837,6,0,L|8:304,1,80,2|0,1:2|0:2,0:2:0:0:
390,243,82093,2,0,L|468:228,1,80,0|0,1:2|0:2,0:2:0:0:
240,104,82350,2,0,L|83:72,1,160,2|0,0:3|3:2,0:2:0:0:
145,160,82734,1,0,1:2:0:0:
222,195,82862,6,0,P|297:175|333:106,1,160,14|10,0:2|3:2,0:2:0:0:
286,14,83247,1,10,0:2:0:0:
333,106,83375,1,10,1:2:0:0:
459,7,83503,1,8,1:3:0:0:
423,99,83631,5,6,1:1:0:0:
423,99,84016,1,10,0:0:0:0:
472,172,84144,2,0,P|488:207|488:247,1,80,2|0,3:2|1:0,0:2:0:0:
190,358,84401,6,0,B|147:348|147:348|101:303|42:308,1,160,14|8,0:2|0:3,0:2:0:0:
266,319,84785,1,4,0:3:0:0:
214,250,84913,1,0,1:2:0:0:
281,187,85042,1,0,0:2:0:0:
236,109,85170,6,0,P|159:123|96:-9,1,240,0|0,1:2|0:2,0:2:0:0:
292,44,85683,1,0,3:2:0:0:
295,48,85811,1,0,1:2:0:0:
333,259,85939,2,0,P|403:226|398:138,2,160,14|2|0,0:2|3:2|1:2,0:2:0:0:
236,109,86580,1,8,0:2:0:0:
295,48,86708,5,6,1:1:0:0:
295,48,87093,1,10,0:0:0:0:
381,57,87221,2,0,L|465:30,1,80,2|0,3:2|1:0,0:2:0:0:
258,248,87478,2,0,P|201:196|204:119,2,160,14|8|0,0:2|0:3|1:2,0:2:0:0:
424,176,88119,5,0,0:2:0:0:
295,48,88247,1,0,1:2:0:0:
292,123,88375,1,0,0:2:0:0:
347,177,88504,1,2,0:3:0:0:
492,96,88631,2,0,B|497:56|497:56|484:18,1,80,0|0,0:2|3:2,0:2:0:0:
295,48,88888,1,0,1:2:0:0:
205,119,89016,6,0,B|181:111|151:112|151:112|112:89|112:89|26:114|35:190,1,240,14|2,0:1|0:2,0:2:0:0:
35,190,89657,1,8,0:2:0:0:
111,214,89785,6,0,P|150:219|190:220,1,80,6|0,1:1|0:2,0:2:0:0:
443,306,90042,2,0,P|403:300|363:299,1,80,2|10,0:3|0:0,0:2:0:0:
297,227,90298,1,2,3:2:0:0:
382,205,90427,1,0,1:0:0:0:
297,227,90554,2,0,P|275:152|199:117,2,160,14|8|0,0:1|0:3|1:2,0:2:0:0:
190,220,91196,1,0,0:2:0:0:
205,117,91324,6,0,P|213:78|230:42,1,80,0|0,1:2|0:2,0:2:0:0:
297,227,91580,2,0,P|290:266|272:301,1,80,2|0,0:3|0:2,0:2:0:0:
75,233,91837,1,0,3:2:0:0:
31,126,91965,1,0,1:2:0:0:
119,61,92093,5,14,0:1:0:0:
119,61,92350,1,2,0:2:0:0:
119,61,92606,1,0,1:2:0:0:
204,83,92734,1,8,0:2:0:0:
147,146,92862,1,4,1:2:0:0:
220,242,93119,5,8,1:2:0:0:
262,26,93375,1,8,1:2:0:0:
298,305,93631,5,8,1:3:0:0:
232,160,93888,1,4,1:3:0:0:
450,298,94144,5,4,1:3:0:0:
375,262,94272,1,4,1:3:0:0:
424,21,94401,5,10,1:1:0:0:
389,96,94529,2,0,P|413:126|424:165,1,80,8|4,0:1|1:3,0:2:0:0:
493,219,94721,1,0,1:3:0:0:
493,219,94785,1,8,1:2:0:0:
198,80,94913,1,8,1:2:0:0:
257,145,95042,2,0,L|334:167,1,80,4|10,1:3|1:1,0:2:0:0:
231,357,95298,5,8,1:1:0:0:
53,295,95426,1,8,1:3:0:0:
53,295,95491,1,4,1:3:0:0:
53,295,95555,1,2,1:3:0:0:
94,216,95683,5,4,1:3:0:0:
110,187,95768,5,4,1:3:0:0:
62,215,95854,5,4,1:3:0:0:
110,245,95939,5,6,1:1:0:0:
191,76,98247,6,0,P|173:85|158:103,1,40,2|0,0:3|3:2,0:2:0:0:
403,20,98504,6,0,P|376:19|349:26,1,55.9999982910157,0|0,3:2|0:2,0:2:0:0:
224,144,98760,6,0,P|211:177|213:212,1,71.9999978027344,2|2,1:3|3:3,0:2:0:0:
384,95,99016,5,6,1:1:0:0:
290,188,99145,2,0,P|302:229|331:262,1,88.000002685547,4|2,1:2|0:2,0:2:0:0:
497,146,99401,2,0,P|484:104|455:71,1,88.000002685547,0|2,1:2|0:2,0:2:0:0:
501,306,99657,1,0,1:2:0:0:
501,306,99721,1,0,1:2:0:0:
501,306,99786,6,0,L|371:331,1,132.00000402832,14|0,0:2|0:2,0:2:0:0:
304,382,100042,2,0,P|261:376|217:372,1,88.000002685547,2|0,1:1|0:2,0:2:0:0:
138,364,100298,1,0,1:2:0:0:
162,199,100427,1,10,0:2:0:0:
225,252,100555,5,2,1:1:0:0:
46,221,100683,1,4,1:3:0:0:
69,76,100939,2,0,B|116:84|116:84|153:70,1,88.000002685547,4|2,1:3|0:1,0:2:0:0:
352,87,101196,1,0,1:2:0:0:
359,94,101260,1,0,1:2:0:0:
359,94,101324,6,0,P|402:85|445:78,1,88.000002685547,12|0,0:2|0:2,0:2:0:0:
420,171,101580,1,0,1:2:0:0:
386,0,101709,1,14,0:2:0:0:
288,193,101837,2,0,P|279:149|272:106,1,88.000002685547,2|2,1:3|0:2,0:2:0:0:
181,343,102093,5,2,1:1:0:0:
31,281,102221,2,0,B|23:329|23:329|39:364,1,88.000002685547,0|2,1:2|0:2,0:2:0:0:
181,343,102478,2,0,B|189:295|189:295|172:259,1,88.000002685547,0|2,1:2|0:2,0:2:0:0:
80,137,102734,1,0,1:2:0:0:
80,137,102798,1,0,1:2:0:0:
80,137,102862,6,0,P|144:144|192:100,1,132.00000402832,14|0,0:2|0:2,0:2:0:0:
115,50,103119,2,0,P|74:38|31:47,1,88.000002685547,2|0,1:1|0:2,0:2:0:0:
192,101,103375,5,0,1:2:0:0:
288,0,103504,1,10,0:2:0:0:
357,43,103632,5,2,1:1:0:0:
458,174,103760,2,0,P|395:180|347:136,1,132.00000402832,4|0,1:3|0:2,0:2:0:0:
424,86,104017,2,0,P|465:73|508:82,1,88.000002685547,4|2,1:3|0:1,0:2:0:0:
352,267,104273,1,0,1:2:0:0:
352,267,104337,1,0,1:2:0:0:
352,267,104401,6,0,L|220:282,1,132.00000402832,12|0,0:1|0:2,0:2:0:0:
148,293,104657,2,0,L|60:303,1,88.000002685547,8|2,1:2|0:2,0:2:0:0:
221,282,104914,1,14,0:2:0:0:
210,208,105042,1,2,0:2:0:0:
401,373,105170,5,6,1:1:0:0:
372,164,105298,2,0,L|459:174,1,88.000002685547,4|2,1:2|0:2,0:2:0:0:
198,134,105555,2,0,P|190:90|185:45,1,88.000002685547,0|2,1:2|0:2,0:2:0:0:
286,234,105811,5,0,1:2:0:0:
291,243,105875,1,0,1:2:0:0:
295,253,105939,2,0,P|305:323|284:380,1,132.00000402832,14|0,0:2|0:2,0:2:0:0:
202,367,106196,2,0,P|159:364|116:355,1,88.000002685547,2|0,1:2|0:2,0:2:0:0:
119,166,106452,5,0,1:2:0:0:
283,107,106580,1,10,0:2:0:0:
77,38,106709,5,2,1:1:0:0:
151,58,106837,2,0,P|194:57|233:37,1,88.000002685547,4|0,1:3|0:2,0:2:0:0:
404,66,107093,2,0,P|338:72|283:107,1,132.00000402832,4|0,1:3|0:2,0:2:0:0:
321,176,107350,5,0,1:2:0:0:
323,185,107414,1,0,1:2:0:0:
326,193,107478,2,0,L|333:280,1,88.000002685547,14|0,0:2|0:2,0:2:0:0:
409,343,107734,1,2,1:2:0:0:
494,205,107862,1,12,0:2:0:0:
410,247,107991,1,2,1:3:0:0:
494,304,108119,1,0,0:2:0:0:
150,348,108247,5,2,1:1:0:0:
274,341,108375,2,0,P|309:316|333:279,1,88.000002685547,0|0,1:2|0:2,0:2:0:0:
216,239,108632,2,0,P|219:174|183:120,1,132.00000402832,0|0,1:2|0:2,0:2:0:0:
135,53,108888,1,0,1:2:0:0:
129,60,108952,1,0,1:2:0:0:
124,68,109016,2,0,P|81:72|37:76,1,88.000002685547,14|0,0:2|0:2,0:2:0:0:
132,202,109273,1,0,1:2:0:0:
307,159,109401,5,0,0:2:0:0:
378,186,109529,1,0,1:2:0:0:
449,213,109657,1,2,0:2:0:0:
337,370,109786,6,0,L|321:283,1,88.000002685547,6|0,1:1|3:2,0:2:0:0:
256,227,110042,1,8,0:1:0:0:
251,201,110106,1,8,0:1:0:0:
246,175,110170,1,8,0:1:0:0:
241,149,110234,1,0,0:2:0:0:
236,123,110298,1,10,0:1:0:0:
220,46,110427,5,8,0:1:0:0:
512,156,110555,1,8,0:3:0:0:
441,129,110683,1,8,0:3:0:0:
370,102,110811,1,2,1:1:0:0:
70,120,110939,2,0,P|113:112|156:101,1,88.000002685547,4|6,0:3|1:1,0:2:0:0:
296,71,111196,1,4,0:3:0:0:
169,244,111324,5,6,1:1:0:0:
255,226,111452,2,0,P|211:233|168:244,1,88.000002685547,4|2,1:2|0:2,0:2:0:0:
325,272,111709,2,0,B|355:309|355:309|394:318,1,88.000002685547,0|2,1:2|0:2,0:2:0:0:
78,356,111965,1,0,1:2:0:0:
78,356,112029,1,0,1:2:0:0:
78,356,112093,6,0,L|94:225,1,132.00000402832,14|0,0:2|0:2,0:2:0:0:
70,120,112350,2,0,P|151:139|203:74,1,176.000005371094,2|0,1:1|1:2,0:2:0:0:
126,66,112734,1,10,0:2:0:0:
419,230,112862,5,2,1:1:0:0:
306,178,112991,2,0,P|298:134|290:91,1,88.000002685547,4|0,1:3|0:2,0:2:0:0:
387,13,113247,2,0,P|428:28|469:42,1,88.000002685547,4|2,1:3|0:1,0:2:0:0:
486,173,113504,1,0,1:2:0:0:
486,173,113568,1,0,1:2:0:0:
486,173,113632,6,0,P|452:201|419:230,1,88.000002685547,12|0,0:2|0:2,0:2:0:0:
394,116,113888,1,0,1:2:0:0:
469,42,114016,1,14,0:2:0:0:
419,230,114145,1,2,1:3:0:0:
290,91,114273,1,2,0:2:0:0:
213,65,114401,6,0,P|169:70|125:65,1,88.000002685547,2|0,1:1|1:2,0:2:0:0:
337,302,114657,1,2,0:2:0:0:
313,200,114786,2,0,P|269:194|225:199,1,88.000002685547,0|2,1:2|0:2,0:2:0:0:
115,221,115042,5,0,1:2:0:0:
107,224,115106,1,0,1:2:0:0:
100,227,115170,2,0,B|96:274|96:274|114:310,1,88.000002685547,14|0,0:2|0:2,0:2:0:0:
241,283,115427,2,0,B|245:236|245:236|226:199,1,88.000002685547,2|0,1:1|0:2,0:2:0:0:
126,66,115683,1,0,1:2:0:0:
148,145,115811,1,10,0:2:0:0:
426,233,115939,5,2,1:1:0:0:
390,124,116068,2,0,P|353:101|319:74,1,88.000002685547,4|0,1:3|0:2,0:2:0:0:
512,3,116324,2,0,P|474:26|440:53,1,88.000002685547,4|2,1:3|0:1,0:2:0:0:
227,200,116580,1,0,1:2:0:0:
227,200,116645,1,0,1:2:0:0:
227,200,116709,6,0,L|357:222,1,132.00000402832,12|0,0:1|0:2,0:2:0:0:
426,233,116965,2,0,L|512:247,1,88.000002685547,8|2,1:2|0:2,0:2:0:0:
357,222,117221,1,14,0:2:0:0:
512,247,117350,1,2,0:2:0:0:
267,330,117478,5,6,1:1:0:0:
149,300,117606,2,0,P|107:310|63:312,1,88.000002685547,4|2,1:2|0:2,0:2:0:0:
226,199,117862,2,0,P|175:160|158:97,1,132.00000402832,0|0,1:2|0:2,0:2:0:0:
197,22,118119,5,0,1:2:0:0:
205,26,118183,1,0,1:2:0:0:
212,31,118247,2,0,B|254:47|254:47|296:42,1,88.000002685547,14|0,0:2|0:2,0:2:0:0:
158,97,118504,2,0,B|116:113|116:113|73:108,1,88.000002685547,2|0,1:2|0:2,0:2:0:0:
355,152,118760,5,0,1:2:0:0:
415,5,118888,1,10,0:2:0:0:
296,41,119016,1,2,1:1:0:0:
479,111,119145,2,0,P|491:153|506:196,1,88.000002685547,4|0,1:3|0:2,0:2:0:0:
37,297,119401,6,0,B|165:265,1,132.00000402832,4|0,1:3|0:2,0:2:0:0:
261,335,119657,1,0,1:2:0:0:
261,335,119721,1,0,1:2:0:0:
261,335,119786,2,0,L|240:249,1,88.000002685547,14|0,0:2|0:2,0:2:0:0:
403,161,120042,2,0,L|423:246,1,88.000002685547,2|12,1:2|0:2,0:2:0:0:
240,249,120298,5,2,1:3:0:0:
424,246,120427,1,0,0:2:0:0:
359,81,120555,5,2,1:1:0:0:
479,101,120683,2,0,P|478:58|460:18,1,88.000002685547,0|0,1:2|0:2,0:2:0:0:
237,62,120939,2,0,P|237:105|255:145,1,88.000002685547,0|0,1:2|0:2,0:2:0:0:
163,189,121196,1,0,1:2:0:0:
163,189,121260,1,0,1:2:0:0:
163,189,121324,6,0,L|32:168,1,132.00000402832,14|0,0:2|0:2,0:2:0:0:
111,103,121580,1,8,0:2:0:0:
86,255,121709,1,8,0:2:0:0:
32,168,121837,1,10,0:2:0:0:
163,189,121965,1,10,0:2:0:0:
165,321,122093,5,14,1:1:0:0:
247,384,122221,2,0,L|340:359,1,88.000002685547,12|6,3:2|1:3,0:2:0:0:
471,314,122478,1,8,0:1:0:0:
471,314,122542,1,0,0:2:0:0:
471,314,122606,6,0,L|446:221,1,88.000002685547,14|0,0:1|1:2,0:2:0:0:
428,150,122862,1,10,0:1:0:0:
410,75,122991,1,8,0:2:0:0:
503,134,123119,1,2,1:1:0:0:
351,172,123247,1,8,0:3:0:0:
311,17,123375,1,6,1:1:0:0:
351,172,123504,1,12,0:3:0:0:
303,237,123632,5,6,1:2:0:0:
247,177,123760,2,0,P|222:212|219:256,1,88.000002685547,0|0,1:2|3:2,0:2:0:0:
220,66,124016,2,0,P|180:82|150:114,1,88.000002685547,0|0,1:2|3:2,0:2:0:0:
156,315,124273,1,0,1:2:0:0:
156,315,124337,1,0,1:2:0:0:
156,315,124401,6,0,B|108:300|108:300|62:310|62:310|29:297,1,132.00000402832,14|0,0:2|0:2,0:2:0:0:
61,210,124657,2,0,P|71:168|63:125,1,88.000002685547,2|2,0:2|1:2,0:2:0:0:
30,297,124914,2,0,P|29:340|45:381,1,88.000002685547,2|0,3:2|1:2,0:2:0:0:
279,315,125170,5,0,1:2:0:0:
303,236,125298,2,0,P|320:196|320:153,1,88.000002685547,0|0,1:2|3:2,0:2:0:0:
188,37,125555,2,0,P|160:71|149:113,1,88.000002685547,0|2,1:2|3:3,0:2:0:0:
146,227,125811,1,0,1:2:0:0:
146,227,125875,1,0,1:2:0:0:
146,227,125939,2,0,L|155:314,1,88.000002685547,14|0,0:2|0:2,0:2:0:0:
235,120,126196,1,2,1:2:0:0:
320,153,126324,2,0,B|330:111|330:111|312:69,2,88.000002685547,8|2|0,0:2|1:3|0:2,0:2:0:0:
385,219,126709,5,4,1:2:0:0:
422,77,126837,2,0,P|464:87|508:93,1,88.000002685547,0|0,1:2|3:2,0:2:0:0:
476,264,127093,2,0,P|482:220|492:177,1,88.000002685547,0|0,1:2|3:2,0:2:0:0:
398,317,127350,1,0,1:2:0:0:
398,317,127414,1,0,0:2:0:0:
398,317,127478,1,14,0:2:0:0:
175,368,127734,6,0,P|132:359|89:351,1,88.000002685547,2|0,0:2|1:2,0:2:0:0:
243,286,127991,1,2,1:2:0:0:
141,267,128119,2,0,P|97:258|54:250,1,88.000002685547,8|12,0:2|1:2,0:2:0:0:
211,193,128375,2,0,P|250:117|222:36,1,176.000005371094,0|12,1:2|0:2,0:2:0:0:
144,115,128888,5,0,1:2:0:0:
144,115,128952,1,0,1:2:0:0:
144,115,129016,1,14,0:1:0:0:
52,61,129145,1,0,3:2:0:0:
135,0,129273,1,14,0:1:0:0:
223,36,129401,1,8,0:2:0:0:
138,4,129529,1,10,0:1:0:0:
56,65,129657,1,8,0:2:0:0:
211,194,129786,5,8,0:2:0:0:
310,220,129914,2,0,B|355:220|392:230|392:230|425:205|477:187,2,176.000005371094,8|10|4,0:3|0:2|1:3,0:2:0:0:
370,109,130555,6,0,B|365:66|365:66|335:32,1,88.000002685547,10|6,0:2|0:3,0:2:0:0:
310,221,130811,1,10,0:2:0:0:
237,293,130939,1,8,0:2:0:0:
147,270,131068,1,10,0:2:0:0:
123,180,131196,1,8,0:1:0:0:
246,54,131324,1,6,1:1:0:0:
256,65,132478,5,0,1:2:0:0:
256,65,132542,1,0,1:2:0:0:
256,65,132606,1,12,0:2:0:0:
220,205,132734,1,0,1:2:0:0:
259,68,132862,1,6,1:2:0:0:
220,205,132991,2,0,P|177:193|134:185,1,88.000002685547,0|0,1:2|0:2,0:2:0:0:
240,380,133247,1,0,1:2:0:0:
317,323,133375,2,0,P|325:280|337:238,1,88.000002685547,0|0,0:2|1:2,0:2:0:0:
259,68,133632,6,0,B|214:67|214:67|174:49,1,88.000002685547,14|0,0:1|0:2,0:2:0:0:
0,122,133888,2,0,B|45:121|45:121|84:103,1,88.000002685547,0|0,1:2|0:2,0:2:0:0:
220,205,134145,1,0,0:2:0:0:
162,269,134273,1,0,1:2:0:0:
259,68,134401,5,4,1:2:0:0:
343,49,134529,2,0,P|382:69|420:89,1,88.000002685547,0|0,1:2|0:2,0:2:0:0:
438,177,134786,5,0,1:2:0:0:
512,137,134914,1,0,0:2:0:0:
498,50,135042,1,0,1:2:0:0:
438,177,135170,2,0,B|452:225|452:225|450:263|450:263|460:305,1,132.00000402832,14|0,0:1|0:2,0:2:0:0:
460,305,135427,1,0,1:2:0:0:
339,251,135555,1,8,0:2:0:0:
362,384,135683,2,0,P|318:376|274:370,1,88.000002685547,2|0,1:3|0:2,0:2:0:0:
206,257,135939,5,4,1:2:0:0:
146,202,136068,2,0,P|102:209|58:215,1,88.000002685547,0|0,1:2|0:2,0:2:0:0:
263,155,136324,2,0,P|306:162|350:168,1,88.000002685547,0|0,1:2|0:2,0:2:0:0:
127,284,136580,1,0,1:2:0:0:
187,129,136709,2,0,P|179:85|189:43,1,88.000002685547,14|0,0:1|0:2,0:2:0:0:
350,168,136965,2,0,P|357:211|347:253,1,88.000002685547,0|0,1:2|0:2,0:2:0:0:
321,81,137221,1,0,1:2:0:0:
406,53,137350,1,8,0:2:0:0:
435,145,137478,5,12,0:2:0:0:
427,232,137606,2,0,B|469:247|469:247|512:242,1,88.000002685547,0|0,1:2|0:2,0:2:0:0:
363,380,137862,1,12,0:2:0:0:
214,344,137990,2,0,B|172:359|172:359|128:354,1,88.000002685547,0|0,0:2|1:2,0:2:0:0:
30,157,138247,2,0,P|114:165|157:238,1,176.000005371094,14|14,0:1|0:1,0:2:0:0:
156,93,138760,5,10,0:1:0:0:
65,242,138888,1,8,0:2:0:0:
156,93,139016,1,6,1:1:0:0:
197,23,139145,2,0,P|233:19|355:6,1,143.999995605469,2|2,0:1|0:1,0:2:0:0:
412,42,139529,2,0,P|422:76|421:112,1,71.9999978027344,0|2,1:2|0:1,0:2:0:0:
198,166,139786,2,0,B|162:177|162:177|128:171,1,71.9999978027344,10|0,0:1|0:2,0:2:0:0:
368,346,140555,5,2,1:1:0:0:
425,280,140683,2,0,P|418:245|413:209,1,71.9999978027344,2|0,0:1|0:2,0:2:0:0:
297,141,140939,1,2,0:1:0:0:
262,221,141068,1,0,1:2:0:0:
156,85,141196,1,2,1:1:0:0:
128,171,141324,2,0,B|162:177|162:177|198:166,1,71.9999978027344,10|0,0:1|0:2,0:2:0:0:
198,166,142093,5,2,1:1:0:0:
176,258,142221,2,0,P|182:293|187:329,1,71.9999978027344,2|0,0:1|0:2,0:2:0:0:
49,191,142478,2,0,P|55:226|60:262,1,71.9999978027344,2|0,0:1|1:2,0:2:0:0:
35,347,142734,1,2,0:1:0:0:
201,170,142862,2,0,B|207:135|207:135|195:100,1,71.9999978027344,10|0,0:1|0:2,0:2:0:0:
201,170,143632,5,2,1:1:0:0:
279,244,143760,1,2,0:1:0:0:
279,244,144016,2,0,P|313:232|347:223,1,71.9999978027344,2|0,0:1|1:2,0:2:0:0:
204,174,144273,1,2,1:1:0:0:
128,171,144401,2,0,B|93:164|93:164|58:176,1,71.9999978027344,10|0,0:1|0:2,0:2:0:0:
380,301,144786,5,0,0:2:0:0:
383,305,144914,1,2,3:2:0:0:
386,309,145042,1,8,0:2:0:0:
348,223,145170,1,6,1:1:0:0:
420,175,145298,2,0,P|454:184|489:192,1,71.9999978027344,2|0,0:1|0:2,0:2:0:0:
363,80,145555,2,0,P|397:89|432:97,1,71.9999978027344,2|0,0:1|1:2,0:2:0:0:
286,113,145811,1,2,0:1:0:0:
136,243,145939,2,0,B|142:209|142:209|131:174,1,71.9999978027344,10|0,0:1|0:2,0:2:0:0:
131,174,146709,5,2,1:1:0:0:
182,316,146837,2,0,P|218:318|254:321,1,71.9999978027344,2|0,0:1|0:2,0:2:0:0:
75,292,147093,1,2,0:1:0:0:
136,243,147221,1,0,1:2:0:0:
67,217,147350,1,0,1:2:0:0:
158,102,147478,2,0,B|123:95|123:95|88:107,1,71.9999978027344,10|0,0:1|0:2,0:2:0:0:
158,102,148247,5,2,1:1:0:0:
269,196,148375,2,0,B|303:202|303:202|338:190,1,71.9999978027344,2|0,0:1|0:2,0:2:0:0:
290,93,148632,2,0,L|280:21,1,71.9999978027344,2|0,0:1|1:2,0:2:0:0:
339,191,148888,1,0,0:2:0:0:
394,108,149016,2,0,L|384:36,1,71.9999978027344,10|0,0:1|0:2,0:2:0:0:
422,245,149273,2,0,P|457:239|493:235,1,71.9999978027344,0|0,3:2|0:2,0:2:0:0:
353,313,149529,2,0,P|358:348|362:384,1,71.9999978027344,2|0,3:3|3:2,0:2:0:0:
269,268,149786,5,2,1:2:0:0:
200,224,149957,1,6,0:3:0:0:
200,224,150042,1,10,1:3:0:0:
79,313,150213,1,2,1:2:0:0:
144,363,150298,2,0,P|190:352|238:346,1,95.9999970703126,12|8,0:2|0:2,0:2:0:0:
272,271,150555,2,0,P|282:236|279:201,1,71.9999978027344,6|8,1:2|3:3,0:2:0:0:
9,276,150811,2,0,P|-1:310|1:345,1,71.9999978027344,2|8,3:2|3:2,0:2:0:0:
44,203,151068,5,2,1:2:0:0:
77,162,151153,1,8,0:3:0:0:
84,110,151239,1,4,0:3:0:0:
64,61,151324,1,6,1:1:0:0:
223,145,151452,6,0,P|217:110|212:74,1,71.9999978027344,2|0,0:1|0:2,0:2:0:0:
279,201,151709,1,2,0:1:0:0:
343,145,151837,2,0,P|330:99|334:51,1,95.9999970703126,0|0,1:2|0:2,0:2:0:0:
473,301,152093,2,0,P|421:252|351:251,2,143.999995605469,10|0|2,0:2|3:2|3:3,0:2:0:0:
268,293,152862,5,2,1:1:0:0:
197,241,152991,2,0,P|161:249|126:257,1,71.9999978027344,2|0,0:1|0:2,0:2:0:0:
48,282,153247,2,0,B|45:321|45:321|62:348,1,71.9999978027344,2|0,0:1|1:2,0:2:0:0:
137,168,153504,1,2,1:1:0:0:
26,99,153632,1,10,0:2:0:0:
29,103,153888,1,2,3:2:0:0:
32,107,154145,1,2,3:3:0:0:
140,172,154401,5,2,1:1:0:0:
227,158,154529,2,0,P|216:123|191:98,1,71.9999978027344,2|0,0:1|0:2,0:2:0:0:
304,200,154786,2,0,P|311:165|307:129,1,71.9999978027344,2|0,0:1|1:2,0:2:0:0:
228,246,155042,1,2,0:1:0:0:
310,288,155170,2,0,P|372:258|392:191,2,143.999995605469,10|0|2,0:2|3:2|3:3,0:2:0:0:
121,353,155939,5,2,1:1:0:0:
150,273,156068,2,0,P|136:239|124:205,1,71.9999978027344,2|0,0:1|0:2,0:2:0:0:
160,104,156324,2,0,P|126:117|92:129,1,71.9999978027344,2|0,0:1|1:2,0:2:0:0:
304,200,156580,1,2,1:1:0:0:
346,126,156709,2,0,B|343:92|343:92|321:60,2,71.9999978027344,10|8|2,0:1|0:2|3:2,0:2:0:0:
304,200,157221,5,2,3:2:0:0:
218,187,157350,1,8,0:2:0:0:
346,126,157478,1,6,1:1:0:0:
414,183,157606,2,0,P|408:218|402:253,1,71.9999978027344,2|0,0:1|0:2,0:2:0:0:
325,298,157862,1,2,0:1:0:0:
479,288,157991,2,0,P|487:234|498:181,1,107.999996704102,0|0,1:2|0:2,0:2:0:0:
458,115,158247,2,0,B|428:97|428:97|406:66,1,71.9999978027344,10|0,0:2|0:2,0:2:0:0:
407,67,158760,1,2,3:3:0:0:
244,267,159016,5,6,1:1:0:0:
218,187,159145,2,0,P|208:152|197:117,1,71.9999978027344,2|0,0:1|0:2,0:2:0:0:
174,38,159401,1,2,0:1:0:0:
112,98,159529,1,0,1:2:0:0:
115,102,159657,1,2,1:1:0:0:
327,37,159786,2,0,P|292:46|257:57,1,71.9999978027344,10|0,0:2|0:2,0:2:0:0:
217,186,160042,2,0,P|183:177|147:171,1,71.9999978027344,2|0,3:2|0:2,0:2:0:0:
298,203,160298,2,0,P|332:193|368:187,1,71.9999978027344,2|0,3:3|3:2,0:2:0:0:
233,384,160555,5,6,1:1:0:0:
233,384,160811,1,0,0:2:0:0:
323,364,160939,2,0,P|315:328|312:292,1,71.9999978027344,2|0,0:1|1:2,0:2:0:0:
169,246,161196,1,2,0:1:0:0:
157,328,161324,2,0,P|89:340|25:305,2,143.999995605469,10|2|2,0:1|3:1|3:1,0:2:0:0:
320,127,162093,5,6,1:1:0:0:
256,75,162221,1,2,0:1:0:0:
256,75,162478,1,2,1:1:0:0:
398,23,162606,1,8,0:2:0:0:
392,101,162734,1,2,1:1:0:0:
277,0,162862,1,10,0:1:0:0:
277,0,163119,5,12,3:2:0:0:
123,66,163247,1,8,3:2:0:0:
250,157,163375,1,8,3:2:0:0:
253,161,163504,1,8,0:1:0:0:
334,202,163632,6,0,P|411:181|489:165,1,160,6|2,1:1|0:3,0:2:0:0:
363,279,164016,1,10,0:0:0:0:
283,266,164145,1,2,3:2:0:0:
363,279,164401,2,0,P|401:269|440:258,1,80,14|0,0:2|0:2,0:2:0:0:
260,350,164657,2,0,P|201:302|204:225,1,160,8|0,0:3|1:2,0:2:0:0:
0,93,165170,6,0,P|20:170|36:248,1,160,0|2,1:2|0:3,0:2:0:0:
99,308,165554,1,0,0:2:0:0:
119,222,165683,1,0,3:2:0:0:
36,249,165811,1,0,1:2:0:0:
111,315,165939,2,0,P|120:276|131:237,1,80,14|0,0:2|0:2,0:2:0:0:
154,151,166196,2,0,P|115:141|76:130,1,80,2|2,3:2|0:2,0:2:0:0:
246,149,166452,1,0,1:2:0:0:
195,69,166580,1,8,0:2:0:0:
438,43,166709,6,0,P|362:23|295:63,1,160,6|2,1:1|0:3,0:2:0:0:
375,115,167093,1,10,0:0:0:0:
333,204,167221,1,2,3:2:0:0:
246,149,167350,1,0,1:0:0:0:
375,115,167478,2,0,P|412:128|451:139,1,80,14|0,0:2|0:2,0:2:0:0:
232,252,167734,2,0,P|118:252|59:350,1,240,2|0,0:2|0:2,0:2:0:0:
166,337,168247,5,0,1:2:0:0:
78,170,168375,2,0,P|60:134|41:98,1,80,0|2,0:2|0:3,0:2:0:0:
77,9,168632,1,0,0:2:0:0:
156,57,168760,1,0,3:2:0:0:
80,13,168888,1,0,1:2:0:0:
160,60,169016,2,0,B|236:51|236:51|319:5,1,160,14|2,0:2|3:2,0:2:0:0:
398,35,169401,5,2,0:2:0:0:
437,120,169529,1,0,1:2:0:0:
369,193,169657,1,8,0:2:0:0:
285,157,169786,1,6,1:1:0:0:
285,157,170042,1,2,0:3:0:0:
243,237,170170,2,0,P|205:250|167:264,1,80,10|2,0:0|3:2,0:2:0:0:
90,223,170427,1,0,1:0:0:0:
73,378,170555,6,0,P|65:338|46:304,1,80,14|0,0:2|0:2,0:2:0:0:
133,91,170811,2,0,P|140:130|159:164,1,80,8|0,0:3|0:2,0:2:0:0:
231,95,171068,2,0,P|223:55|204:21,1,80,0|0,1:2|0:2,0:2:0:0:
352,118,171324,2,0,B|389:126|389:126|410:145|410:145|454:143|500:166,1,160,0|2,1:2|0:3,0:2:0:0:
433,256,171709,1,0,0:2:0:0:
347,199,171837,1,0,3:2:0:0:
436,260,171965,1,0,1:2:0:0:
500,165,172093,2,0,P|481:88|470:9,1,160,14|2,0:2|3:2,0:2:0:0:
341,305,172606,5,0,1:2:0:0:
344,309,172734,1,8,0:2:0:0:
257,253,172862,2,0,P|183:227|112:259,1,160,6|2,1:1|0:3,0:2:0:0:
66,333,173247,1,10,0:0:0:0:
150,343,173375,1,2,3:2:0:0:
113,260,173504,1,0,1:0:0:0:
26,255,173632,1,14,0:2:0:0:
77,173,173760,2,0,P|113:155|149:139,1,80,0|0,1:2|3:3,0:2:0:0:
223,103,174145,6,0,P|205:66|189:30,1,80,2|0,1:2|0:2,0:2:0:0:
304,173,174401,2,0,P|307:133|311:93,1,80,0|0,1:2|0:2,0:2:0:0:
347,283,174657,2,0,P|369:250|392:217,1,80,2|0,0:3|0:2,0:2:0:0:
236,254,174914,1,0,3:2:0:0:
239,258,175042,1,0,1:2:0:0:
474,274,175170,2,0,P|484:196|440:130,1,160,14|10,0:2|3:2,0:2:0:0:
275,371,175555,5,10,0:2:0:0:
347,283,175683,1,10,1:2:0:0:
304,173,175811,1,8,1:3:0:0:
239,258,175939,1,6,1:1:0:0:
239,258,176324,1,10,0:0:0:0:
153,195,176452,2,0,P|113:204|74:212,1,80,2|0,3:2|1:0,0:2:0:0:
217,109,176709,2,0,B|180:101|180:101|159:82|159:82|115:84|68:60,1,160,14|8,0:2|0:3,0:2:0:0:
221,17,177093,5,4,0:3:0:0:
297,65,177221,1,0,1:2:0:0:
298,157,177350,1,0,0:2:0:0:
372,110,177478,2,0,P|444:77|515:113,1,160,0|2,1:2|0:3,0:2:0:0:
370,215,177862,2,0,P|340:239|301:247,1,80,0|0,0:2|3:2,0:2:0:0:
442,163,178119,1,0,1:2:0:0:
316,331,178247,2,0,P|276:330|242:310,1,80,14|0,0:2|0:2,0:2:0:0:
512,328,178504,2,0,B|479:339|454:339|454:339|417:368|417:368|394:370|366:384,1,160,2|0,3:2|1:2,0:2:0:0:
212,230,178888,5,8,0:2:0:0:
272,167,179016,1,6,1:1:0:0:
272,167,179401,1,10,0:0:0:0:
226,95,179529,2,0,P|186:90|146:83,1,80,2|0,3:2|1:0,0:2:0:0:
124,220,179786,6,0,B|126:264|126:264|148:292,1,80,14|0,0:2|0:2,0:2:0:0:
271,28,180042,2,0,B|231:7|231:7|195:13,1,80,8|4,0:3|0:3,0:2:0:0:
361,236,180298,2,0,B|398:212|398:212|411:178,1,80,0|0,1:2|0:2,0:2:0:0:
272,167,180555,2,0,P|280:246|288:326,1,160,0|2,1:2|0:3,0:2:0:0:
149,292,180939,2,0,P|153:331|157:371,1,80,0|0,0:2|3:2,0:2:0:0:
218,309,181196,1,0,1:2:0:0:
21,349,181324,2,0,B|48:357|78:356|78:356|117:379|117:379|145:378|174:384,1,160,14|2,0:1|3:2,0:2:0:0:
37,207,181837,5,0,1:2:0:0:
40,211,181965,1,8,0:2:0:0:
88,139,182093,2,0,P|78:101|69:62,1,80,6|0,1:1|0:2,0:2:0:0:
165,184,182478,1,10,0:0:0:0:
207,111,182606,2,0,P|196:72|187:33,1,80,2|0,3:2|1:0,0:2:0:0:
479,113,182862,6,0,P|402:122|365:189,1,160,14|8,0:1|0:3,0:2:0:0:
420,259,183247,1,4,0:3:0:0:
348,314,183375,1,0,1:2:0:0:
293,243,183504,1,0,0:2:0:0:
224,375,183632,6,0,P|184:380|144:383,1,80,0|0,1:2|0:2,0:2:0:0:
213,251,183888,2,0,P|252:245|292:242,1,80,2|0,0:3|0:2,0:2:0:0:
131,257,184145,2,0,P|125:217|122:177,1,80,0|0,3:2|1:2,0:2:0:0:
371,31,184401,2,0,P|446:42|478:112,2,160,14|2|0,0:1|0:2|1:2,0:2:0:0:
308,83,185042,1,8,0:2:0:0:
365,146,185170,1,4,1:2:0:0:
292,242,185427,5,8,1:2:0:0:
250,26,185683,1,8,1:2:0:0:
214,305,185939,5,8,1:3:0:0:
280,160,186196,1,4,1:3:0:0:
62,298,186452,5,4,1:3:0:0:
137,262,186580,1,4,1:3:0:0:
88,21,186709,5,10,1:1:0:0:
123,96,186837,2,0,P|99:126|88:165,1,80,8|4,0:1|1:3,0:2:0:0:
19,219,187029,1,0,1:3:0:0:
19,219,187093,1,8,1:2:0:0:
314,80,187221,1,8,1:2:0:0:
255,145,187350,2,0,L|178:167,1,80,4|10,1:3|1:1,0:2:0:0:
281,357,187606,5,8,1:1:0:0:
459,295,187734,1,8,1:3:0:0:
459,295,187799,1,4,1:3:0:0:
459,295,187863,1,2,1:3:0:0:
418,216,187991,5,4,1:3:0:0:
402,187,188076,5,4,1:3:0:0:
450,215,188162,5,4,1:3:0:0:
402,245,188247,5,6,1:1:0:0:
291,83,190555,6,0,P|317:105|325:143,1,40,2|0,0:3|3:2,0:0:0:0:
191,206,190811,6,0,P|176:172|180:140,1,55.9999982910157,0|0,3:2|0:0,0:0:0:0:
355,25,191068,6,0,P|388:57|397:111,1,71.9999978027344,2|2,1:3|3:3,0:0:0:0:
137,63,191324,5,6,1:1:0:0:
253,167,191452,2,0,P|270:223|263:279,1,88.000002685547,4|2,1:2|0:2,0:0:0:0:
29,293,191709,2,0,P|80:297|141:318,1,88.000002685547,0|2,1:2|0:2,0:0:0:0:
250,336,191965,1,0,1:2:0:0:
250,336,192029,1,0,1:2:0:0:
250,336,192093,6,0,P|271:264|247:173,1,132.00000402832,14|0,0:2|0:0,0:0:0:0:
188,137,192350,2,0,P|131:128|88:125,1,88.000002685547,2|0,1:1|0:0,0:0:0:0:
33,199,192606,1,0,1:2:0:0:
70,44,192734,1,10,0:2:0:0:
188,137,192862,5,2,1:1:0:0:
335,187,192991,2,0,P|401:189|474:126,1,132.00000402832,4|0,1:3|0:0,0:0:0:0:
491,86,193247,2,0,L|477:-5,1,88.000002685547,4|2,1:3|0:1,0:0:0:0:
403,264,193504,1,0,1:2:0:0:
403,264,193568,1,0,1:2:0:0:
403,264,193632,2,0,L|417:355,1,88.000002685547,12|0,0:2|0:0,0:0:0:0:
335,187,193888,1,0,1:2:0:0:
408,118,194016,2,0,L|394:27,1,88.000002685547,14|2,0:2|1:3,0:0:0:0:
335,187,194273,1,2,0:2:0:0:
491,86,194401,5,2,1:1:0:0:
314,40,194529,2,0,P|264:47|217:57,1,88.000002685547,0|2,1:2|0:2,0:0:0:0:
214,266,194786,2,0,P|233:218|221:160,1,88.000002685547,0|2,1:2|0:2,0:0:0:0:
101,75,195042,1,0,1:2:0:0:
92,73,195106,1,0,1:2:0:0:
83,72,195170,2,0,P|50:113|70:205,1,132.00000402832,14|0,0:2|0:0,0:0:0:0:
126,274,195427,2,0,L|213:265,1,88.000002685547,2|0,1:1|0:0,0:0:0:0:
400,251,195683,1,0,1:2:0:0:
213,265,195811,1,10,0:2:0:0:
354,342,195939,5,2,1:1:0:0:
266,181,196068,2,0,P|256:127|286:58,1,132.00000402832,4|0,1:3|0:0,0:0:0:0:
355,37,196324,2,0,L|472:24,1,88.000002685547,4|2,1:3|0:1,0:0:0:0:
338,131,196580,1,0,1:2:0:0:
176,130,196709,2,0,L|59:143,1,88.000002685547,12|0,0:1|0:0,0:0:0:0:
165,42,196965,1,8,1:2:0:0:
253,229,197093,1,2,0:2:0:0:
290,106,197221,2,0,L|307:16,1,88.000002685547,14|2,0:2|0:2,0:0:0:0:
176,130,197478,5,6,1:1:0:0:
333,224,197606,2,0,L|469:210,1,132.00000402832,4|0,1:2|0:0,0:0:0:0:
495,139,197862,2,0,P|501:90|474:41,1,88.000002685547,0|2,1:2|0:2,0:0:0:0:
290,106,198119,1,0,1:2:0:0:
277,108,198183,1,0,1:2:0:0:
264,110,198247,2,0,L|128:124,1,132.00000402832,14|0,0:2|0:0,0:0:0:0:
56,131,198504,2,0,B|43:179|43:179|68:233,1,88.000002685547,2|0,1:2|0:0,0:0:0:0:
228,260,198760,1,0,1:2:0:0:
59,328,198888,1,10,0:2:0:0:
151,192,199016,5,2,1:1:0:0:
313,315,199145,2,0,B|329:250|329:250|301:184,1,132.00000402832,4|0,1:3|0:0,0:0:0:0:
264,110,199401,2,0,L|162:100,1,88.000002685547,4|2,1:3|0:1,0:0:0:0:
37,36,199657,1,0,1:2:0:0:
37,36,199721,1,0,1:2:0:0:
37,36,199786,6,0,P|71:84|56:172,1,132.00000402832,14|0,0:2|0:0,0:0:0:0:
16,211,200042,1,2,1:2:0:0:
176,101,200170,1,12,0:2:0:0:
37,36,200298,1,2,1:3:0:0:
37,36,200555,5,2,1:1:0:0:
199,196,200683,2,0,P|209:248|216:314,1,88.000002685547,0|0,1:2|0:0,0:0:0:0:
32,331,200939,2,0,P|22:279|15:213,1,88.000002685547,0|0,1:2|0:0,0:0:0:0:
109,114,201196,5,0,1:2:0:0:
121,111,201260,1,0,1:2:0:0:
133,108,201324,2,0,L|287:123,1,132.00000402832,14|0,0:2|0:0,0:0:0:0:
348,130,201580,2,0,L|435:138,1,88.000002685547,0|0,1:2|0:0,0:0:0:0:
370,51,201837,1,0,1:2:0:0:
326,209,201965,1,2,0:2:0:0:
507,145,202093,5,6,1:1:0:0:
370,51,202221,1,0,3:2:0:0:
433,214,202350,1,8,0:1:0:0:
428,248,202414,1,8,0:1:0:0:
424,283,202478,1,8,0:1:0:0:
420,318,202542,1,0,1:2:0:0:
415,352,202606,1,10,0:1:0:0:
326,209,202734,1,8,0:1:0:0:
507,145,202862,1,8,0:3:0:0:
349,283,202991,5,8,0:3:0:0:
317,298,203055,1,0,1:0:0:0:
282,301,203119,1,2,1:1:0:0:
249,290,203183,1,0,1:0:0:0:
220,269,203247,1,4,0:3:0:0:
186,259,203311,1,0,1:0:0:0:
151,261,203375,1,6,1:1:0:0:
122,282,203440,1,0,1:0:0:0:
94,304,203504,1,4,0:3:0:0:
59,307,203568,1,0,1:0:0:0:
26,296,203632,6,0,B|18:246|18:246|31:182,1,88.000002685547,6|4,1:1|1:2,0:0:0:0:
118,37,203888,1,2,0:2:0:0:
211,105,204016,2,0,B|219:155|219:155|206:219,1,88.000002685547,0|2,1:2|0:2,0:0:0:0:
80,124,204273,1,0,1:2:0:0:
80,124,204337,1,0,1:2:0:0:
80,124,204401,2,0,L|211:105,1,132.00000402832,14|0,0:2|0:0,0:0:0:0:
296,86,204657,2,0,L|382:72,1,88.000002685547,2|0,1:1|0:0,0:0:0:0:
472,58,204914,1,0,1:2:0:0:
380,241,205042,1,10,0:2:0:0:
296,86,205170,5,2,1:1:0:0:
424,151,205298,2,0,P|467:187|466:292,1,132.00000402832,4|0,1:3|0:0,0:0:0:0:
433,339,205555,2,0,P|383:328|319:318,1,88.000002685547,4|2,1:3|0:1,0:0:0:0:
131,279,205811,1,0,1:2:0:0:
131,279,205875,1,0,1:2:0:0:
131,279,205939,6,0,P|181:268|245:258,1,88.000002685547,12|0,0:2|0:0,0:0:0:0:
380,241,206196,1,0,1:2:0:0:
254,337,206324,1,14,0:2:0:0:
313,168,206452,1,2,1:3:0:0:
346,321,206580,1,2,0:2:0:0:
221,184,206709,5,2,1:1:0:0:
131,279,206837,2,0,P|82:294|1:256,1,132.00000402832,0|0,1:2|0:0,0:0:0:0:
16,186,207093,2,0,L|42:78,1,88.000002685547,0|2,1:2|0:2,0:0:0:0:
146,34,207350,1,0,1:2:0:0:
221,184,207478,2,0,L|195:292,1,88.000002685547,14|0,0:2|0:0,0:0:0:0:
181,109,207734,2,0,P|244:99|297:142,1,132.00000402832,2|0,1:1|0:0,0:0:0:0:
298,226,207991,1,0,1:2:0:0:
120,185,208119,1,10,0:2:0:0:
295,138,208247,5,2,1:1:0:0:
200,269,208375,2,0,P|250:308|314:298,1,132.00000402832,4|0,1:3|0:0,0:0:0:0:
386,267,208632,2,0,L|478:257,1,88.000002685547,4|2,1:3|0:1,0:0:0:0:
505,90,208888,1,0,1:2:0:0:
505,90,208952,1,0,1:2:0:0:
505,90,209016,2,0,L|413:100,1,88.000002685547,12|0,0:1|0:0,0:0:0:0:
369,191,209273,1,8,1:2:0:0:
317,39,209401,1,2,0:2:0:0:
207,147,209529,2,0,L|299:137,1,88.000002685547,14|2,0:2|0:2,0:0:0:0:
417,99,209786,5,6,1:1:0:0:
294,137,209914,2,0,L|156:154,1,132.00000402832,4|0,1:2|0:0,0:0:0:0:
75,192,210170,2,0,P|41:163|26:111,1,88.000002685547,0|2,1:2|0:2,0:0:0:0:
151,4,210427,1,0,1:2:0:0:
151,4,210491,1,0,1:2:0:0:
151,4,210555,2,0,P|175:41|175:95,1,88.000002685547,14|0,0:2|0:0,0:0:0:0:
52,272,210811,2,0,P|53:227|84:182,1,88.000002685547,2|0,1:2|0:0,0:0:0:0:
237,238,211068,1,0,1:2:0:0:
75,192,211196,1,10,0:2:0:0:
178,83,211324,5,2,1:1:0:0:
155,252,211452,2,0,P|186:311|261:320,1,132.00000402832,4|0,1:3|0:0,0:0:0:0:
317,281,211709,2,0,L|342:168,1,88.000002685547,4|2,1:3|0:1,0:0:0:0:
373,34,211965,1,0,1:2:0:0:
373,34,212029,1,0,1:2:0:0:
373,34,212093,2,0,L|348:147,1,88.000002685547,14|0,0:2|0:0,0:0:0:0:
270,69,212350,1,2,1:2:0:0:
424,186,212478,1,12,0:2:0:0:
243,227,212606,1,2,1:3:0:0:
243,227,212862,5,2,1:1:0:0:
424,186,212991,2,0,P|448:243|426:324,1,132.00000402832,0|0,1:2|0:0,0:0:0:0:
355,343,213247,2,0,L|255:323,1,88.000002685547,0|0,1:2|0:0,0:0:0:0:
60,190,213504,1,0,1:2:0:0:
60,190,213568,1,0,1:2:0:0:
60,190,213632,2,0,L|146:207,1,88.000002685547,14|0,0:2|0:0,0:0:0:0:
243,227,213888,5,8,0:2:0:0:
111,344,214016,1,8,0:2:0:0:
111,344,214145,1,10,0:2:0:0:
60,190,214273,1,10,0:2:0:0:
243,227,214401,6,0,L|285:212,2,44.0000013427735,14|0|12,1:1|3:0|3:2,0:0:0:0:
69,277,214657,1,6,1:3:0:0:
50,282,214721,1,0,1:2:0:0:
34,287,214786,1,8,0:1:0:0:
161,146,214914,1,14,0:1:0:0:
216,326,215042,1,0,1:2:0:0:
216,326,215106,1,0,1:2:0:0:
216,326,215170,6,0,B|269:342|269:342|327:298|294:231,1,162.000000617981,10|0,0:1|0:0,0:0:0:0:
246,68,215427,2,0,B|193:52|193:52|135:96|168:163,1,162.000000617981,2|0,1:1|0:0,0:0:0:0:
249,172,215683,1,8,1:1:0:0:
342,159,215811,1,8,0:2:0:0:
435,146,215939,5,6,1:2:0:0:
435,146,216068,2,0,P|451:84|416:17,1,132.00000402832,0|0,1:2|0:0,0:0:0:0:
332,81,216324,2,0,P|288:77|245:67,1,88.000002685547,0|0,1:2|3:2,0:0:0:0:
81,29,216580,1,0,1:2:0:0:
93,33,216645,1,0,1:2:0:0:
105,37,216709,2,0,P|135:91|112:167,1,132.00000402832,14|0,0:2|0:0,0:0:0:0:
50,202,216965,1,2,0:2:0:0:
192,236,217093,2,0,P|235:232|278:222,1,88.000002685547,2|2,1:2|3:2,0:0:0:0:
332,81,217350,1,0,1:2:0:0:
402,249,217478,5,0,1:2:0:0:
472,152,217606,2,0,P|398:145|330:184,1,132.00000402832,0|0,1:2|0:0,0:0:0:0:
278,222,217862,2,0,L|270:327,1,88.000002685547,0|2,1:2|3:3,0:0:0:0:
470,178,218119,1,0,1:2:0:0:
471,165,218183,1,0,1:2:0:0:
472,152,218247,6,0,L|480:47,1,88.000002685547,14|0,0:2|0:0,0:0:0:0:
330,20,218504,1,2,1:2:0:0:
463,72,218632,1,8,0:2:0:0:
314,159,218760,2,0,L|220:149,1,88.000002685547,2|0,1:3|0:0,0:0:0:0:
41,131,219016,5,4,1:2:0:0:
100,57,219145,2,0,P|139:108|113:194,1,132.00000402832,0|0,1:2|0:0,0:0:0:0:
87,239,219401,2,0,L|-7:229,1,88.000002685547,0|0,1:2|3:2,0:0:0:0:
202,246,219657,1,0,1:2:0:0:
202,246,219721,1,0,3:0:0:0:
202,246,219786,6,0,P|208:291|212:336,1,88.000002685547,14|0,0:2|0:0,0:0:0:0:
211,333,220170,2,0,L|117:323,1,88.000002685547,0|2,1:2|1:2,0:0:0:0:
297,190,220427,1,8,0:2:0:0:
490,304,220555,1,12,1:2:0:0:
392,357,220683,2,0,P|383:302|400:198,1,132.00000402832,0|0,1:2|0:0,0:0:0:0:
414,149,220939,2,0,L|510:123,1,88.000002685547,12|0,0:2|3:2,0:0:0:0:
310,246,221196,1,0,1:2:0:0:
310,246,221260,1,0,1:2:0:0:
310,246,221324,2,0,P|241:237|161:234,1,132.00000402832,14|0,0:1|0:0,0:0:0:0:
99,228,221580,1,14,0:1:0:0:
221,140,221709,1,8,0:2:0:0:
169,337,221837,1,10,0:1:0:0:
169,337,222093,5,8,0:2:0:0:
221,140,222221,1,8,0:3:0:0:
99,228,222350,1,4,1:3:0:0:
85,225,222414,1,0,1:2:0:0:
71,224,222478,6,0,B|16:215|16:215|-16:150|42:104,1,162.000000617981,10|0,0:2|0:0,0:0:0:0:
150,29,222734,1,4,1:3:0:0:
164,32,222798,1,4,1:3:0:0:
178,33,222862,2,0,B|232:41|232:41|265:106|206:152,1,162.000000617981,10|2,0:2|0:3,0:0:0:0:
99,228,223119,5,10,0:2:0:0:
316,163,223247,1,8,0:2:0:0:
125,117,223375,1,10,0:2:0:0:
289,273,223503,1,8,0:1:0:0:
233,85,223632,1,6,1:1:0:0:
233,85,224401,6,0,L|216:175,1,80,2|0,0:2|0:0,0:0:0:0:
181,305,224786,5,0,1:2:0:0:
181,305,224850,1,0,1:2:0:0:
181,305,224914,1,14,0:2:0:0:
218,163,225042,5,0,1:2:0:0:
305,344,225170,5,6,1:2:0:0:
368,245,225298,2,0,P|310:231|242:264,1,132.00000402832,0|8,1:2|0:2,0:0:0:0:
181,305,225555,2,0,L|68:295,1,88.000002685547,0|0,1:2|1:2,0:0:0:0:
19,143,225811,1,0,1:2:0:0:
19,143,225875,1,0,1:2:0:0:
19,143,225939,5,12,0:2:0:0:
100,210,226068,2,0,P|126:154|89:73,1,132.00000402832,8|0,0:3|0:0,0:0:0:0:
37,40,226324,1,4,0:3:0:0:
19,143,226452,1,0,1:2:0:0:
207,83,226580,1,8,0:2:0:0:
37,40,226709,5,0,1:2:0:0:
199,181,226837,2,0,L|353:163,1,132.00000402832,0|0,1:2|0:0,0:0:0:0:
413,153,227093,2,0,L|500:142,1,88.000002685547,0|2,1:2|3:3,0:0:0:0:
326,49,227350,1,0,1:2:0:0:
326,49,227414,1,0,1:2:0:0:
326,49,227478,6,0,B|264:76|209:43|209:43|218:79|192:102,1,162.000000617981,14|0,0:2|0:0,0:0:0:0:
196,256,227734,2,0,B|249:272|249:272|307:228|274:161,1,162.000000617981,14|0,0:2|0:0,0:0:0:0:
122,158,227991,2,0,B|69:142|69:142|11:186|44:253,1,162.000000617981,14|0,0:1|0:0,0:0:0:0:
129,367,228247,5,0,1:1:0:0:
122,158,228375,2,0,P|60:177|40:249,1,132.00000402832,0|0,1:2|0:0,0:0:0:0:
86,295,228632,2,0,P|139:286|203:279,1,88.000002685547,0|2,1:2|0:3,0:0:0:0:
404,251,228888,1,0,1:2:0:0:
404,251,228952,1,2,1:3:0:0:
404,251,229016,2,0,P|358:243|287:235,1,88.000002685547,12|0,0:2|0:0,0:0:0:0:
122,158,229273,5,8,0:2:0:0:
317,237,229401,1,8,0:2:0:0:
172,281,229529,1,8,0:1:0:0:
252,86,229657,1,8,0:1:0:0:
317,237,229786,5,8,0:1:0:0:
317,237,229914,1,8,0:1:0:0:
122,158,230042,2,0,L|58:132,2,44.0000013427735,4|8|8,1:3|1:3|0:2,0:0:0:0:
266,313,230298,1,8,1:2:0:0:
333,141,230427,1,0,1:2:0:0:
333,141,230491,1,4,1:3:0:0:
333,141,230555,6,0,B|348:98|348:98|313:32|228:69,1,162.000000617981,14|0,0:1|0:0,0:0:0:0:
182,233,230811,2,0,B|167:276|167:276|202:342|287:305,1,162.000000617981,14|0,0:2|0:0,0:0:0:0:
257,190,231068,5,14,0:2:0:0:
91,234,231196,1,4,1:3:0:0:
91,234,231260,1,0,3:0:0:0:
91,234,231324,6,0,B|76:300|76:300|186:271,1,162.000000617981,14|0,0:1|0:0,0:0:0:0:
199,97,231580,2,0,B|214:31|214:31|104:60,1,162.000000617981,14|0,0:2|0:0,0:0:0:0:
35,139,231837,1,14,0:2:0:0:
207,196,231965,1,4,1:3:0:0:
207,196,232029,1,0,1:3:0:0:
207,196,232093,6,0,B|266:212|266:212|321:205|357:160,1,162.000000617981,14|0,0:1|0:0,0:0:0:0:
456,20,232350,2,0,B|445:80|445:80|467:123|467:123|451:197,1,162.000000617981,14|0,0:2|0:0,0:0:0:0:
420,339,232606,2,0,L|439:249,1,88.000002685547,14|4,0:2|1:3,0:0:0:0:
455,174,232862,6,0,L|471:106,2,58.6666684570313,10|8|8,0:1|0:2|0:1,0:0:0:0:
324,301,233119,2,0,L|336:358,2,58.6666684570313,2|8|4,1:1|0:3|0:3,0:0:0:0:
233,147,233375,2,0,L|248:78,2,58.6666684570313,2|4|4,1:1|0:3|0:3,0:0:0:0:
101,273,233632,5,6,1:1:0:0:
101,273,234016,2,0,L|195:263,1,71.9999978027344,10|2,0:0|3:2,0:0:0:0:
341,245,234273,1,0,1:0:0:0:
269,330,234401,2,0,P|258:287|272:238,1,71.9999978027344,12|0,0:2|0:0,0:0:0:0:
289,106,234657,2,0,P|300:149|285:203,1,71.9999978027344,8|0,0:3|0:0,0:0:0:0:
167,164,234914,5,0,1:2:0:0:
167,164,235170,2,0,L|15:149,2,143.999995605469,2|2|0,1:1|0:3|3:2,0:0:0:0:
296,175,235811,1,0,1:2:0:0:
425,186,235939,6,0,P|462:254|426:326,1,143.999995605469,12|0,0:2|3:2,0:0:0:0:
296,175,236452,1,0,1:2:0:0:
294,185,236709,6,0,P|273:118|309:58,1,143.999995605469,6|0,1:1|0:3,0:0:0:0:
479,61,237093,2,0,P|431:54|385:48,1,71.9999978027344,8|0,0:0|3:2,0:0:0:0:
227,21,237350,1,0,1:0:0:0:
227,21,237478,2,0,P|178:45|85:25,1,143.999995605469,12|0,0:2|0:2,0:0:0:0:
23,244,237991,1,0,1:2:0:0:
20,253,238247,6,0,L|185:236,2,143.999995605469,2|2|2,1:1|0:3|3:1,0:0:0:0:
46,163,238888,1,0,1:2:0:0:
46,163,239016,6,0,L|211:146,1,143.999995605469,12|2,0:2|3:1,0:0:0:0:
404,122,239529,1,0,1:2:0:0:
363,196,239657,1,8,0:2:0:0:
337,78,239786,6,0,P|388:43|467:73,1,143.999995605469,6|0,1:1|0:3,0:0:0:0:
483,146,240170,2,0,L|472:232,1,71.9999978027344,8|0,0:0|3:2,0:0:0:0:
449,363,240427,1,0,1:0:0:0:
463,290,240555,6,0,P|409:299|376:381,1,143.999995605469,12|8,0:2|0:3,0:0:0:0:
363,196,241068,1,0,1:2:0:0:
363,196,241324,6,0,L|215:182,2,143.999995605469,2|2|0,1:1|0:3|3:2,0:0:0:0:
442,204,241965,1,0,1:2:0:0:
363,196,242093,6,0,P|340:145|387:62,1,143.999995605469,12|0,0:2|3:2,1:0:0:0:
440,203,242606,1,0,1:2:0:0:
374,69,242734,1,8,0:2:0:0:
454,60,242862,6,0,L|441:203,1,143.999995605469,6|0,1:1|0:3,0:0:0:0:
435,282,243247,2,0,L|429:353,1,71.9999978027344,8|0,0:0|3:2,0:0:0:0:
441,203,243504,1,0,1:0:0:0:
367,232,243632,6,0,P|324:245|230:198,1,143.999995605469,12|0,0:2|3:3,0:0:0:0:
299,31,244145,1,0,1:2:0:0:
293,38,244401,6,0,L|147:28,2,143.999995605469,2|2|0,1:1|0:3|3:2,0:0:0:0:
372,46,245042,1,0,1:2:0:0:
430,99,245170,2,0,P|444:147|428:190,1,71.9999978027344,14|0,0:1|0:0,0:0:0:0:
318,296,245427,5,8,3:2:0:0:
290,221,245555,1,8,0:2:0:0:
365,194,245683,1,8,1:2:0:0:
392,268,245811,1,8,1:3:0:0:
318,296,245939,6,0,L|172:286,1,143.999995605469,6|2,1:1|0:3,0:0:0:0:
95,277,246324,1,10,0:0:0:0:
88,288,246580,1,0,1:0:0:0:
168,284,246709,6,0,P|183:232|158:147,1,143.999995605469,14|8,0:2|0:3,0:0:0:0:
158,147,247221,1,0,1:2:0:0:
149,160,247478,6,0,L|298:148,2,143.999995605469,0|2|0,1:2|0:3|3:2,0:0:0:0:
69,168,248119,1,0,1:2:0:0:
17,107,248247,6,0,P|66:89|144:163,1,143.999995605469,14|2,0:2|3:2,0:0:0:0:
97,319,248760,1,0,1:2:0:0:
54,254,248888,1,8,0:2:0:0:
132,248,249016,6,0,L|286:232,1,143.999995605469,6|2,1:1|0:3,0:0:0:0:
427,214,249401,2,0,L|347:221,1,71.9999978027344,10|2,0:0|3:2,0:0:0:0:
327,294,249657,1,0,1:0:0:0:
275,233,249786,6,0,P|258:172|287:93,1,143.999995605469,14|8,0:2|0:3,0:0:0:0:
486,29,250298,1,0,1:2:0:0:
475,37,250555,6,0,L|315:32,1,143.999995605469,0|2,1:2|0:3,0:0:0:0:
252,28,250939,2,0,L|180:26,1,71.9999978027344,0|0,1:0|3:2,0:0:0:0:
22,19,251196,1,0,1:2:0:0:
100,25,251324,6,0,P|122:79|96:163,1,143.999995605469,14|2,0:1|3:2,0:0:0:0:
99,158,251837,1,0,1:2:0:0:
47,98,251965,1,8,0:2:0:0:
195,129,252093,6,0,P|248:127|323:119,1,107.999996704102,4|0,1:2|0:0,0:0:0:0:
431,83,252350,6,0,P|373:65|317:95,1,120,8|0,1:2|0:0,0:0:0:0:
331,188,252606,6,0,P|389:206|448:172,1,132.00000402832,8|0,1:2|0:0,0:0:0:0:
431,83,252862,6,0,P|371:66|301:116,1,143.999995605469,8|0,1:3|0:0,0:0:0:0:
243,209,253119,6,0,B|181:219|181:219|144:247|144:247|82:256,1,162.000000617981,4|0,1:3|0:0,0:0:0:0:
70,182,253375,5,4,1:3:0:0:
70,182,253504,2,0,L|30:144,2,44.0000013427735,4|0|10,1:3|3:0|1:1,0:0:0:0:
228,310,253760,1,8,0:1:0:0:
164,145,253888,1,4,1:3:0:0:
169,128,253952,1,0,1:3:0:0:
173,111,254016,1,8,1:2:0:0:
133,346,254144,1,8,1:2:0:0:
243,209,254273,1,4,1:3:0:0:
259,204,254337,1,4,1:3:0:0:
276,199,254401,1,10,1:1:0:0:
54,282,254529,1,8,1:1:0:0:
228,310,254657,6,0,L|326:286,1,88.000002685547,8|2,1:3|1:3,0:0:0:0:
414,42,254914,2,0,L|316:66,1,88.000002685547,4|4,1:3|1:3,0:0:0:0:
459,266,255170,6,0,L|500:325,2,63.9999980468751,6|0|0,1:1|0:0|0:0,0:0:0:0:
364,240,255427,2,0,L|292:246,2,63.9999980468751,2|0|0,0:3|0:0|0:0,0:0:0:0:
436,175,255683,2,0,L|466:109,2,63.9999980468751,2|0|0,3:2|0:0|0:0,0:0:0:0:
380,316,255939,6,0,L|350:382,2,63.9999980468751,14|0|0,0:2|0:0|0:0,0:0:0:0:
301,136,256196,2,0,L|271:70,2,63.9999980468751,8|0|0,0:3|0:0|0:0,0:0:0:0:
206,304,256452,2,0,L|176:370,2,63.9999980468751,0|0|0,1:2|0:0|0:0,0:0:0:0:
37,215,256709,6,0,L|101:186,1,63.9999980468751,0|0,1:2|0:0,0:0:0:0:
88,103,256880,2,0,L|29:129,1,63.9999980468751,0|2,0:0|0:3,0:0:0:0:
158,161,257051,2,0,L|222:132,1,63.9999980468751
209,49,257221,2,0,L|150:75,1,63.9999980468751,0|0,3:2|0:0,0:0:0:0:
235,268,257392,2,0,L|293:241,1,63.9999980468751,0|14,0:0|0:2,0:0:0:0:
340,75,257563,2,0,L|281:101,1,63.9999980468751
403,320,257734,2,0,L|461:293,1,63.9999980468751,2|0,3:2|0:0,0:0:0:0:
508,127,257905,2,0,L|449:153,1,63.9999980468751,0|0,0:0|1:2,0:0:0:0:
293,241,258076,2,0,L|235:268,1,63.9999980468751
82,325,258247,5,6,1:1:0:0:
72,336,258333,2,0,L|7:327,1,63.9999980468751
268,328,258504,1,2,0:3:0:0:
271,343,258589,2,0,L|336:352,1,63.9999980468751
99,226,258760,5,2,3:2:0:0:
89,237,258845,2,0,L|24:228,1,63.9999980468751
285,229,259017,1,14,0:2:0:0:
288,244,259102,2,0,L|353:253,1,63.9999980468751
116,127,259273,5,2,0:2:0:0:
111,138,259358,2,0,L|46:129,1,63.9999980468751
302,130,259530,1,0,1:2:0:0:
305,145,259615,2,0,L|370:154,1,63.9999980468751
133,28,259786,5,0,1:2:0:0:
123,39,259871,2,0,L|58:30,1,63.9999980468751
319,31,260043,1,2,0:3:0:0:
322,46,260127,2,0,L|387:55,1,63.9999980468751
116,127,260298,5,0,3:2:0:0:
111,138,260383,2,0,L|46:129,1,63.9999980468751
302,130,260555,1,14,0:2:0:0:
305,145,260640,2,0,L|370:154,1,63.9999980468751
99,226,260811,5,2,3:2:0:0:
89,237,260896,2,0,L|24:228,1,63.9999980468751
285,229,261068,1,0,1:2:0:0:
288,244,261153,2,0,L|353:253,1,63.9999980468751
163,294,261324,6,0,L|151:365,2,63.9999980468751,6|0|0,1:1|0:0|0:0,0:0:0:0:
187,111,261580,2,0,L|199:40,2,63.9999980468751,2|0|0,0:3|0:0|0:0,0:0:0:0:
89,237,261837,2,0,L|21:262,2,63.9999980468751,2|0|0,3:2|0:0|0:0,0:0:0:0:
260,167,262093,6,0,L|327:141,2,63.9999980468751,14|0|0,0:2|0:0|0:0,0:0:0:0:
101,146,262350,2,0,L|46:100,2,63.9999980468751,8|0|0,0:3|0:0|0:0,0:0:0:0:
248,258,262606,2,0,L|303:304,2,63.9999980468751,0|0|0,1:2|0:0|0:0,0:0:0:0:
187,111,262862,6,0,L|199:40,2,63.9999980468751,0|0|0,1:2|0:0|0:0,0:0:0:0:
89,237,263119,2,0,L|21:262,2,63.9999980468751,2|0|0,0:3|0:0|0:0,0:0:0:0:
248,258,263375,2,0,L|303:304,2,63.9999980468751,0|0|0,3:2|0:0|0:0,0:0:0:0:
101,145,263632,6,0,L|46:100,2,63.9999980468751,14|0|0,0:2|0:0|0:0,0:0:0:0:
161,293,263889,2,0,L|149:364,2,63.9999980468751,2|0|0,3:2|0:0|0:0,0:0:0:0:
260,166,264145,2,0,L|327:141,2,63.9999980468751,0|0|0,1:2|0:0|0:0,0:0:0:0:
89,237,264401,5,6,1:1:0:0:
46,217,264486,1,0,0:0:0:0:
15,182,264571,1,0,0:0:0:0:
1,138,264657,1,2,0:3:0:0:
5,91,264742,1,0,0:0:0:0:
28,51,264828,1,0,0:0:0:0:
65,22,264913,1,2,3:2:0:0:
110,11,264999,1,0,0:0:0:0:
156,19,265084,1,0,0:0:0:0:
195,44,265170,5,14,0:2:0:0:
221,83,265255,1,0,0:0:0:0:
229,129,265341,1,0,0:0:0:0:
218,175,265426,1,0,3:3:0:0:
189,212,265512,1,0,0:0:0:0:
164,250,265598,1,0,0:0:0:0:
162,297,265683,1,2,1:2:0:0:
184,338,265769,1,0,0:0:0:0:
226,357,265854,1,0,0:0:0:0:
270,351,265939,1,0,1:2:0:0:
314,345,266025,2,0,L|379:336,1,63.9999980468751
498,231,266196,6,0,L|382:253,1,95.9999970703126,2|8,0:3|0:3,0:0:0:0:
241,280,266452,2,0,L|350:262,1,95.9999970703126,0|0,3:2|1:2,0:0:0:0:
454,354,266709,5,14,0:2:0:0:
284,156,266837,1,8,0:3:0:0:
326,379,266965,1,10,3:2:0:0:
412,131,267093,1,10,0:2:0:0:
241,280,267221,1,10,1:2:0:0:
498,230,267350,1,8,1:3:0:0:
284,156,267478,6,0,B|171:117|171:117|186:203,1,162.000000617981,6|0,1:2|0:0,0:0:0:0:
165,293,267734,2,0,B|147:348|147:348|93:383|27:302,1,162.000000617981,4|0,0:2|3:0,0:0:0:0:
66,195,267991,2,0,B|84:140|84:140|138:105|204:186,1,162.000000617981,6|0,3:2|0:0,0:0:0:0:
278,266,268247,6,0,B|338:258|338:258|385:271|385:271|453:262,1,162.000000617981,14|0,0:2|0:0,0:0:0:0:
429,144,268504,2,0,B|369:152|369:152|322:139|322:139|254:148,1,162.000000617981,12|0,0:2|0:0,0:0:0:0:
142,226,268760,2,0,P|104:170|167:67,1,162.000000617981,4|0,1:2|0:0,0:0:0:0:
265,34,269016,6,0,B|313:12|359:38|359:38|407:66|470:37,2,191.999994140625,6|2|0,1:2|0:3|3:2,0:0:0:0:
132,87,269657,1,0,1:2:0:0:
158,240,269786,2,0,L|148:337,1,95.9999970703126,14|0,0:2|0:0,0:0:0:0:
255,129,270042,2,0,L|265:32,1,95.9999970703126,2|2,3:2|0:2,0:0:0:0:
370,195,270298,1,0,1:2:0:0:
132,87,270427,1,8,0:2:0:0:
380,87,270555,6,0,L|475:77,1,95.9999970703126,6|0,1:1|0:0,0:0:0:0:
255,129,270811,1,2,0:3:0:0:
370,195,270939,2,0,L|379:290,1,95.9999970703126,10|2,0:0|3:2,0:0:0:0:
380,87,271196,5,0,1:0:0:0:
256,302,271324,1,14,0:2:0:0:
132,87,271452,1,2,0:0:0:0:
118,83,271516,1,2,0:0:0:0:
104,79,271580,1,8,0:3:0:0:
380,230,271709,5,4,0:3:0:0:
131,230,271837,1,0,1:2:0:0:
256,15,271965,1,2,0:0:0:0:
380,230,272093,6,0,B|445:349|445:349|475:294,2,191.999994140625,0|2|0,1:2|0:3|3:2,0:0:0:0:
380,87,272734,1,0,1:2:0:0:
257,242,272862,6,0,B|196:265|150:233|150:233|107:199|64:229|64:229|18:265|46:328,1,287.999991210938,14|2,0:1|0:2,0:0:0:0:
210,158,273375,1,0,1:2:0:0:
104,287,273504,1,8,0:2:0:0:
40,157,273632,5,6,1:1:0:0:
36,138,273717,1,0,0:0:0:0:
32,119,273803,1,0,0:0:0:0:
14,111,273888,5,2,0:3:0:0:
20,92,273973,1,0,0:0:0:0:
26,74,274059,1,0,0:0:0:0:
17,56,274145,5,2,3:2:0:0:
31,43,274230,1,0,0:0:0:0:
46,30,274316,1,0,0:0:0:0:
49,11,274401,5,14,0:1:0:0:
86,6,274486,1,0,0:0:0:0:
122,19,274571,1,0,0:0:0:0:
149,46,274657,1,8,0:3:0:0:
166,81,274743,1,0,0:0:0:0:
193,107,274829,1,0,0:0:0:0:
229,120,274914,1,0,1:2:0:0:
266,116,274999,1,0,0:0:0:0:
297,94,275085,1,0,0:0:0:0:
321,56,275170,5,0,1:2:0:0:
362,39,275256,1,0,0:0:0:0:
405,46,275341,1,0,0:0:0:0:
442,80,275427,5,2,0:3:0:0:
457,128,275512,1,0,0:0:0:0:
447,178,275598,1,0,0:0:0:0:
414,225,275683,5,0,3:2:0:0:
359,242,275768,1,0,0:0:0:0:
302,227,275854,1,0,0:0:0:0:
252,186,275939,5,14,0:1:0:0:
197,150,276025,1,2,0:2:0:0:
133,151,276110,1,2,0:2:0:0:
75,191,276196,5,2,0:2:0:0:
49,256,276281,1,2,0:2:0:0:
68,324,276367,1,2,0:2:0:0:
127,360,276452,6,0,L|230:343,1,95.9999970703126,0|8,1:2|0:2,0:0:0:0:
468,284,276709,2,0,B|410:320|351:299|351:299|367:328|358:370,1,162.000000617981,4|0,1:2|0:0,0:0:0:0:
266,265,276965,6,0,P|313:211|419:244,1,162.000000617981,8|0,1:2|0:0,0:0:0:0:
352,299,277221,6,0,P|305:353|199:320,1,162.000000617981,8|0,1:2|0:0,0:0:0:0:
178,170,277478,6,0,B|125:154|125:154|67:198|100:265,1,162.000000617981,8|0,1:3|0:0,0:0:0:0:
266,265,277734,6,0,B|319:281|319:281|377:237|344:170,1,162.000000617981,4|0,1:3|0:0,0:0:0:0:
315,33,277991,5,4,1:3:0:0:
178,170,278119,2,0,L|135:214,2,54.0000002059937,4|0|10,1:3|3:0|1:1,0:0:0:0:
358,131,278375,5,8,0:1:0:0:
134,71,278503,1,4,1:3:0:0:
108,64,278567,1,0,1:3:0:0:
82,58,278631,1,8,1:2:0:0:
279,250,278760,5,8,1:2:0:0:
224,53,278888,1,4,1:3:0:0:
216,27,278952,1,4,1:3:0:0:
209,1,279016,1,10,1:1:0:0:
107,225,279145,5,8,1:1:0:0:
317,55,279273,2,0,L|380:2,2,72.0000002746582,8|8|8,1:3|0:3|0:3,0:0:0:0:
134,121,279529,5,4,1:3:0:0:
279,250,279657,1,4,0:3:0:0:
317,55,279786,1,6,1:1:0:0:
317,55,283632,6,0,P|284:64|268:79,1,40,2|0,0:3|3:2,0:0:0:0:
343,238,283888,6,0,P|382:229|409:199,1,55.9999982910157,0|0,3:2|0:0,0:0:0:0:
194,66,284145,6,0,P|177:101|182:142,1,71.9999978027344,2|2,1:3|3:3,0:0:0:0:
422,106,284401,5,6,1:1:0:0:
258,181,284529,2,0,P|240:236|247:277,1,88.000002685547,4|2,1:2|0:2,0:0:0:0:
366,351,284786,2,0,P|428:353|472:336,1,88.000002685547,0|2,1:2|0:2,0:0:0:0:
243,265,285042,1,0,1:2:0:0:
243,265,285106,1,0,1:2:0:0:
243,265,285170,6,0,P|195:271|112:323,1,132.00000402832,14|0,0:2|0:0,0:0:0:0:
53,352,285427,2,0,L|31:257,1,88.000002685547,2|0,1:1|0:0,0:0:0:0:
91,94,285683,1,0,1:2:0:0:
33,266,285811,1,10,0:2:0:0:
202,191,285939,5,2,1:1:0:0:
45,158,286068,2,0,P|17:114|45:26,1,132.00000402832,4|0,1:3|0:0,0:0:0:0:
102,22,286324,2,0,L|202:30,1,88.000002685547,4|2,1:3|0:1,0:0:0:0:
400,50,286580,1,0,1:2:0:0:
400,50,286645,1,0,1:2:0:0:
400,50,286709,5,12,0:2:0:0:
232,125,286837,1,8,0:2:0:0:
232,125,286965,1,8,0:1:0:0:
400,50,287093,5,14,0:2:0:0:
189,29,287221,1,10,1:2:0:0:
338,136,287350,1,10,0:2:0:0:
294,39,287478,5,2,1:1:0:0:
232,125,287606,2,0,P|218:189|212:235,1,88.000002685547,0|2,1:2|0:2,0:0:0:0:
410,305,287862,2,0,P|424:241|430:195,1,88.000002685547,0|2,1:2|0:2,0:0:0:0:
269,280,288119,1,0,1:2:0:0:
269,280,288183,1,0,1:2:0:0:
269,280,288247,6,0,P|208:297|140:248,1,132.00000402832,14|0,0:2|0:0,0:0:0:0:
110,197,288504,2,0,L|19:185,1,88.000002685547,2|0,1:1|0:0,0:0:0:0:
133,116,288760,1,0,1:2:0:0:
72,273,288888,1,10,0:2:0:0:
214,211,289016,5,2,1:1:0:0:
57,94,289145,2,0,P|76:61|169:45,1,132.00000402832,4|0,1:3|0:0,0:0:0:0:
237,57,289401,2,0,L|328:69,1,88.000002685547,4|2,1:3|0:1,0:0:0:0:
494,195,289657,1,0,1:2:0:0:
494,195,289721,1,0,1:2:0:0:
494,195,289786,2,0,L|403:183,1,88.000002685547,12|0,0:1|0:0,0:0:0:0:
296,208,290042,6,0,P|290:166|307:127,1,58.6666684570313,8|8,1:2|1:2,0:0:0:0:
428,88,290213,2,0,P|467:103|492:138,1,58.6666684570313,8|4,0:3|0:3,0:0:0:0:
473,265,290384,2,0,P|439:291|397:295,1,58.6666684570313,8|4,0:3|0:3,0:0:0:0:
296,208,290555,5,6,1:1:0:0:
355,83,290683,2,0,P|416:82|490:127,1,132.00000402832,4|0,1:2|0:0,0:0:0:0:
494,195,290939,2,0,L|403:183,1,88.000002685547,0|2,1:2|0:2,0:0:0:0:
210,155,291196,1,0,1:2:0:0:
210,155,291260,1,0,1:2:0:0:
210,155,291324,6,0,P|181:202|206:304,1,132.00000402832,14|0,0:2|0:0,0:0:0:0:
227,340,291580,2,0,L|348:323,1,88.000002685547,2|0,1:2|0:0,0:0:0:0:
467,303,291837,1,0,1:2:0:0:
314,327,291965,1,10,0:2:0:0:
406,183,292093,5,2,1:1:0:0:
389,360,292221,2,0,P|392:307|313:246,1,132.00000402832,4|0,1:3|0:0,0:0:0:0:
265,254,292478,2,0,L|177:266,1,88.000002685547,4|2,1:3|0:1,0:0:0:0:
31,282,292734,1,0,1:2:0:0:
31,282,292798,1,0,1:2:0:0:
31,282,292862,6,0,P|103:302|162:253,1,132.00000402832,14|0,0:2|0:0,0:0:0:0:
179,191,293119,1,2,1:2:0:0:
252,349,293247,1,12,0:2:0:0:
85,228,293375,1,2,1:3:0:0:
85,228,293632,5,2,1:1:0:0:
265,254,293760,2,0,L|416:236,1,132.00000402832,0|0,1:2|0:0,0:0:0:0:
463,201,294016,2,0,B|468:154|468:154|454:102,1,88.000002685547,0|0,1:2|0:0,0:0:0:0:
257,56,294273,1,0,1:2:0:0:
268,61,294337,1,0,1:2:0:0:
279,66,294401,6,0,L|419:52,1,132.00000402832,14|0,0:2|0:0,0:0:0:0:
457,114,294657,2,0,B|468:154|468:154|463:201,1,88.000002685547,0|0,1:2|0:0,0:0:0:0:
270,340,294914,2,0,B|259:300|259:300|264:253,1,88.000002685547,0|2,1:2|0:2,0:0:0:0:
279,66,295170,5,6,1:1:0:0:
363,234,295298,1,0,3:2:0:0:
208,201,295427,1,8,0:1:0:0:
173,196,295491,1,8,0:1:0:0:
138,191,295555,1,8,0:1:0:0:
320,152,295683,5,10,0:1:0:0:
270,340,295811,1,8,0:1:0:0:
205,116,295939,1,8,0:3:0:0:
333,283,296068,5,8,0:3:0:0:
302,266,296132,1,0,0:0:0:0:
267,262,296196,1,2,1:1:0:0:
234,272,296260,1,0,0:0:0:0:
207,295,296324,1,4,0:3:0:0:
192,327,296388,1,0,0:0:0:0:
165,349,296452,1,6,1:1:0:0:
132,359,296516,1,0,0:0:0:0:
97,356,296580,1,4,0:3:0:0:
66,339,296644,1,0,0:0:0:0:
53,305,296709,6,0,B|42:265|42:265|47:218,1,88.000002685547,6|4,1:1|1:2,0:0:0:0:
162,51,296965,1,2,0:2:0:0:
227,185,297093,2,0,B|238:225|238:225|233:272,1,88.000002685547,0|2,1:2|0:2,0:0:0:0:
124,131,297350,1,0,1:2:0:0:
124,131,297414,1,0,1:2:0:0:
124,131,297478,6,0,L|275:107,1,132.00000402832,14|0,0:2|0:0,0:0:0:0:
332,118,297734,2,0,B|343:158|343:158|338:205,1,88.000002685547,2|0,1:1|0:0,0:0:0:0:
162,256,297991,1,0,1:2:0:0:
332,118,298119,1,10,0:2:0:0:
340,316,298247,5,2,1:1:0:0:
259,233,298375,2,0,P|236:172|254:110,1,132.00000402832,4|0,1:3|0:0,0:0:0:0:
305,49,298632,2,0,L|391:34,1,88.000002685547,4|2,1:3|0:1,0:0:0:0:
492,168,298888,1,0,1:2:0:0:
490,181,298952,1,0,1:2:0:0:
488,194,299016,6,0,L|401:208,1,88.000002685547,12|0,0:2|0:0,0:0:0:0:
320,262,299273,2,0,L|310:330,2,58.6666684570313,0|8|8,1:2|0:2|0:1,0:0:0:0:
254,109,299529,2,0,L|244:41,2,58.6666684570313,8|8|8,1:2|0:2|0:1,0:0:0:0:
142,270,299786,5,2,1:1:0:0:
42,158,299914,2,0,P|90:117|181:153,1,132.00000402832,0|0,1:2|0:0,0:0:0:0:
209,180,300170,2,0,L|223:277,1,88.000002685547,0|2,1:2|0:2,0:0:0:0:
52,296,300427,1,0,1:2:0:0:
39,293,300491,1,0,1:2:0:0:
26,289,300555,2,0,L|41:157,1,132.00000402832,14|0,0:2|0:0,0:0:0:0:
46,80,300811,2,0,P|93:68|146:57,1,88.000002685547,2|0,1:1|0:0,0:0:0:0:
277,35,301068,1,0,1:2:0:0:
131,59,301196,1,10,0:2:0:0:
235,167,301324,6,0,P|245:214|257:285,1,88.000002685547,14|0,1:1|0:0,0:0:0:0:
277,35,301580,2,0,P|324:23|377:12,1,88.000002685547,12|0,0:1|0:0,0:0:0:0:
131,59,301837,1,14,0:1:0:0:
329,120,301965,1,0,1:2:0:0:
341,125,302029,1,0,3:0:0:0:
353,130,302093,6,0,P|389:191|360:269,1,132.00000402832,12|0,0:2|0:0,0:0:0:0:
322,300,302350,1,8,1:2:0:0:
469,162,302478,1,2,0:2:0:0:
298,201,302606,1,14,0:2:0:0:
492,260,302734,1,10,0:2:0:0:
298,201,302862,5,6,1:1:0:0:
394,353,302991,2,0,P|410:296|364:223,1,132.00000402832,4|0,1:2|0:0,0:0:0:0:
298,201,303247,2,0,L|195:222,1,88.000002685547,0|2,1:2|0:2,0:0:0:0:
40,255,303504,1,0,1:2:0:0:
40,255,303568,1,0,1:2:0:0:
40,255,303632,6,0,P|24:317|55:374,1,132.00000402832,14|0,0:2|0:0,0:0:0:0:
132,356,303888,2,0,L|235:335,1,88.000002685547,2|0,1:2|0:0,0:0:0:0:
298,201,304145,1,0,1:2:0:0:
218,339,304273,1,10,0:2:0:0:
394,353,304401,5,2,1:1:0:0:
227,255,304529,2,0,P|211:190|249:129,1,132.00000402832,4|0,1:3|0:0,0:0:0:0:
308,97,304786,2,0,P|363:95|409:116,1,88.000002685547,4|2,1:3|0:1,0:0:0:0:
408,299,305042,1,0,1:2:0:0:
404,312,305106,1,0,1:2:0:0:
400,325,305170,6,0,P|337:341|280:311,1,132.00000402832,14|0,0:2|0:0,0:0:0:0:
227,255,305427,1,2,1:2:0:0:
308,97,305555,1,12,0:2:0:0:
386,238,305683,2,0,L|400:325,1,88.000002685547,2|0,1:3|0:0,0:0:0:0:
216,134,305939,5,2,1:1:0:0:
350,166,306068,2,0,P|418:153|465:108,1,132.00000402832,0|0,1:2|0:0,0:0:0:0:
468,38,306324,2,0,P|412:29|359:22,1,88.000002685547,0|0,1:2|0:0,0:0:0:0:
216,134,306580,1,0,1:2:0:0:
357,22,306709,1,14,0:2:0:0:
357,22,306965,5,8,0:2:0:0:
350,166,307093,1,8,0:2:0:0:
292,54,307221,5,10,0:2:0:0:
414,133,307349,1,10,0:2:0:0:
289,126,307478,5,14,1:1:0:0:
417,61,307606,1,12,3:2:0:0:
436,49,307670,1,0,3:0:0:0:
454,36,307734,1,6,1:3:0:0:
228,86,307862,5,8,0:1:0:0:
411,206,307991,1,14,0:1:0:0:
429,217,308055,1,0,3:0:0:0:
448,228,308119,1,0,1:2:0:0:
224,157,308247,6,0,B|165:166|165:166|121:198|121:198|61:208,1,162.000000617981,10|0,0:1|0:0,0:0:0:0:
260,254,308504,2,0,B|319:245|319:245|363:213|363:213|423:203,1,162.000000617981,2|0,1:1|0:0,0:0:0:0:
493,122,308760,1,8,1:1:0:0:
391,109,308888,1,8,0:2:0:0:
289,96,309016,5,6,1:2:0:0:
187,83,309145,2,0,P|137:84|60:169,1,132.00000402832,0|0,1:2|0:0,0:0:0:0:
41,200,309401,2,0,P|50:252|59:296,1,88.000002685547,0|0,1:2|3:2,0:0:0:0:
185,342,309657,1,0,1:2:0:0:
198,345,309721,1,0,1:2:0:0:
211,348,309786,6,0,P|228:272|185:208,1,132.00000402832,14|0,0:2|0:0,0:0:0:0:
143,181,310042,1,2,0:2:0:0:
298,187,310170,2,0,P|354:193|407:202,1,88.000002685547,2|2,1:2|3:2,0:0:0:0:
467,303,310427,1,0,1:2:0:0:
500,140,310555,5,0,1:2:0:0:
385,197,310683,2,0,P|336:150|336:64,1,132.00000402832,0|0,1:2|0:0,0:0:0:0:
382,33,310939,2,0,P|425:26|469:22,1,88.000002685547,0|2,1:2|3:3,0:0:0:0:
500,140,311196,1,0,1:2:0:0:
500,140,311260,1,0,1:2:0:0:
500,140,311324,6,0,P|493:183|489:227,1,88.000002685547,14|0,0:2|0:0,0:0:0:0:
477,354,311580,1,2,1:2:0:0:
385,197,311709,1,8,0:2:0:0:
288,306,311837,2,0,P|331:299|375:295,1,88.000002685547,2|0,1:3|0:0,0:0:0:0:
489,227,312093,5,4,1:2:0:0:
375,295,312221,2,0,L|221:313,1,132.00000402832,0|0,1:2|0:0,0:0:0:0:
169,289,312478,2,0,P|136:239|142:175,1,88.000002685547,0|0,1:2|3:2,0:0:0:0:
257,24,312734,1,0,1:2:0:0:
269,27,312798,1,0,1:2:0:0:
281,31,312862,2,0,P|303:79|273:161,1,132.00000402832,14|0,0:2|0:0,0:0:0:0:
216,199,313119,1,2,0:2:0:0:
107,142,313247,2,0,L|8:129,1,88.000002685547,0|2,1:2|1:2,0:0:0:0:
156,69,313504,1,8,0:2:0:0:
216,199,313632,5,12,1:2:0:0:
324,188,313760,2,0,L|467:173,1,132.00000402832,0|0,1:2|0:0,0:0:0:0:
486,105,314016,2,0,B|491:61|491:61|475:6,1,88.000002685547,12|0,0:2|3:2,0:0:0:0:
327,162,314273,1,0,1:2:0:0:
326,175,314337,1,0,1:2:0:0:
324,188,314401,2,0,B|319:232|319:232|335:287,1,88.000002685547,14|0,0:1|3:2,0:0:0:0:
481,311,314657,1,14,0:1:0:0:
331,273,314786,1,8,0:2:0:0:
493,183,314914,1,10,0:1:0:0:
493,183,315170,5,8,0:2:0:0:
316,284,315298,1,8,0:3:0:0:
405,341,315427,5,4,1:3:0:0:
417,308,315491,1,0,1:2:0:0:
418,273,315555,1,10,0:2:0:0:
408,239,315619,1,8,0:3:0:0:
384,212,315683,1,4,0:3:0:0:
374,178,315747,1,0,0:0:0:0:
375,142,315811,1,4,1:3:0:0:
387,110,315875,1,4,1:3:0:0:
413,87,315939,1,10,0:2:0:0:
493,183,316068,5,6,0:3:0:0:
316,284,316196,1,10,0:2:0:0:
287,91,316324,1,8,0:2:0:0:
284,69,316388,1,0,0:0:0:0:
281,47,316452,5,10,0:2:0:0:
374,178,316580,1,8,0:1:0:0:
145,135,316709,1,6,1:1:0:0:
145,135,317478,6,0,L|226:148,1,80,2|0,0:2|0:0,0:0:0:0:
374,178,317862,5,0,1:2:0:0:
374,178,317927,1,0,1:2:0:0:
374,178,317991,1,14,0:2:0:0:
223,147,318119,5,0,1:2:0:0:
424,57,318247,5,6,1:2:0:0:
332,110,318375,2,0,P|300:154|321:239,1,132.00000402832,0|0,1:2|0:0,0:0:0:0:
372,277,318632,2,0,L|481:259,1,88.000002685547,0|0,1:2|0:0,0:0:0:0:
489,170,318888,1,0,1:2:0:0:
413,349,319016,6,0,B|359:367|320:342|320:342|281:315|221:333,2,176.000005371094,14|0|2,0:1|1:2|0:0,0:0:0:0:
458,262,319657,1,0,1:2:0:0:
489,170,319786,1,4,1:2:0:0:
458,78,319914,2,0,P|388:57|331:85,1,132.00000402832,0|0,1:2|0:0,0:0:0:0:
290,136,320170,2,0,L|196:120,1,88.000002685547,0|0,1:2|0:0,0:0:0:0:
116,27,320427,1,0,1:2:0:0:
33,139,320555,2,0,L|127:155,1,88.000002685547,14|0,0:1|0:0,0:0:0:0:
203,121,320811,1,0,1:2:0:0:
119,153,320939,1,8,0:2:0:0:
210,286,321068,1,2,1:3:0:0:
210,286,321324,5,4,1:2:0:0:
236,206,321452,2,0,L|100:231,1,132.00000402832,0|0,1:2|0:0,0:0:0:0:
36,265,321709,2,0,P|29:325|51:368,1,88.000002685547,0|0,1:2|0:0,0:0:0:0:
158,366,321965,1,0,1:2:0:0:
237,207,322093,2,0,B|251:138|251:138|238:94|238:94|249:32,2,176.000005371094,14|0|0,0:1|1:2|1:2,0:0:0:0:
277,305,322734,1,8,0:2:0:0:
150,168,322862,1,12,0:2:0:0:
336,126,322991,2,0,P|393:114|443:105,1,88.000002685547,0|0,1:2|0:0,0:0:0:0:
248,35,323247,1,12,0:2:0:0:
150,168,323375,2,0,P|93:156|43:147,1,88.000002685547,0|0,3:0|1:2,0:0:0:0:
246,122,323632,6,0,L|239:190,1,58.6666684570313,14|0,0:1|0:0,0:0:0:0:
308,255,323803,1,4,0:3:0:0:
308,255,323888,2,0,L|301:323,1,58.6666684570313,14|0,0:1|0:0,0:0:0:0:
193,296,324059,1,0,3:0:0:0:
193,296,324145,2,0,L|186:364,2,58.6666684570313,10|0|0,0:1|0:0|3:0,0:0:0:0:
150,168,324401,5,6,1:2:0:0:
150,168,324529,2,0,P|227:156|281:200,1,132.00000402832,0|0,1:2|0:0,0:0:0:0:
308,255,324786,2,0,L|430:240,1,88.000002685547,0|0,1:2|0:0,0:0:0:0:
487,100,325042,1,0,1:2:0:0:
491,189,325170,6,0,P|416:148|417:45,2,176.000005371094,14|0|2,0:1|1:2|0:0,0:0:0:0:
487,100,325811,1,0,1:2:0:0:
341,22,325939,5,4,1:2:0:0:
314,178,326068,2,0,L|287:326,1,132.00000402832,0|0,1:2|0:0,0:0:0:0:
221,346,326324,2,0,L|128:330,1,88.000002685547,0|0,1:2|0:0,0:0:0:0:
196,252,326580,1,0,1:2:0:0:
290,307,326709,6,0,L|383:291,1,88.000002685547,14|0,0:1|0:0,0:0:0:0:
468,204,326965,1,0,1:2:0:0:
376,292,327093,1,8,0:2:0:0:
480,351,327221,1,2,1:3:0:0:
480,351,327478,5,4,1:2:0:0:
376,292,327606,2,0,P|351:238|383:153,1,132.00000402832,0|0,1:2|0:0,0:0:0:0:
411,106,327862,2,0,L|457:26,1,88.000002685547,0|0,1:2|0:0,0:0:0:0:
489,154,328119,1,0,1:2:0:0:
330,100,328247,6,0,B|276:79|238:109|238:109|201:135|133:113,2,176.000005371094,14|0|0,0:1|1:2|1:2,0:0:0:0:
489,154,328888,1,8,0:2:0:0:
330,100,329016,5,12,0:2:0:0:
429,71,329145,2,0,L|514:46,1,88.000002685547,0|0,1:2|0:0,0:0:0:0:
230,29,329401,5,12,0:2:0:0:
330,100,329529,2,0,L|409:164,1,88.000002685547,0|0,3:0|1:2,0:0:0:0:
217,133,329786,2,0,B|189:182|189:182|208:238,1,108.000000411987,14|0,0:1|0:0,0:0:0:0:
325,344,330042,1,0,1:0:0:0:
449,360,330213,5,8,0:3:0:0:
449,360,330298,2,0,L|460:277,1,72.0000002746582,0|4,1:0|0:3,0:0:0:0:
428,53,330469,5,0,1:0:0:0:
428,53,330554,2,0,L|417:136,1,72.0000002746582,10|0,0:1|3:0,0:0:0:0:
325,344,330726,5,4,0:3:0:0:
325,344,330811,2,0,L|336:261,1,72.0000002746582,2|0,1:1|0:3,0:0:0:0:
304,37,330982,5,8,3:3:0:0:
304,37,331067,2,0,L|293:120,1,72.0000002746582,2|0,1:1|0:0,0:0:0:0:
201,328,331239,5,4,3:3:0:0:
201,328,331324,2,0,L|212:245,1,72.0000002746582,14|0,0:1|0:0,0:0:0:0:
180,21,331495,5,4,3:0:0:0:
180,21,331580,2,0,L|169:104,1,72.0000002746582,2|8,1:1|0:3,0:0:0:0:
77,312,331751,5,4,3:3:0:0:
77,312,331836,2,0,L|88:229,1,72.0000002746582,2|8,1:1|0:0,0:0:0:0:
56,5,332007,1,0,1:0:0:0:
56,5,332092,6,0,L|43:114,1,108.000000411987,6|8,1:1|0:0,0:0:0:0:
86,240,332350,5,14,0:1:0:0:
225,183,332478,1,12,0:1:0:0:
168,42,332606,1,10,0:1:0:0:
28,99,332734,1,12,0:1:0:0:
225,183,332862,5,4,3:2:0:0:
