osu file format v14

[General]
AudioFilename: audio.mp3
AudioLeadIn: 0
PreviewTime: 54728
Countdown: 0
SampleSet: Soft
StackLeniency: 0.5
Mode: 0
LetterboxInBreaks: 0
WidescreenStoryboard: 1

[Editor]
Bookmarks: 10421,35036,54728,84267
DistanceSpacing: 0.8
BeatDivisor: 4
GridSize: 16
TimelineZoom: 1.6

[Metadata]
Title:KIRIFUDA
TitleUnicode:キリフダ
Artist:PENGUIN RESEARCH
ArtistUnicode:PENGUIN RESEARCH
Creator:banter
Version:Insane
Source:シャドウバース
Tags:shadowverse opening anime pop j-pop rock male vocals full version horie shota 堀江晶太 yoji ikuta 生田鷹司 sacra music japanese green leaves summer
BeatmapID:2515964
BeatmapSetID:1193081

[Difficulty]
HPDrainRate:5
CircleSize:3.8
OverallDifficulty:8
ApproachRate:9
SliderMultiplier:1.62
SliderTickRate:1

[Events]
//Background and Video events
0,0,"A24nTXo.jpg",0,0
//Break Periods
//Storyboard Layer 0 (Background)
//Storyboard Layer 1 (Fail)
//Storyboard Layer 2 (Pass)
//Storyboard Layer 3 (Foreground)
//Storyboard Layer 4 (Overlay)
//Storyboard Sound Samples

[TimingPoints]
585,307.692307692308,4,2,0,50,1,0
585,-133.333333333333,4,2,0,35,0,0
10431,-86.9565217391304,4,2,1,75,0,1
15354,-100,4,2,1,50,0,0
29123,-100,4,2,1,5,0,0
29200,-100,4,2,1,50,0,0
31585,-100,4,2,1,5,0,0
31661,-100,4,2,1,50,0,0
35046,-111.111111111111,4,2,1,50,0,0
47354,-74.0740740740741,4,2,1,75,0,0
47661,-86.9565217391304,4,2,1,65,0,0
47969,-105.263157894737,4,2,1,55,0,0
48277,-133.333333333333,4,2,1,45,0,0
48585,-111.111111111111,4,2,1,50,0,0
49815,-100,4,2,1,60,0,0
52277,-100,4,2,1,60,0,0
52585,-100,4,2,1,55,0,0
52892,-100,4,2,1,65,0,0
53200,-100,4,2,1,75,0,0
53508,-100,4,2,1,75,0,0
54738,-83.3333333333333,4,2,1,80,0,1
67046,-90.9090909090909,4,2,1,75,0,1
67661,-74.0740740740741,4,2,1,85,0,1
68277,-83.3333333333333,4,2,1,80,0,1
69123,-83.3333333333333,4,2,1,5,0,1
69200,-83.3333333333333,4,2,1,80,0,1
74431,-83.3333333333333,4,2,1,75,0,1
76892,-86.9565217391304,4,2,1,70,0,1
84277,-111.111111111111,4,2,1,50,0,0
93405,-111.111111111111,4,2,1,25,0,0
93508,-111.111111111111,4,2,1,50,0,0
96585,-74.0740740740741,4,2,1,75,0,0
96892,-86.9565217391304,4,2,1,65,0,0
97200,-105.263157894737,4,2,1,55,0,0
97508,-133.333333333333,4,2,1,45,0,0
97815,-111.111111111111,4,2,1,50,0,0
99046,-111.111111111111,4,2,1,60,0,0
101508,-100,4,2,1,70,0,0
101815,-100,4,2,1,55,0,0
102123,-100,4,2,1,70,0,0
102431,-100,4,2,1,80,0,0
102738,-100,4,2,1,85,0,0
103046,-100,4,2,1,70,0,0
103354,-100,4,2,1,60,0,0
103661,-100,4,2,1,50,0,0
103969,-166.666666666667,4,2,1,65,0,0
104585,-153.846153846154,4,2,0,35,0,0
112431,-166.666666666667,4,2,1,50,0,0
112585,-90.909090909091,4,2,1,50,0,0
113815,-83.3333333333333,4,2,1,80,0,1
116277,-90.9090909090909,4,2,1,75,0,1
116892,-74.0740740740741,4,2,1,85,0,1
117508,-83.3333333333333,4,2,1,80,0,1
118354,-83.3333333333333,4,2,1,5,0,1
118431,-83.3333333333333,4,2,1,80,0,1
123661,-83.3333333333333,4,2,1,75,0,1
128585,-86.9565217391304,4,2,1,70,0,1
141200,-86.9565217391304,4,2,1,40,0,1
141508,-86.9565217391304,4,2,1,50,0,1
141815,-86.9565217391304,4,2,1,60,0,1
142123,-86.9565217391304,4,2,1,70,0,1
142431,-86.9565217391304,4,2,1,80,0,1
142738,-86.9565217391304,4,2,1,85,0,1
143046,-86.9565217391304,4,2,1,90,0,1
143354,-133.333333333333,4,2,1,30,0,0
145815,342.857142857143,4,2,1,30,1,0
145815,-133.333333333333,4,2,1,30,0,0
146329,324.324324324324,4,2,1,30,1,0
146329,-133.333333333333,4,2,1,30,0,0
147139,-133.333333333333,4,2,1,30,0,0
147464,363.636363636364,4,2,1,30,1,0
147464,-133.333333333333,4,2,1,30,0,0
148191,-153.846153846154,4,2,1,15,0,0

[Colours]
Combo1 : 248,231,75
Combo2 : 73,241,153
Combo3 : 141,193,252

[HitObjects]
216,40,585,6,0,P|274:48|295:106,1,121.500004634857,2|0,2:0|0:0,0:0:0:0:
385,92,1046,1,2,2:0:0:0:
385,92,1200,2,0,P|364:156|362:216,1,121.500004634857,2|0,2:0|0:0,0:0:0:0:
405,286,1661,1,2,2:0:0:0:
472,227,1815,6,0,B|420:195|420:195|341:214,1,121.500004634857,2|0,2:0|0:0,0:0:0:0:
308,290,2277,1,2,2:0:0:0:
308,290,2431,2,0,B|256:322|256:322|177:303,1,121.500004634857,2|2,2:0|2:0,0:0:0:0:
14,191,3046,6,0,P|73:188|134:155,1,121.500004634857,2|0,2:0|0:0,0:0:0:0:
219,82,3508,1,2,2:0:0:0:
219,82,3661,2,0,P|278:85|339:118,1,121.500004634857,2|0,2:0|0:0,0:0:0:0:
395,192,4123,1,2,2:0:0:0:
296,189,4277,6,0,B|269:216|269:216|281:315,1,121.500004634857,2|0,2:0|0:0,0:0:0:0:
235,368,4738,1,2,2:0:0:0:
235,368,4892,2,0,B|265:385|265:385|318:377|318:377|342:351,1,121.500004634857,2|2,2:0|2:0,0:0:0:0:
490,82,5508,6,0,L|479:221,1,121.500004634857,2|0,2:0|0:0,0:0:0:0:
400,257,5969,1,2,2:0:0:0:
400,257,6123,2,0,L|390:135,1,121.500004634857,2|0,2:0|0:0,0:0:0:0:
384,44,6585,1,2,2:0:0:0:
310,100,6738,6,0,P|241:107|202:53,1,121.500004634857,2|0,2:0|0:0,0:0:0:0:
125,15,7200,1,2,2:0:0:0:
125,15,7354,2,0,L|134:136,1,121.500004634857,2|2,2:0|2:0,0:0:0:0:
25,323,7969,6,0,P|69:284|126:296,1,121.500004634857,2|0,2:0|0:0,0:0:0:0:
193,362,8431,1,2,2:0:0:0:
193,361,8585,2,0,B|255:375|248:327|308:343,1,121.500004634857,2|0,2:0|0:0,0:0:0:0:
399,356,9046,1,2,2:0:0:0:
360,270,9200,6,0,P|341:212|344:152,1,121.500004634857,0|0,2:0|0:0,0:0:0:0:
358,57,9661,1,2,2:0:0:0:
358,57,9815,2,0,P|300:75|240:72,1,121.500004634857,2|0,2:0|0:0,0:0:0:0:
28,297,10431,6,0,B|95:288|95:288|139:315|139:315|205:304,1,186.300003553391,6|8,0:0|0:0,0:0:0:0:
302,286,10892,1,2,0:0:0:0:
175,142,11046,2,0,P|152:182|155:228,1,93.1500017766953,2|0,3:0|0:0,0:0:0:0:
258,118,11354,1,10,0:0:0:0:
111,82,11508,1,2,0:0:0:0:
235,199,11661,6,0,P|306:209|423:187,1,186.300003553391,2|8,3:0|0:0,0:0:0:0:
474,88,12123,1,2,0:0:0:0:
474,88,12277,2,0,B|438:133|438:133|463:282,1,186.300003553391,2|8,3:0|0:0,0:0:0:0:
486,357,12738,1,2,0:0:0:0:
352,292,12892,6,0,B|249:269|282:341|175:324,1,186.300003553391,2|8,3:0|0:0,0:0:0:0:
318,372,13354,1,2,0:0:0:0:
209,244,13508,2,0,P|187:193|188:139,1,93.1500017766953,2|0,3:0|0:0,0:0:0:0:
326,79,13815,1,10,0:0:0:0:
292,198,13969,1,2,0:0:0:0:
124,73,14123,6,0,B|99:29|99:29|240:39,1,186.300003553391,6|8,0:0|0:0,0:0:0:0:
190,134,14585,1,2,0:0:0:0:
71,167,14738,1,0,3:0:0:0:
66,154,14815,1,0,3:0:0:0:
61,141,14892,1,0,3:0:0:0:
56,128,14969,1,0,3:0:0:0:
51,115,15046,2,0,L|26:45,3,46.5750008883476,0|0|0|0,3:0|3:0|3:0|3:0,0:0:0:0:
2,81,15354,6,0,P|-9:156|-4:186,1,81,6|0,0:0|0:0,0:0:0:0:
35,247,15661,1,10,0:0:0:0:
35,247,15815,1,2,0:0:0:0:
159,187,15969,2,0,L|63:170,1,81,2|2,3:0|3:0,0:0:0:0:
157,281,16277,2,0,L|253:264,1,81,10|2,0:0|0:0,0:0:0:0:
334,197,16585,6,0,P|290:217|309:324,1,162,2|8,3:0|0:0,0:0:0:0:
413,252,17046,2,0,P|424:213|425:172,1,81,2|0,0:0|3:1,0:0:0:0:
321,117,17354,2,0,P|322:157|333:196,1,81,2|8,3:0|0:0,0:0:0:0:
341,28,17661,6,0,B|254:15|278:73|186:62,1,162,2|0,0:0|3:1,0:0:0:0:
101,116,18123,2,0,P|90:77|89:36,1,81,8|0,0:0|0:0,0:0:0:0:
106,209,18431,2,0,P|78:237|44:259,1,81,0|0,3:1|3:1,0:0:0:0:
185,157,18738,2,0,P|224:166|259:186,1,81,8|0,0:0|0:0,0:0:0:0:
111,290,19046,6,0,L|107:202,1,81,0|0,3:1|3:1,0:0:0:0:
210,266,19354,2,0,L|206:346,1,81,8|0,0:0|0:0,0:0:0:0:
88,376,19661,1,2,3:0:0:0:
32,264,19815,1,2,3:0:0:0:
206,346,19969,1,10,0:0:0:0:
9,343,20123,6,0,L|-5:174,1,162,2|0,0:0|3:1,0:0:0:0:
14,64,20585,1,10,0:0:0:0:
14,64,20738,2,0,P|51:120|145:105,1,162,2|0,0:0|3:1,0:0:0:0:
205,209,21200,1,10,0:0:0:0:
205,209,21353,6,0,P|242:153|336:168,1,162,2|0,0:0|3:1,0:0:0:0:
416,109,21815,2,0,L|430:201,1,81,10|2,0:0|0:0,0:0:0:0:
451,290,22123,1,0,3:1:0:0:
451,290,22200,1,0,3:1:0:0:
451,290,22277,1,0,3:1:0:0:
356,250,22431,1,10,0:0:0:0:
371,348,22585,6,0,B|411:381|411:381|522:360,1,162,2|0,0:0|3:1,0:0:0:0:
466,215,23046,2,0,P|441:263|439:307,1,81,8|0,0:0|0:0,0:0:0:0:
328,176,23354,2,0,P|348:210|356:250,1,81,0|0,3:1|3:1,0:0:0:0:
444,75,23661,2,0,P|419:123|417:167,1,81,8|0,0:0|0:0,0:0:0:0:
235,73,23969,6,0,B|274:57|274:57|313:63,1,81,0|0,3:1|3:1,0:0:0:0:
232,175,24277,2,0,B|193:181|193:181|154:165,1,81,8|0,0:0|0:0,0:0:0:0:
67,118,24585,1,0,3:1:0:0:
67,118,24738,1,0,3:1:0:0:
216,12,24892,2,0,L|206:92,1,81,10|0,0:0|0:0,0:0:0:0:
86,278,25200,6,0,L|66:117,1,162,6|10,0:0|0:0,0:0:0:0:
176,263,25661,1,2,0:0:0:0:
141,346,25815,2,0,P|94:365|50:360,1,81,2|0,3:0|3:0,0:0:0:0:
111,199,26123,1,10,0:0:0:0:
176,263,26277,1,2,0:0:0:0:
268,177,26431,6,0,P|187:171|111:198,1,162,2|10,3:0|0:0,0:0:0:0:
352,230,26892,2,0,L|363:136,1,81,2|0,0:0|3:1,0:0:0:0:
269,264,27200,1,0,3:1:0:0:
347,320,27354,1,10,0:0:0:0:
268,177,27508,6,0,P|187:172|156:266,1,162,2|0,0:0|3:1,0:0:0:0:
42,322,27969,2,0,P|54:281|56:230,1,81,8|0,0:0|0:0,0:0:0:0:
35,106,28277,2,0,P|64:136|107:164,1,81,0|0,3:1|3:1,0:0:0:0:
225,207,28585,2,0,P|183:217|138:240,1,81,8|2,0:0|0:0,0:0:0:0:
340,303,28892,6,0,B|368:276|368:276|359:192,1,121.5,0|0,3:1|0:0,0:0:0:0:
359,193,29200,1,8,0:0:0:0:
218,105,29354,2,0,P|270:132|349:51,1,162,2|0,0:0|3:1,0:0:0:0:
224,16,29815,2,0,P|182:23|141:51,1,81,8|2,0:0|0:0,0:0:0:0:
127,146,30123,5,0,3:1:0:0:
127,146,30277,1,0,3:1:0:0:
223,185,30431,2,0,L|217:104,1,81,8|0,0:0|0:0,0:0:0:0:
138,242,30738,1,0,3:1:0:0:
138,242,30892,1,0,3:1:0:0:
231,286,31046,2,0,P|278:291|328:272,1,81,8|2,0:0|0:0,0:0:0:0:
427,210,31354,6,0,P|397:255|405:323,1,121.5,0|0,3:1|0:0,0:0:0:0:
403,319,31662,1,8,0:0:0:0:
511,185,31815,2,0,L|337:158,1,162,2|0,0:0|3:1,0:0:0:0:
216,249,32277,2,0,L|296:236,1,81,8|2,0:0|0:0,0:0:0:0:
427,210,32585,5,0,3:1:0:0:
427,210,32738,1,0,3:1:0:0:
327,154,32892,2,0,P|312:114|313:69,1,81,8|0,0:0|0:0,0:0:0:0:
423,116,33200,1,0,3:1:0:0:
423,116,33354,1,0,3:1:0:0:
334,246,33508,2,0,L|254:259,1,81,8|0,0:0|0:0,0:0:0:0:
140,323,33815,5,0,3:1:0:0:
240,161,33969,1,8,0:0:0:0:
304,334,34123,2,0,P|341:349|397:345,1,81,0|0,3:1|0:0,0:0:0:0:
232,244,34431,2,0,L|222:321,2,54,8|8|8,0:0|0:0|0:0,0:0:0:0:
157,191,34738,2,0,L|150:137,2,54,8|8|8,0:0|0:0|0:0,0:0:0:0:
100,254,35046,6,0,P|50:273|-6:269,1,97.1999970336915,4|0,3:1|0:0,0:0:0:0:
64,173,35354,2,0,P|112:173|157:191,1,97.1999970336915,2|0,0:0|0:0,0:0:0:0:
190,271,35661,2,0,P|238:270|283:252,1,97.1999970336915,10|0,0:0|0:0,0:0:0:0:
330,181,35969,1,2,0:0:0:0:
246,122,36174,1,2,0:0:0:0:
236,151,36277,6,0,P|237:199|255:244,1,97.1999970336915,2|2,3:0|0:0,0:0:0:0:
330,292,36585,1,2,0:0:0:0:
436,226,36790,1,2,0:0:0:0:
423,200,36893,2,0,P|378:181|329:180,1,97.1999970336915,10|2,0:0|0:0,0:0:0:0:
255,244,37200,2,0,P|210:262|161:263,1,97.1999970336915,2|2,0:0|0:0,0:0:0:0:
80,309,37508,6,0,L|65:192,1,97.1999970336915,0|0,3:1|0:0,0:0:0:0:
149,166,37815,2,0,L|161:262,1,97.1999970336915,2|2,0:0|0:0,0:0:0:0:
322,359,38123,2,0,L|337:242,1,97.1999970336915,10|0,0:0|0:0,0:0:0:0:
253,216,38430,2,0,L|240:312,1,97.1999970336915,2|0,0:0|0:0,0:0:0:0:
157,354,38738,6,0,P|91:385|20:374,1,145.799995550537,2|2,3:0|0:0,0:0:0:0:
137,218,39251,1,2,0:0:0:0:
140,247,39354,1,8,0:0:0:0:
59,171,39559,1,2,0:0:0:0:
62,142,39661,2,0,P|107:123|156:122,1,97.1999970336915,2|0,0:0|0:0,0:0:0:0:
233,64,39969,6,0,L|247:178,1,97.1999970336915,2|0,3:0|0:0,0:0:0:0:
259,245,40277,1,2,0:0:0:0:
423,236,40482,1,2,0:0:0:0:
420,207,40584,2,0,P|375:188|326:187,1,97.1999970336915,10|0,0:0|0:0,0:0:0:0:
259,245,40892,2,0,L|245:359,1,97.1999970336915,2|0,0:0|0:0,0:0:0:0:
163,381,41200,6,0,L|151:284,1,97.1999970336915,2|0,3:0|0:0,0:0:0:0:
91,215,41508,2,0,P|136:196|185:195,1,97.1999970336915,2|0,0:0|0:0,0:0:0:0:
238,110,41815,2,0,P|189:108|145:89,1,97.1999970336915,8|2,0:0|0:0,0:0:0:0:
97,18,42123,1,2,0:0:0:0:
294,40,42328,1,2,0:0:0:0:
314,59,42431,6,0,L|328:173,1,97.1999970336915,2|0,3:0|0:0,0:0:0:0:
340,242,42738,1,2,0:0:0:0:
448,220,42943,1,2,0:0:0:0:
431,198,43046,2,0,L|417:312,1,97.1999970336915,10|0,0:0|0:0,0:0:0:0:
360,363,43354,2,0,P|315:381|267:383,1,97.1999970336915,2|2,0:0|0:0,0:0:0:0:
186,345,43661,5,2,3:0:0:0:
271,279,43867,1,2,0:0:0:0:
255,254,43969,2,0,P|210:236|162:234,1,97.1999970336915,2|0,0:0|0:0,0:0:0:0:
92,282,44277,5,8,0:0:0:0:
75,203,44482,1,8,0:0:0:0:
58,124,44687,1,8,0:0:0:0:
177,153,44892,6,0,P|248:161|337:121,1,145.799995550537,4|0,3:1|0:0,0:0:0:0:
462,68,45405,1,2,0:0:0:0:
437,84,45508,2,0,P|419:129|417:177,1,97.1999970336915,10|0,0:0|0:0,0:0:0:0:
488,238,45815,2,0,P|506:283|508:331,1,97.1999970336915,2|2,0:0|0:0,0:0:0:0:
423,371,46123,2,0,P|351:378|283:354,1,145.799995550537,2|0,3:0|0:0,0:0:0:0:
132,354,46738,5,8,0:0:0:0:
113,309,46840,1,8,0:0:0:0:
116,261,46943,1,8,0:0:0:0:
138,218,47046,2,0,L|208:231,2,48.5999985168458,8|8|8,0:0|0:0|0:0,0:0:0:0:
55,194,47354,6,0,B|17:152|34:91|34:91|66:75,1,145.800000556183,4|0,3:1|0:0,0:0:0:0:
80,42,47661,2,0,B|126:31|164:70|164:70|161:100,1,124.200002368927,14|0,0:0|0:0,0:0:0:0:
162,141,47969,2,0,B|149:178|107:189|107:189|86:175,1,102.599997260284,4|0,3:1|0:0,0:0:0:0:
55,194,48277,2,0,P|34:160|32:104,1,81.0000030899049,12|0,0:0|0:0,0:0:0:0:
80,42,48585,5,8,0:0:0:0:
80,42,48892,2,0,L|155:49,1,72.8999977752686,8|8,0:0|0:0,0:0:0:0:
277,69,49200,1,8,0:0:0:0:
162,141,49354,1,8,0:0:0:0:
227,0,49508,1,8,0:0:0:0:
319,150,49661,1,8,0:0:0:0:
152,48,49815,6,0,L|141:141,1,81,4|0,3:1|0:0,0:0:0:0:
250,221,50123,2,0,L|240:140,1,81,8|0,0:0|0:0,0:0:0:0:
138,231,50431,1,0,3:1:0:0:
138,231,50585,1,0,3:1:0:0:
227,314,50738,2,0,P|270:313|314:292,1,81,8|2,0:0|0:0,0:0:0:0:
385,217,51046,5,0,3:1:0:0:
385,217,51200,1,0,3:1:0:0:
240,140,51354,2,0,L|250:221,1,81,8|0,0:0|0:0,0:0:0:0:
289,55,51661,1,0,3:1:0:0:
141,113,51815,1,0,3:1:0:0:
336,134,51969,2,0,P|379:133|423:112,1,81,8|2,0:0|0:0,0:0:0:0:
194,43,52277,6,0,P|156:28|116:27,1,81,8|0,0:0|0:0,0:0:0:0:
54,104,52585,1,8,0:0:0:0:
92,191,52738,1,8,0:0:0:0:
141,113,52892,1,8,0:0:0:0:
3,174,53046,1,8,0:0:0:0:
178,194,53200,1,8,0:0:0:0:
39,74,53354,1,8,0:0:0:0:
126,273,53508,6,0,B|166:288|166:288|230:274,1,81,12|0,0:0|0:0,0:0:0:0:
284,303,53738,1,0,3:0:0:0:
287,285,53815,1,0,3:0:0:0:
290,267,53892,1,0,3:0:0:0:
293,249,53969,1,0,3:0:0:0:
296,231,54046,1,0,3:0:0:0:
299,213,54123,6,0,L|224:222,3,40.5,0|0|0|0,3:0|3:0|3:0|3:0,0:0:0:0:
203,279,54431,2,0,L|162:274,3,40.5,0|0|0|0,3:0|3:0|3:0|3:0,0:0:0:0:
81,332,54738,6,0,P|64:283|79:220,1,97.1999970336915,4|0,3:1|0:0,0:0:0:0:
172,95,55046,2,0,P|188:140|183:188,1,97.1999970336915,8|0,0:0|0:0,0:0:0:0:
113,15,55354,2,0,B|185:7|185:7|228:31|228:31|300:23,1,194.399994067383,2|8,3:0|0:0,0:0:0:0:
410,10,55815,1,0,0:0:0:0:
306,117,55969,6,0,B|284:148|284:148|292:227,1,97.1999970336915,2|0,3:0|0:0,0:0:0:0:
360,319,56277,2,0,B|382:288|382:288|374:209,1,97.1999970336915,10|0,0:0|0:0,0:0:0:0:
220,95,56585,2,0,B|198:126|198:126|206:205,1,97.1999970336915,2|0,3:0|0:0,0:0:0:0:
274,297,56893,2,0,B|296:266|296:266|288:187,1,97.1999970336915,10|0,0:0|0:0,0:0:0:0:
97,254,57200,6,0,P|168:272|196:266,1,97.1999970336915,2|0,3:0|0:0,0:0:0:0:
306,117,57508,2,0,P|377:99|405:105,1,97.1999970336915,10|0,0:0|0:0,0:0:0:0:
203,184,57815,2,0,L|192:79,1,97.1999970336915,2|0,3:0|0:0,0:0:0:0:
364,207,58123,2,0,L|353:303,1,97.1999970336915,10|0,0:0|0:0,0:0:0:0:
79,298,58431,6,0,B|189:268|157:346|265:319,1,194.399994067383,2|8,3:0|0:0,0:0:0:0:
353,304,58892,1,0,0:0:0:0:
247,144,59046,2,0,P|227:187|225:236,1,97.1999970336915,2|0,3:0|0:0,0:0:0:0:
327,91,59354,2,0,P|324:42|304:0,1,97.1999970336915,8|0,0:0|0:0,0:0:0:0:
49,102,59661,6,0,P|145:97|232:56,1,194.399994067383,0|8,3:0|0:0,0:0:0:0:
133,0,60123,1,2,0:0:0:0:
0,169,60277,2,0,B|36:205|36:205|208:180,1,194.399994067383,0|8,3:1|0:0,0:0:0:0:
323,244,60738,1,2,0:0:0:0:
305,79,60892,6,0,P|363:60|433:159,1,194.399994067383,0|8,3:1|0:0,0:0:0:0:
283,168,61354,1,2,0:0:0:0:
220,38,61508,2,0,B|356:2|356:2|326:46,1,194.399994067383,0|8,3:1|0:0,0:0:0:0:
256,154,61969,1,2,0:0:0:0:
141,103,62123,6,0,P|119:59|118:11,1,97.1999970336915,0|0,3:1|0:0,0:0:0:0:
220,38,62431,1,8,0:0:0:0:
256,154,62585,1,2,0:0:0:0:
39,185,62738,2,0,P|76:103|164:122,1,194.399994067383,0|8,3:1|0:0,0:0:0:0:
243,244,63200,1,2,0:0:0:0:
90,265,63354,6,0,B|42:276|42:276|-13:255,1,97.1999970336915,4|0,3:1|0:0,0:0:0:0:
204,324,63661,2,0,B|252:335|252:335|307:314,1,97.1999970336915,12|0,0:0|0:0,0:0:0:0:
407,219,63969,1,8,0:0:0:0:
388,235,64045,1,8,0:0:0:0:
376,256,64122,1,8,0:0:0:0:
373,279,64199,1,8,0:0:0:0:
376,303,64277,2,0,L|431:291,3,48.5999985168458,8|8|8|8,0:0|0:0|0:0|0:0,0:0:0:0:
501,280,64585,6,0,L|512:156,1,97.1999970336915,4|0,3:1|0:0,0:0:0:0:
398,122,64892,2,0,L|406:218,1,97.1999970336915,8|0,0:0|0:0,0:0:0:0:
512,10,65200,2,0,B|400:-14|436:62|327:40,1,194.399994067383,2|8,3:0|0:0,0:0:0:0:
215,1,65661,1,2,0:0:0:0:
302,139,65815,6,0,P|319:182|317:244,1,97.1999970336915,2|0,3:0|0:0,0:0:0:0:
151,267,66123,2,0,P|134:224|136:162,1,97.1999970336915,10|0,0:0|0:0,0:0:0:0:
230,36,66431,2,0,P|229:84|212:129,1,97.1999970336915,2|0,3:0|0:0,0:0:0:0:
43,94,66739,2,0,P|43:45|60:0,1,97.1999970336915,10|0,0:0|0:0,0:0:0:0:
141,63,67046,6,0,L|124:150,1,89.1000027191163,6|0,3:1|0:0,0:0:0:0:
26,181,67354,2,0,L|42:93,1,89.1000027191163,10|0,0:0|0:0,0:0:0:0:
214,215,67661,2,0,P|265:233|338:228,1,109.350000417137,6|0,3:1|0:0,0:0:0:0:
377,34,67969,2,0,P|322:33|271:51,1,109.350000417137,10|0,0:0|0:0,0:0:0:0:
469,215,68277,6,0,B|512:175|512:175|493:23,1,194.399994067383,6|8,3:1|0:0,0:0:0:0:
407,121,68738,1,0,0:0:0:0:
361,269,68892,2,0,P|302:280|222:253,1,145.799995550537,2|0,3:0|0:0,0:0:0:0:
204,232,69200,2,0,P|187:172|193:124,1,97.1999970336915,8|0,0:0|0:0,0:0:0:0:
314,69,69508,6,0,L|304:178,1,97.1999970336915,4|0,3:1|0:0,0:0:0:0:
103,156,69815,2,0,L|94:59,1,97.1999970336915,8|0,0:0|0:0,0:0:0:0:
204,232,70123,2,0,P|125:279|17:252,1,194.399994067383,2|8,3:0|0:0,0:0:0:0:
205,120,70585,1,0,0:0:0:0:
260,310,70738,6,0,B|289:351|289:351|440:331,1,194.399994067383,4|8,3:1|0:0,0:0:0:0:
494,259,71200,1,0,0:0:0:0:
342,166,71354,2,0,B|322:191|322:191|330:269,1,97.1999970336915,8|0,0:0|0:0,0:0:0:0:
406,109,71661,1,8,3:0:0:0:
387,93,71737,1,8,3:0:0:0:
365,84,71814,1,8,3:0:0:0:
340,82,71891,1,8,3:0:0:0:
317,87,71969,6,0,P|261:99|191:88,1,97.1999970336915,4|0,0:0|0:0,0:0:0:0:
126,97,72277,1,8,0:0:0:0:
171,180,72431,1,8,0:0:0:0:
170,18,72585,1,8,0:0:0:0:
35,110,72738,1,8,0:0:0:0:
222,96,72892,1,8,0:0:0:0:
72,21,73046,1,8,0:0:0:0:
79,191,73200,6,0,L|94:323,1,97.1999970336915,12|0,0:0|0:0,0:0:0:0:
211,367,73508,1,8,0:0:0:0:
243,382,73584,1,8,0:0:0:0:
280,384,73661,1,8,0:0:0:0:
314,372,73738,1,8,0:0:0:0:
342,349,73815,2,0,L|347:300,3,48.5999985168458,8|8|8|8,0:0|0:0|0:0|0:0,0:0:0:0:
281,240,74123,2,0,L|275:191,3,48.5999985168458,8|8|8|8,0:0|0:0|0:0|0:0,0:0:0:0:
303,110,74431,6,0,P|368:88|456:168,1,194.399994067383,6|8,3:0|0:0,0:0:0:0:
362,183,74892,1,2,0:0:0:0:
214,124,75046,2,0,P|200:77|201:25,1,97.1999970336915,2|0,3:0|3:1,0:0:0:0:
275,191,75354,1,10,0:0:0:0:
118,126,75508,1,2,0:0:0:0:
310,61,75661,6,0,B|421:36|385:113|494:91,1,194.399994067383,2|8,3:0|0:0,0:0:0:0:
460,8,76123,1,2,0:0:0:0:
344,144,76277,2,0,L|359:258,1,97.1999970336915,2|0,3:0|3:1,0:0:0:0:
466,332,76585,2,0,L|478:235,1,97.1999970336915,8|2,0:0|0:0,0:0:0:0:
268,219,76892,6,0,B|287:358|287:358|312:320,1,186.300003553391,2|8,3:0|0:0,0:0:0:0:
356,240,77354,1,2,0:0:0:0:
256,131,77508,2,0,P|197:126|154:143,1,93.1500017766953,2|0,3:0|3:1,0:0:0:0:
268,219,77815,1,10,0:0:0:0:
327,78,77969,1,2,0:0:0:0:
165,136,78123,6,0,B|173:202|173:202|149:245|149:245|159:314,1,186.300003553391,2|8,3:0|0:0,0:0:0:0:
83,184,78585,1,2,0:0:0:0:
240,264,78738,2,0,B|286:273|286:273|336:254,1,93.1500017766953,2|0,3:0|3:1,0:0:0:0:
255,129,79046,2,0,B|209:120|209:120|159:139,1,93.1500017766953,8|2,0:0|0:0,0:0:0:0:
366,171,79354,6,0,P|441:171|474:74,1,186.300003553391,6|8,3:0|0:0,0:0:0:0:
333,80,79815,1,2,0:0:0:0:
304,239,79969,2,0,P|348:262|413:266,1,93.1500017766953,2|0,3:0|3:1,0:0:0:0:
255,129,80277,1,10,0:0:0:0:
212,288,80431,1,2,0:0:0:0:
138,132,80585,6,0,P|160:47|247:38,1,186.300003553391,2|8,3:0|0:0,0:0:0:0:
201,200,81046,1,2,0:0:0:0:
63,175,81200,2,0,P|47:127|53:63,1,93.1500017766953,2|0,3:0|3:1,0:0:0:0:
117,250,81508,2,0,P|117:296|101:340,1,93.1500017766953,8|2,0:0|0:0,0:0:0:0:
201,200,81815,6,0,P|288:169|381:169,1,186.300003553391,2|12,3:0|0:0,0:0:0:0:
478,232,82277,1,2,0:0:0:0:
353,332,82431,2,0,P|306:332|262:316,1,93.1500017766953,2|0,3:0|3:1,0:0:0:0:
394,253,82738,1,10,0:0:0:0:
426,384,82892,1,2,0:0:0:0:
312,249,83046,6,0,L|301:178,2,62.1000011844635,8|8|8,0:0|0:0|0:0,0:0:0:0:
263,317,83354,2,0,L|253:378,2,62.1000011844635,8|8|8,0:0|0:0|0:0,0:0:0:0:
225,235,83661,1,8,3:0:0:0:
179,226,83763,1,8,3:0:0:0:
138,248,83866,1,8,3:0:0:0:
108,271,83969,1,8,3:0:0:0:
75,277,84071,1,8,3:0:0:0:
47,261,84174,1,8,3:0:0:0:
33,235,84277,6,0,L|43:121,1,97.1999970336915,4|0,3:1|0:0,0:0:0:0:
52,56,84585,1,2,0:0:0:0:
166,131,84790,1,2,0:0:0:0:
133,139,84892,1,10,0:0:0:0:
208,41,85097,1,2,0:0:0:0:
241,49,85199,1,2,0:0:0:0:
324,142,85405,1,2,0:0:0:0:
290,149,85508,6,0,P|269:105|269:56,1,97.1999970336915,2|0,3:0|0:0,0:0:0:0:
349,38,85815,2,0,P|370:82|370:131,1,97.1999970336915,2|2,0:0|0:0,0:0:0:0:
345,216,86123,1,10,0:0:0:0:
267,309,86328,1,2,0:0:0:0:
257,281,86431,2,0,L|161:268,1,97.1999970336915,2|0,0:0|0:0,0:0:0:0:
141,356,86738,6,0,L|45:369,1,97.1999970336915,2|0,3:0|0:0,0:0:0:0:
64,281,87046,2,0,L|160:268,1,97.1999970336915,2|0,0:0|0:0,0:0:0:0:
226,197,87354,2,0,P|247:153|247:104,1,97.1999970336915,10|0,0:0|0:0,0:0:0:0:
161,88,87661,2,0,P|140:132|140:181,1,97.1999970336915,2|2,0:0|0:0,0:0:0:0:
161,268,87969,6,0,L|257:281,1,97.1999970336915,2|0,3:0|0:0,0:0:0:0:
340,294,88277,1,2,0:0:0:0:
419,206,88482,1,2,0:0:0:0:
386,214,88584,1,8,0:0:0:0:
454,281,88790,1,2,0:0:0:0:
487,289,88892,2,0,P|508:245|508:196,1,97.1999970336915,2|0,0:0|0:0,0:0:0:0:
455,123,89200,6,0,L|359:136,1,97.1999970336915,2|0,3:0|0:0,0:0:0:0:
306,212,89508,2,0,L|210:199,1,97.1999970336915,2|2,0:0|0:0,0:0:0:0:
125,187,89815,1,8,0:0:0:0:
125,41,90020,1,2,0:0:0:0:
158,33,90122,2,0,P|179:77|179:126,1,97.1999970336915,2|0,0:0|0:0,0:0:0:0:
125,187,90431,6,0,L|29:200,1,97.1999970336915,2|0,3:0|0:0,0:0:0:0:
6,291,90738,2,0,L|102:278,1,97.1999970336915,2|0,0:0|0:0,0:0:0:0:
193,265,91046,1,10,0:0:0:0:
156,361,91251,1,2,0:0:0:0:
123,369,91353,2,0,P|102:325|102:276,1,97.1999970336915,2|0,0:0|0:0,0:0:0:0:
193,265,91661,6,0,L|289:278,1,97.1999970336915,2|0,3:0|0:0,0:0:0:0:
380,291,91969,1,2,0:0:0:0:
401,146,92174,1,0,0:0:0:0:
384,116,92277,2,0,P|335:117|292:138,1,97.1999970336915,10|2,0:0|0:0,0:0:0:0:
210,181,92584,2,0,P|161:180|118:159,1,97.1999970336915,2|0,0:0|0:0,0:0:0:0:
66,86,92892,5,2,3:0:0:0:
207,53,93097,1,2,0:0:0:0:
217,84,93200,2,0,L|207:217,1,97.1999970336915,2|8,0:0|0:0,0:0:0:0:
199,267,93508,5,8,0:0:0:0:
120,250,93713,1,8,0:0:0:0:
41,233,93918,1,8,0:0:0:0:
157,354,94123,6,0,P|225:358|294:281,1,145.799995550537,4|0,3:1|0:0,0:0:0:0:
472,227,94636,1,2,0:0:0:0:
463,195,94738,2,0,P|419:174|371:173,1,97.1999970336915,10|0,0:0|0:0,0:0:0:0:
298,223,95046,1,2,0:0:0:0:
198,177,95251,1,2,0:0:0:0:
207,145,95353,6,0,P|251:124|299:123,1,97.1999970336915,2|0,3:0|0:0,0:0:0:0:
372,173,95661,1,2,0:0:0:0:
263,303,95969,5,8,0:0:0:0:
213,323,96071,1,8,0:0:0:0:
160,320,96174,1,8,0:0:0:0:
113,296,96277,2,0,L|104:226,2,48.5999985168458,8|8|8,0:0|0:0|0:0,0:0:0:0:
64,356,96585,6,0,B|39:382|39:382|25:273,1,145.800000556183,4|0,3:1|0:0,0:0:0:0:
45,255,96892,2,0,B|36:225|36:225|122:262,1,124.200002368927,12|0,0:0|0:0,0:0:0:0:
134,299,97200,2,0,B|158:305|158:305|96:351,1,102.599997260284,4|0,3:1|0:0,0:0:0:0:
64,356,97508,2,0,L|55:275,1,81.0000030899049,12|0,0:0|0:0,0:0:0:0:
48,185,97815,6,0,L|122:204,2,48.5999985168458,12|8|8,0:0|0:0|0:0,0:0:0:0:
39,104,98123,2,0,L|-8:116,2,48.5999985168458,8|8|8,0:0|0:0|0:0,0:0:0:0:
119,114,98431,2,0,P|127:86|128:55,2,48.5999985168458,8|8|8,3:0|3:0|3:0,0:0:0:0:
172,181,98738,2,0,P|179:204|181:228,2,48.5999985168458,8|8|8,3:0|3:0|3:0,0:0:0:0:
205,105,99046,6,0,L|256:98,3,36.4499988876343,12|8|8|8,3:2|0:0|0:0|0:0,0:0:0:0:
323,87,99354,1,0,3:1:0:0:
298,183,99508,1,8,0:0:0:0:
298,183,99585,1,8,0:0:0:0:
298,183,99661,1,0,3:1:0:0:
388,162,99815,2,0,L|427:153,2,36.4499988876343,8|8|0,0:0|0:0|3:1,0:0:0:0:
362,262,100123,1,2,0:0:0:0:
202,205,100277,5,8,0:0:0:0:
298,183,100431,1,8,0:0:0:0:
298,183,100508,1,8,0:0:0:0:
298,183,100584,1,0,3:1:0:0:
264,279,100738,1,0,0:0:0:0:
109,207,100892,1,8,0:0:0:0:
216,117,101046,2,0,L|225:66,2,36.4499988876343,8|8|0,0:0|0:0|3:1,0:0:0:0:
159,294,101354,1,0,3:1:0:0:
159,294,101431,1,8,0:0:0:0:
159,294,101508,6,0,P|112:311|51:293,1,81,12|0,0:0|0:0,0:0:0:0:
15,229,101815,1,8,0:0:0:0:
109,207,101969,1,8,0:0:0:0:
82,309,102123,1,8,0:0:0:0:
43,138,102277,1,8,0:0:0:0:
201,188,102431,1,8,0:0:0:0:
15,229,102585,1,8,0:0:0:0:
140,110,102738,6,0,P|182:93|252:94,1,81,8|8,3:0|3:0,0:0:0:0:
279,208,103046,2,0,P|238:203|201:187,1,81,8|8,3:0|3:0,0:0:0:0:
336,121,103354,1,8,3:0:0:0:
359,255,103508,1,8,3:0:0:0:
368,135,103661,1,8,3:0:0:0:
382,238,103815,1,8,3:0:0:0:
400,149,103969,5,6,0:0:0:0:
400,149,104585,2,0,P|325:123|247:128,1,157.949992769623,8|0,0:0|0:0,0:0:0:0:
166,91,105200,6,0,L|158:154,1,52.6499975898744,2|0,0:0|0:0,0:0:0:0:
241,180,105508,2,0,L|247:127,1,52.6499975898744,2|0,0:0|0:0,0:0:0:0:
108,206,105815,2,0,P|137:222|167:222,1,52.6499975898744,8|0,0:0|0:0,0:0:0:0:
241,180,106123,2,0,P|270:164|300:164,1,52.6499975898744,2|0,0:0|0:0,0:0:0:0:
371,211,106431,6,0,L|379:274,1,52.6499975898744,2|0,0:0|0:0,0:0:0:0:
296,300,106739,2,0,L|289:247,1,52.6499975898744,2|0,0:0|0:0,0:0:0:0:
429,326,107046,2,0,P|400:342|370:342,1,52.6499975898744,8|0,0:0|0:0,0:0:0:0:
296,300,107354,2,0,P|267:284|237:284,1,52.6499975898744,2|0,0:0|0:0,0:0:0:0:
167,320,107661,5,2,0:0:0:0:
167,320,108277,2,0,B|123:349|123:349|11:329,1,157.949992769623,10|0,0:0|0:0,0:0:0:0:
60,254,108892,6,0,B|84:206|84:206|73:155,1,105.299995179749,2|0,0:0|0:0,0:0:0:0:
51,75,109354,1,2,0:0:0:0:
138,100,109508,1,8,0:0:0:0:
138,100,109969,1,2,0:0:0:0:
210,43,110123,6,0,P|268:25|322:40,1,105.299995179749,2|0,0:0|0:0,0:0:0:0:
370,95,110585,1,2,0:0:0:0:
285,125,110738,1,8,0:0:0:0:
285,125,111200,1,2,0:0:0:0:
354,183,111354,6,0,L|365:299,1,105.299995179749,8|0,0:0|0:0,0:0:0:0:
401,363,111815,1,2,0:0:0:0:
461,303,111969,2,0,P|414:279|352:294,1,105.299995179749,8|0,0:0|0:0,0:0:0:0:
295,363,112431,1,0,3:1:0:0:
295,363,112508,1,0,3:1:0:0:
295,363,112585,5,12,0:0:0:0:
273,266,112738,1,8,0:0:0:0:
273,266,112815,1,8,0:0:0:0:
273,266,112892,2,0,L|203:282,3,44.5500013595581,8|8|8|8,0:0|0:0|0:0|0:0,0:0:0:0:
168,339,113200,2,0,L|98:323,3,44.5500013595581,8|8|8|8,0:0|0:0|0:0|0:0,0:0:0:0:
43,312,113508,1,8,0:0:0:0:
23,285,113584,1,8,0:0:0:0:
16,252,113661,1,8,0:0:0:0:
22,220,113738,1,8,0:0:0:0:
40,192,113815,6,0,L|155:212,1,97.1999970336915,4|0,3:1|0:0,0:0:0:0:
325,259,114123,2,0,L|229:275,1,97.1999970336915,8|0,0:0|0:0,0:0:0:0:
178,83,114431,2,0,B|203:32|203:32|218:179,1,194.399994067383,2|8,3:0|0:0,0:0:0:0:
230,275,114892,1,2,0:0:0:0:
104,144,115046,6,0,P|86:100|91:52,1,97.1999970336915,2|0,3:0|0:0,0:0:0:0:
252,22,115354,2,0,P|270:66|265:114,1,97.1999970336915,10|0,0:0|0:0,0:0:0:0:
140,225,115661,2,0,P|92:230|47:212,1,97.1999970336915,2|0,3:0|0:0,0:0:0:0:
234,200,115969,2,0,P|281:194|326:212,1,97.1999970336915,10|0,0:0|0:0,0:0:0:0:
252,376,116277,6,0,L|244:285,1,89.1000027191163,6|0,3:1|0:0,0:0:0:0:
326,212,116585,2,0,L|333:300,1,89.1000027191163,10|0,0:0|0:0,0:0:0:0:
234,200,116892,2,0,B|186:174|186:174|108:187,1,109.350000417137,6|0,3:1|0:0,0:0:0:0:
333,300,117200,2,0,B|387:309|387:309|435:283,1,109.350000417137,8|0,0:0|0:0,0:0:0:0:
344,117,117508,6,0,P|329:177|409:134,1,194.399994067383,6|8,3:1|0:0,0:0:0:0:
409,60,117969,1,0,0:0:0:0:
252,84,118123,2,0,P|233:172|257:237,1,145.799995550537,2|0,3:0|0:0,0:0:0:0:
269,244,118431,2,0,P|288:309|278:356,1,97.1999970336915,8|0,0:0|0:0,0:0:0:0:
92,317,118738,6,0,B|189:305,1,97.1999970336915,4|0,3:1|0:0,0:0:0:0:
367,379,119046,2,0,B|270:366,1,97.1999970336915,8|0,0:0|0:0,0:0:0:0:
150,206,119354,2,0,P|241:198|283:279,1,194.399994067383,2|8,3:0|0:0,0:0:0:0:
189,305,119815,1,0,0:0:0:0:
80,144,119969,5,12,0:0:0:0:
16,324,120123,1,0,3:1:0:0:
65,117,120277,5,12,0:0:0:0:
100,290,120431,1,0,3:1:0:0:
167,111,120585,5,8,0:0:0:0:
167,111,120661,1,8,3:0:0:0:
167,111,120738,2,0,L|179:34,1,48.5999985168458,8|8,3:0|3:0,0:0:0:0:
245,160,120892,1,8,0:0:0:0:
245,160,120968,1,8,3:0:0:0:
245,160,121046,2,0,L|257:83,1,48.5999985168458,8|8,3:0|3:0,0:0:0:0:
319,206,121200,6,0,L|432:224,1,97.1999970336915,12|0,0:0|0:0,0:0:0:0:
509,245,121508,1,8,0:0:0:0:
418,315,121661,1,8,0:0:0:0:
414,221,121815,1,8,0:0:0:0:
506,331,121969,1,8,0:0:0:0:
334,266,122123,1,8,0:0:0:0:
486,161,122277,1,8,0:0:0:0:
397,342,122431,6,0,P|347:361|292:357,1,97.1999970336915,4|8,3:1|0:0,0:0:0:0:
217,366,122661,1,8,0:0:0:0:
202,341,122738,1,8,0:0:0:0:
196,313,122815,1,8,0:0:0:0:
199,284,122892,1,8,0:0:0:0:
212,258,122969,1,8,0:0:0:0:
232,237,123046,2,0,L|310:248,3,48.5999985168458,8|8|8|8,0:0|0:0|0:0|0:0,0:0:0:0:
194,162,123354,2,0,L|116:173,3,48.5999985168458,8|8|8|8,0:0|0:0|0:0|0:0,0:0:0:0:
255,103,123661,6,0,B|358:84|332:164|435:146,1,194.399994067383,6|8,3:0|0:0,0:0:0:0:
406,60,124123,1,2,0:0:0:0:
285,188,124277,2,0,P|268:240|280:304,1,97.1999970336915,2|0,3:0|3:1,0:0:0:0:
400,356,124585,1,10,0:0:0:0:
366,249,124738,1,2,0:0:0:0:
233,357,124892,6,0,P|144:361|107:269,1,194.399994067383,2|8,3:0|0:0,0:0:0:0:
147,170,125354,1,2,0:0:0:0:
286,237,125508,2,0,P|231:254|176:244,1,97.1999970336915,2|0,3:0|3:1,0:0:0:0:
111,84,125815,2,0,P|159:80|204:96,1,97.1999970336915,8|2,0:0|0:0,0:0:0:0:
30,134,126123,6,0,B|13:-9|13:-9|43:31,1,194.399994067383,2|8,3:0|0:0,0:0:0:0:
122,103,126585,1,2,0:0:0:0:
96,232,126738,2,0,P|37:232|-6:219,1,97.1999970336915,2|0,3:0|3:1,0:0:0:0:
176,178,127046,1,10,0:0:0:0:
208,288,127200,1,2,0:0:0:0:
362,204,127354,6,0,P|289:174|147:187,1,194.399994067383,2|8,3:0|0:0,0:0:0:0:
313,290,127815,1,2,0:0:0:0:
457,214,127969,1,2,3:0:0:0:
315,125,128123,1,0,3:1:0:0:
407,292,128277,2,0,P|453:305|501:300,1,97.1999970336915,8|2,0:0|0:0,0:0:0:0:
512,113,128585,6,0,B|471:136|466:188|466:188|443:143|394:132,1,186.300003553391,6|8,3:0|0:0,0:0:0:0:
248,74,129046,1,2,0:0:0:0:
284,230,129200,2,0,P|337:231|388:211,1,93.1500017766953,2|0,3:0|3:1,0:0:0:0:
222,159,129508,1,10,0:0:0:0:
170,326,129661,1,2,0:0:0:0:
36,152,129815,6,0,P|57:89|168:99,1,186.300003553391,2|8,3:0|0:0,0:0:0:0:
197,245,130277,1,2,0:0:0:0:
44,245,130431,2,0,L|36:139,1,93.1500017766953,2|0,3:0|3:1,0:0:0:0:
197,245,130738,2,0,L|204:337,1,93.1500017766953,8|2,0:0|0:0,0:0:0:0:
168,167,131046,6,0,B|267:148|242:225|341:208,1,186.300003553391,6|8,3:0|0:0,0:0:0:0:
451,175,131508,1,2,0:0:0:0:
315,126,131661,2,0,P|293:77|296:25,1,93.1500017766953,2|0,3:0|3:1,0:0:0:0:
447,6,131969,1,10,0:0:0:0:
401,98,132123,1,2,0:0:0:0:
316,2,132277,5,0,3:1:0:0:
489,86,132431,1,8,0:0:0:0:
315,126,132585,1,8,0:0:0:0:
295,122,132661,1,8,0:0:0:0:
276,118,132738,1,8,0:0:0:0:
256,114,132815,1,8,0:0:0:0:
237,110,132892,2,0,L|229:48,3,46.5750008883476,8|8|8|8,0:0|0:0|0:0|0:0,0:0:0:0:
163,159,133200,2,0,L|155:221,3,46.5750008883476,8|8|8|8,0:0|0:0|0:0|0:0,0:0:0:0:
148,72,133508,6,0,P|96:13|2:45,1,186.300003553391,6|8,3:0|0:0,0:0:0:0:
0,159,133969,1,2,0:0:0:0:
163,159,134123,2,0,P|215:137|241:98,1,93.1500017766953,2|0,3:0|0:0,0:0:0:0:
79,125,134431,1,10,0:0:0:0:
106,264,134585,1,2,0:0:0:0:
307,129,134738,6,0,P|225:96|162:158,1,186.300003553391,2|8,3:0|0:0,0:0:0:0:
209,263,135200,1,2,0:0:0:0:
380,198,135354,2,0,P|426:197|472:188,1,93.1500017766953,2|0,3:0|0:0,0:0:0:0:
243,180,135661,2,0,P|197:171|150:170,1,93.1500017766953,8|2,0:0|0:0,0:0:0:0:
418,102,135969,6,0,P|437:200|442:300,1,186.300003553391,2|8,3:0|0:0,0:0:0:0:
354,375,136431,1,2,0:0:0:0:
299,244,136585,2,0,P|290:198|289:151,1,93.1500017766953,2|0,3:0|0:0,0:0:0:0:
365,293,136892,1,8,0:0:0:0:
209,263,137046,1,2,0:0:0:0:
249,82,137200,6,0,P|328:80|367:179,1,186.300003553391,2|8,3:0|0:0,0:0:0:0:
207,152,137661,1,2,0:0:0:0:
96,21,137815,2,0,P|46:5|-5:4,1,93.1500017766953,2|0,3:0|0:0,0:0:0:0:
68,158,138123,1,8,0:0:0:0:
170,79,138277,1,2,0:0:0:0:
170,79,138354,1,2,0:0:0:0:
170,79,138431,6,0,B|266:49|249:128|346:101,1,186.300003553391,6|8,3:0|0:0,0:0:0:0:
498,47,138892,1,2,0:0:0:0:
402,173,139046,2,0,P|390:225|393:274,1,93.1500017766953,2|0,3:0|0:0,0:0:0:0:
488,156,139354,1,8,0:0:0:0:
347,101,139508,1,2,0:0:0:0:
350,334,139661,6,0,P|429:336|468:237,1,186.300003553391,2|8,3:0|0:0,0:0:0:0:
402,173,140123,1,2,0:0:0:0:
275,287,140277,2,0,P|222:305|162:296,1,93.1500017766953,14|0,0:0|0:0,0:0:0:0:
224,172,140585,1,8,3:0:0:0:
242,175,140661,1,8,3:0:0:0:
261,179,140738,1,8,3:0:0:0:
282,183,140815,1,8,3:0:0:0:
302,186,140892,6,0,L|421:207,1,93.1500017766953,6|0,3:0|0:0,0:0:0:0:
238,111,141200,2,0,P|210:143|211:230,1,93.1500017766953,8|8,0:0|0:0,0:0:0:0:
217,370,141508,2,0,P|208:324|178:289,1,93.1500017766953,8|8,0:0|0:0,0:0:0:0:
100,228,141815,1,8,0:0:0:0:
100,228,141969,1,8,0:0:0:0:
62,142,142123,5,8,0:0:0:0:
155,149,142277,1,8,0:0:0:0:
10,221,142431,1,8,0:0:0:0:
118,71,142585,1,8,0:0:0:0:
102,255,142738,1,8,0:0:0:0:
34,63,142892,1,8,0:0:0:0:
231,111,143046,1,8,0:0:0:0:
62,142,143200,1,8,0:0:0:0:
195,24,143354,6,0,P|263:23|318:45,1,121.500004634857,2|0,0:0|0:0,0:0:0:0:
352,130,143815,1,2,0:0:0:0:
352,130,143969,2,0,P|420:130|475:109,1,121.500004634857,2|2,0:0|0:0,0:0:0:0:
418,32,144431,1,2,0:0:0:0:
418,32,144585,6,0,L|409:177,1,121.500004634857,2|0,0:0|0:0,0:0:0:0:
495,216,145046,1,2,0:0:0:0:
495,216,145200,2,0,L|504:361,1,121.500004634857,2|0,0:0|0:0,0:0:0:0:
332,234,145815,6,0,P|286:187|233:204,1,121.500004634857,2|0,0:0|0:0,0:0:0:0:
189,287,146329,1,2,0:0:0:0:
189,287,146491,2,0,P|118:303|57:292,1,121.500004634857,2|2,0:0|0:0,0:0:0:0:
16,210,146977,1,2,0:0:0:0:
16,210,147139,6,0,B|60:205|60:205|81:184|81:184|146:178,1,121.500004634857,2|0,0:0|0:0,0:0:0:0:
192,106,147645,1,2,0:0:0:0:
192,106,147827,2,0,B|224:136|224:136|217:235,1,121.500004634857,2|0,0:0|0:0,0:0:0:0:
