osu file format v14

[General]
AudioFilename: audio.mp3
AudioLeadIn: 0
PreviewTime: 54728
Countdown: 0
SampleSet: Soft
StackLeniency: 0.5
Mode: 0
LetterboxInBreaks: 0
WidescreenStoryboard: 1

[Editor]
Bookmarks: 10421,35036,54728,84267
DistanceSpacing: 1.2
BeatDivisor: 3
GridSize: 32
TimelineZoom: 0.9999999

[Metadata]
Title:KIRIFUDA
TitleUnicode:キリフダ
Artist:PENGUIN RESEARCH
ArtistUnicode:PENGUIN RESEARCH
Creator:banter
Version:Hard
Source:シャドウバース
Tags:shadowverse opening anime pop j-pop rock male vocals full version horie shota 堀江晶太 yoji ikuta 生田鷹司 sacra music japanese green leaves summer
BeatmapID:2521286
BeatmapSetID:1193081

[Difficulty]
HPDrainRate:4
CircleSize:3.7
OverallDifficulty:6
ApproachRate:8
SliderMultiplier:1.3
SliderTickRate:1

[Events]
//Background and Video events
0,0,"A24nTXo.jpg",0,0
//Break Periods
2,104169,110604
//Storyboard Layer 0 (Background)
//Storyboard Layer 1 (Fail)
//Storyboard Layer 2 (Pass)
//Storyboard Layer 3 (Foreground)
//Storyboard Layer 4 (Overlay)
//Storyboard Sound Samples

[TimingPoints]
585,307.692307692308,4,2,0,50,1,0
585,-125,4,2,0,35,0,0
10431,-86.9565217391304,4,2,1,75,0,1
15354,-100,4,2,1,50,0,0
29123,-100,4,2,1,5,0,0
29200,-100,4,2,1,50,0,0
31585,-100,4,2,1,5,0,0
31661,-100,4,2,1,50,0,0
35046,-111.111111111111,4,2,1,50,0,0
47354,-100,4,2,1,75,0,0
47661,-100,4,2,1,65,0,0
47969,-100,4,2,1,55,0,0
48277,-111.111111111111,4,2,1,45,0,0
48585,-100,4,2,1,50,0,0
49815,-100,4,2,1,60,0,0
52277,-100,4,2,1,60,0,0
52585,-100,4,2,1,55,0,0
52892,-100,4,2,1,65,0,0
53200,-100,4,2,1,75,0,0
53508,-100,4,2,1,75,0,0
54738,-83.3333333333333,4,2,1,80,0,1
67046,-83.3333333333333,4,2,1,75,0,1
67661,-83.3333333333333,4,2,1,85,0,1
68277,-83.3333333333333,4,2,1,80,0,1
74431,-83.3333333333333,4,2,1,75,0,1
76892,-86.9565217391304,4,2,1,70,0,1
84277,-111.111111111111,4,2,1,50,0,0
96585,-100,4,2,1,75,0,0
96892,-100,4,2,1,65,0,0
97200,-100,4,2,1,55,0,0
97508,-111.111111111111,4,2,1,45,0,0
97815,-100,4,2,1,50,0,0
99046,-100,4,2,1,60,0,0
101508,-100,4,2,1,70,0,0
101815,-100,4,2,1,55,0,0
102123,-100,4,2,1,70,0,0
102431,-100,4,2,1,80,0,0
102738,-100,4,2,1,85,0,0
103046,-100,4,2,1,70,0,0
103354,-100,4,2,1,60,0,0
103661,-100,4,2,1,50,0,0
103969,-100,4,2,1,65,0,0
104585,-125,4,2,0,35,0,0
112431,-100,4,2,1,50,0,0
112585,-100,4,2,1,50,0,0
113815,-83.3333333333333,4,2,1,80,0,1
116277,-83.3333333333333,4,2,1,75,0,1
116892,-83.3333333333333,4,2,1,85,0,1
117508,-83.3333333333333,4,2,1,80,0,1
123661,-83.3333333333333,4,2,1,75,0,1
128585,-86.9565217391304,4,2,1,70,0,1
132585,-86.9565217391304,4,2,1,50,0,1
132892,-86.9565217391304,4,2,1,70,0,1
141200,-86.9565217391304,4,2,1,40,0,1
141508,-86.9565217391304,4,2,1,50,0,1
141815,-86.9565217391304,4,2,1,60,0,1
142123,-86.9565217391304,4,2,1,70,0,1
142431,-86.9565217391304,4,2,1,80,0,1
142738,-86.9565217391304,4,2,1,85,0,1
143046,-86.9565217391304,4,2,1,90,0,1
143354,-125,4,2,1,30,0,0
145815,342.857142857143,4,2,1,30,1,0
145815,-125,4,2,1,30,0,0
146329,324.324324324324,4,2,1,30,1,0
146329,-125,4,2,1,30,0,0
147139,-130.446125750065,4,2,1,30,0,0
147464,363.636363636364,4,2,1,30,1,0
147464,-125,4,2,1,30,0,0
148191,-153.846153846154,4,2,1,15,0,0

[Colours]
Combo1 : 248,231,75
Combo2 : 73,241,153
Combo3 : 141,193,252

[HitObjects]
287,277,585,6,0,P|384:274|404:208,1,156,2|2,2:0|2:0,0:0:0:0:
444,156,1200,2,0,L|336:141,1,104,2|0,2:0|0:0,0:0:0:0:
258,128,1661,1,2,2:0:0:0:
258,128,1815,2,0,B|172:113|197:177|112:164,1,156,2|2,2:0|2:0,0:0:0:0:
48,218,2431,2,0,P|33:137|52:107,1,104,2|2,2:0|2:0,0:0:0:0:
165,10,3046,6,0,L|146:179,1,156,2|2,2:0|2:0,0:0:0:0:
81,215,3661,2,0,L|94:337,1,104,2|0,2:0|0:0,0:0:0:0:
168,354,4123,1,2,2:0:0:0:
168,354,4277,2,0,P|232:320|320:327,1,156,2|2,2:0|2:0,0:0:0:0:
394,304,4892,2,0,P|341:298|303:261,1,104,2|2,2:0|2:0,0:0:0:0:
358,75,5508,6,0,B|388:111|388:111|376:227,1,156,2|2,2:0|2:0,0:0:0:0:
300,185,6123,2,0,P|246:183|193:203,1,104,2|0,2:0|0:0,0:0:0:0:
149,266,6585,1,2,2:0:0:0:
149,266,6738,2,0,P|90:267|71:180,1,156,2|2,2:0|2:0,0:0:0:0:
82,102,7354,2,0,P|130:118|182:116,1,104,2|2,2:0|2:0,0:0:0:0:
338,28,7969,6,0,P|415:58|404:128,1,156,2|2,2:0|2:0,0:0:0:0:
335,156,8585,2,0,P|321:214|324:267,1,104,2|0,2:0|0:0,0:0:0:0:
379,326,9046,1,2,2:0:0:0:
379,326,9200,2,0,B|278:301|278:301|235:333,1,156,0|2,2:0|2:0,0:0:0:0:
169,381,9815,1,2,2:0:0:0:
241,29,10431,6,0,P|289:100|267:182,1,149.500002851486,6|8,0:0|0:0,0:0:0:0:
211,216,10892,1,2,0:0:0:0:
125,189,11046,2,0,P|104:158|99:121,1,74.7500014257431,2|0,3:0|0:0,0:0:0:0:
194,131,11354,1,10,0:0:0:0:
194,131,11508,1,2,0:0:0:0:
292,181,11661,6,0,B|352:178|352:178|382:200|382:200|453:194,1,149.500002851486,2|8,3:0|0:0,0:0:0:0:
496,130,12123,1,2,0:0:0:0:
415,44,12277,2,0,L|408:118,1,74.7500014257431,2|0,3:0|0:0,0:0:0:0:
320,96,12585,2,0,L|326:170,1,74.7500014257431,8|2,0:0|0:0,0:0:0:0:
308,267,12892,6,0,P|254:317|182:313,1,149.500002851486,2|8,3:0|0:0,0:0:0:0:
91,306,13354,1,2,0:0:0:0:
91,306,13508,2,0,P|68:262|68:210,1,74.7500014257431,2|0,3:0|0:0,0:0:0:0:
127,173,13815,1,10,0:0:0:0:
127,173,13969,1,2,0:0:0:0:
183,260,14123,6,0,L|343:246,1,149.500002851486,6|8,0:0|0:0,0:0:0:0:
422,242,14585,1,2,0:0:0:0:
366,173,14738,2,0,L|302:163,3,37.3750007128716,0|0|0|0,3:0|3:0|3:0|3:0,0:0:0:0:
293,138,15046,2,0,L|229:148,3,37.3750007128716,0|0|0|0,3:0|3:0|3:0|3:0,0:0:0:0:
217,151,15354,6,0,P|179:109|193:36,1,130,6|10,0:0|0:0,0:0:0:0:
274,20,15815,1,2,0:0:0:0:
274,20,15969,2,0,L|351:30,1,65,2|2,3:0|3:0,0:0:0:0:
369,107,16277,2,0,L|446:97,1,65,10|2,0:0|0:0,0:0:0:0:
500,44,16585,6,0,P|471:101|488:163,1,130,2|8,3:0|0:0,0:0:0:0:
420,213,17046,2,0,P|450:241|491:251,1,65,2|0,0:0|3:1,0:0:0:0:
479,333,17354,2,0,P|449:361|408:371,1,65,2|8,3:0|0:0,0:0:0:0:
381,297,17661,6,0,P|330:282|247:285,1,130,2|0,0:0|3:1,0:0:0:0:
180,240,18123,2,0,L|171:317,1,65,8|0,0:0|0:0,0:0:0:0:
106,358,18431,2,0,P|70:370|33:371,1,65,0|0,3:1|3:1,0:0:0:0:
7,295,18738,2,0,L|0:230,1,65,8|0,0:0|0:0,0:0:0:0:
101,163,19046,2,0,L|93:227,1,65,0|0,3:1|3:1,0:0:0:0:
157,284,19354,2,0,P|193:296|230:297,1,65,8|0,0:0|0:0,0:0:0:0:
297,263,19661,5,2,3:0:0:0:
297,263,19815,1,2,3:0:0:0:
228,213,19969,1,10,0:0:0:0:
228,213,20123,6,0,P|213:138|220:74,1,130,2|0,0:0|3:1,0:0:0:0:
301,97,20585,1,10,0:0:0:0:
301,97,20738,2,0,B|387:117|387:117|440:81,1,130,2|0,0:0|3:1,0:0:0:0:
486,38,21200,1,10,0:0:0:0:
486,38,21354,6,0,P|423:9|360:37,1,130,2|0,0:0|3:1,0:0:0:0:
310,89,21815,2,0,P|258:101|229:97,1,65,10|2,0:0|0:0,0:0:0:0:
184,35,22123,1,0,3:1:0:0:
184,35,22200,1,0,3:1:0:0:
184,35,22277,2,0,P|132:23|103:27,1,65,0|10,3:1|0:0,0:0:0:0:
38,2,22585,6,0,L|25:141,1,130,2|0,0:0|3:1,0:0:0:0:
8,214,23046,2,0,P|48:214|77:201,1,65,8|0,0:0|0:0,0:0:0:0:
111,130,23354,2,0,P|151:130|180:143,1,65,0|0,3:1|3:1,0:0:0:0:
249,102,23661,2,0,L|260:183,1,65,8|0,0:0|0:0,0:0:0:0:
347,58,23969,6,0,L|336:139,1,65,0|0,3:1|3:1,0:0:0:0:
382,194,24277,2,0,P|412:204|444:203,1,65,8|0,0:0|0:0,0:0:0:0:
487,129,24585,2,0,P|456:118|424:119,1,65,0|0,3:1|3:1,0:0:0:0:
382,194,24892,2,0,L|375:275,1,65,10|0,0:0|0:0,0:0:0:0:
331,341,25200,6,0,P|270:372|195:363,1,130,6|10,0:0|0:0,0:0:0:0:
141,329,25661,1,2,0:0:0:0:
141,329,25815,2,0,L|133:260,1,65,2|0,3:0|3:0,0:0:0:0:
58,235,26123,1,10,0:0:0:0:
58,235,26277,1,2,0:0:0:0:
123,181,26431,6,0,B|188:167|182:221|246:207,1,130,2|10,3:0|0:0,0:0:0:0:
317,252,26892,2,0,P|327:219|325:183,1,65,2|0,0:0|3:1,0:0:0:0:
382,125,27200,1,0,3:1:0:0:
382,125,27354,1,10,0:0:0:0:
313,74,27508,6,0,P|251:72|188:99,1,130,2|0,0:0|3:1,0:0:0:0:
183,182,27969,2,0,P|142:174|108:153,1,65,8|0,0:0|0:0,0:0:0:0:
44,199,28277,2,0,L|34:114,1,65,0|0,3:1|3:1,0:0:0:0:
114,98,28585,2,0,L|121:162,1,65,8|2,0:0|0:0,0:0:0:0:
131,246,28892,6,0,P|180:269|236:271,1,97.5,0|0,3:1|0:0,0:0:0:0:
262,255,29200,1,8,0:0:0:0:
329,204,29354,2,0,P|383:183|473:185,1,130,2|0,0:0|3:1,0:0:0:0:
501,251,29815,1,8,0:0:0:0:
501,251,29969,6,0,L|483:379,1,130,2|0,0:0|3:1,0:0:0:0:
403,348,30431,2,0,P|364:333|319:336,1,65,8|0,0:0|0:0,0:0:0:0:
264,368,30738,2,0,P|225:383|180:380,1,65,0|0,3:1|3:1,0:0:0:0:
119,365,31046,2,0,L|111:289,1,65,8|2,0:0|0:0,0:0:0:0:
47,245,31354,6,0,P|89:219|143:221,1,97.5,0|0,3:1|0:0,0:0:0:0:
172,240,31661,1,8,0:0:0:0:
233,298,31815,2,0,B|266:327|266:327|356:312,1,130,2|0,0:0|3:1,0:0:0:0:
432,290,32277,1,8,0:0:0:0:
432,290,32431,6,0,P|459:235|447:168,1,130,2|0,0:0|3:1,0:0:0:0:
459,85,32892,2,0,P|426:86|395:96,1,65,8|0,0:0|0:0,0:0:0:0:
348,167,33200,2,0,P|315:165|284:155,1,65,0|0,3:1|3:1,0:0:0:0:
208,192,33508,2,0,L|197:127,1,65,8|0,0:0|0:0,0:0:0:0:
183,44,33815,5,0,3:1:0:0:
183,44,33969,1,8,0:0:0:0:
118,98,34123,2,0,P|107:128|106:161,1,65,0|0,3:1|0:0,0:0:0:0:
142,238,34431,2,0,L|208:227,2,43.3333333333333,8|8|8,0:0|0:0|0:0,0:0:0:0:
105,280,34738,2,0,L|39:269,2,43.3333333333333,8|8|8,0:0|0:0|0:0,0:0:0:0:
137,326,35046,5,4,3:1:0:0:
261,261,35354,1,2,0:0:0:0:
344,373,35661,1,10,0:0:0:0:
366,234,35969,2,0,P|427:213|470:213,1,77.999997619629,2|2,0:0|0:0,0:0:0:0:
485,222,36277,6,0,L|499:135,1,77.999997619629,2|2,3:0|0:0,0:0:0:0:
507,99,36585,1,2,0:0:0:0:
415,118,36790,1,2,0:0:0:0:
402,131,36892,2,0,P|341:128|304:106,1,77.999997619629,10|2,0:0|0:0,0:0:0:0:
297,84,37200,2,0,P|236:87|199:109,1,77.999997619629,2|2,0:0|0:0,0:0:0:0:
174,86,37508,6,0,P|149:143|159:219,1,116.999996429443,0|2,3:1|0:0,0:0:0:0:
275,263,38123,2,0,P|238:212|167:183,1,116.999996429443,10|2,0:0|0:0,0:0:0:0:
71,261,38738,6,0,P|132:254|193:207,1,116.999996429443,2|2,3:0|0:0,0:0:0:0:
322,163,39354,2,0,P|365:164|408:183,1,77.999997619629,8|2,0:0|0:0,0:0:0:0:
433,205,39661,1,2,0:0:0:0:
393,339,39969,5,2,3:0:0:0:
283,250,40277,2,0,L|191:272,1,77.999997619629,2|2,0:0|0:0,0:0:0:0:
192,312,40585,2,0,L|100:290,1,77.999997619629,10|0,0:0|0:0,0:0:0:0:
71,307,40892,2,0,P|56:264|59:211,1,77.999997619629,2|0,0:0|0:0,0:0:0:0:
37,188,41200,6,0,L|171:208,1,116.999996429443,2|2,3:0|0:0,0:0:0:0:
243,98,41815,2,0,L|109:118,1,116.999996429443,8|2,0:0|0:0,0:0:0:0:
36,6,42431,6,0,L|132:24,1,77.999997619629,2|0,3:0|0:0,0:0:0:0:
158,27,42738,1,2,0:0:0:0:
245,137,43046,2,0,L|341:119,1,77.999997619629,10|0,0:0|0:0,0:0:0:0:
367,116,43353,1,2,0:0:0:0:
452,0,43661,6,0,L|441:77,1,77.999997619629,2|2,0:0|0:0,0:0:0:0:
461,119,43969,2,0,L|449:210,1,77.999997619629,2|0,0:0|0:0,0:0:0:0:
448,243,44277,2,0,P|479:272|513:287,2,77.999997619629,8|8|8,0:0|0:0|0:0,0:0:0:0:
364,285,44892,6,0,P|302:250|230:265,1,116.999996429443,4|0,3:1|0:0,0:0:0:0:
199,326,45405,1,2,0:0:0:0:
186,338,45508,2,0,P|148:350|109:349,1,77.999997619629,10|0,0:0|0:0,0:0:0:0:
67,368,45815,2,0,L|53:276,1,77.999997619629,2|2,0:0|0:0,0:0:0:0:
49,244,46123,2,0,P|110:256|158:221,1,116.999996429443,2|0,3:0|0:0,0:0:0:0:
244,107,46738,6,0,P|236:124|231:143,2,38.9999988098145,8|8|8,0:0|0:0|0:0,0:0:0:0:
278,74,47046,2,0,P|273:55|265:37,2,38.9999988098145,8|8|8,0:0|0:0|0:0,0:0:0:0:
324,97,47354,6,0,P|385:107|429:98,1,86.6666666666667,4|0,3:1|0:0,0:0:0:0:
451,133,47661,2,0,P|411:180|397:223,1,86.6666666666667,14|0,0:0|0:0,0:0:0:0:
356,224,47969,2,0,P|334:166|304:132,1,86.6666666666667,4|0,3:1|0:0,0:0:0:0:
280,111,48277,2,0,L|195:129,1,77.999997619629,12|0,0:0|0:0,0:0:0:0:
152,137,48585,5,8,0:0:0:0:
105,290,48892,2,0,L|197:277,1,65,8|8,0:0|0:0,0:0:0:0:
207,205,49200,2,0,L|299:218,1,65,8|8,0:0|0:0,0:0:0:0:
311,292,49508,1,8,0:0:0:0:
395,292,49661,1,8,0:0:0:0:
354,215,49815,6,0,P|353:182|360:150,1,65,4|0,3:1|0:0,0:0:0:0:
410,85,50123,2,0,P|352:113|290:100,1,130,8|0,0:0|3:1,0:0:0:0:
210,122,50585,1,0,3:1:0:0:
210,122,50738,2,0,P|156:106|125:111,1,65,8|2,0:0|0:0,0:0:0:0:
75,150,51046,5,0,3:1:0:0:
75,150,51200,1,0,3:1:0:0:
149,189,51354,2,0,P|165:243|160:274,1,65,8|0,0:0|0:0,0:0:0:0:
92,291,51661,1,0,3:1:0:0:
92,291,51815,2,0,P|135:327|207:319,1,130,0|2,3:1|0:0,0:0:0:0:
294,355,52277,6,0,L|302:276,1,65,8|0,0:0|0:0,0:0:0:0:
379,241,52585,2,0,L|385:305,1,65,8|8,0:0|0:0,0:0:0:0:
463,350,52892,1,8,0:0:0:0:
504,276,53046,1,8,0:0:0:0:
473,197,53200,2,0,L|404:206,1,65,8|8,0:0|0:0,0:0:0:0:
301,261,53508,6,0,L|232:252,1,65,12|0,0:0|0:0,0:0:0:0:
162,211,53815,2,0,L|159:165,3,32.5,0|0|0|0,3:0|3:0|3:0|3:0,0:0:0:0:
125,155,54123,2,0,L|128:109,3,32.5,0|0|0|0,3:0|3:0|3:0|3:0,0:0:0:0:
162,99,54431,2,0,L|159:53,3,32.5,0|0|0|0,3:0|3:0|3:0|3:0,0:0:0:0:
139,26,54738,6,0,P|92:28|57:43,1,77.999997619629,4|0,3:1|0:0,0:0:0:0:
13,113,55046,2,0,L|23:199,1,77.999997619629,8|0,0:0|0:0,0:0:0:0:
15,299,55354,2,0,B|115:268|115:268|167:303,1,155.999995239258,2|8,3:0|0:0,0:0:0:0:
234,352,55815,1,0,0:0:0:0:
234,352,55969,6,0,L|247:266,1,77.999997619629,2|0,3:0|0:0,0:0:0:0:
322,220,56277,2,0,L|333:297,1,77.999997619629,10|0,0:0|0:0,0:0:0:0:
405,352,56585,2,0,P|441:364|480:365,1,77.999997619629,2|0,3:0|0:0,0:0:0:0:
491,276,56892,2,0,P|454:263|415:262,1,77.999997619629,10|0,0:0|0:0,0:0:0:0:
333,297,57200,6,0,P|259:324|169:314,1,155.999995239258,2|10,3:0|0:0,0:0:0:0:
122,254,57661,1,0,0:0:0:0:
122,254,57815,2,0,P|159:238|216:237,1,77.999997619629,2|0,3:0|0:0,0:0:0:0:
265,159,58123,2,0,P|226:155|190:139,1,77.999997619629,10|0,0:0|0:0,0:0:0:0:
309,61,58431,6,0,L|319:224,1,155.999995239258,2|8,3:0|0:0,0:0:0:0:
328,305,58892,1,0,0:0:0:0:
396,247,59046,2,0,L|493:234,1,77.999997619629,2|0,3:0|0:0,0:0:0:0:
504,151,59354,2,0,P|515:109|511:69,1,77.999997619629,8|0,0:0|0:0,0:0:0:0:
423,31,59661,6,0,B|323:0|323:0|271:35,1,155.999995239258,0|8,3:0|0:0,0:0:0:0:
212,88,60123,1,2,0:0:0:0:
158,160,60277,2,0,P|99:166|34:98,1,155.999995239258,0|8,3:1|0:0,0:0:0:0:
57,10,60738,1,2,0:0:0:0:
121,77,60892,6,0,B|150:118|150:118|131:244,1,155.999995239258,0|8,3:1|0:0,0:0:0:0:
119,315,61354,1,2,0:0:0:0:
205,279,61508,2,0,P|276:259|341:312,1,155.999995239258,0|8,3:1|0:0,0:0:0:0:
258,355,61969,1,2,0:0:0:0:
167,378,62123,6,0,L|151:207,1,155.999995239258,0|8,3:1|0:0,0:0:0:0:
94,148,62585,1,2,0:0:0:0:
180,113,62738,2,0,P|227:107|282:16,1,155.999995239258,0|8,3:1|0:0,0:0:0:0:
376,17,63200,1,2,0:0:0:0:
430,112,63354,6,0,L|339:100,1,77.999997619629,4|0,3:1|0:0,0:0:0:0:
294,197,63661,2,0,L|385:185,1,77.999997619629,12|0,0:0|0:0,0:0:0:0:
461,197,63969,1,8,0:0:0:0:
409,272,64123,1,8,0:0:0:0:
409,272,64200,1,8,0:0:0:0:
409,272,64277,2,0,L|402:334,3,38.9999988098145,8|8|8|8,0:0|0:0|0:0|0:0,0:0:0:0:
383,351,64585,6,0,P|325:366|281:354,1,77.999997619629,4|0,3:1|0:0,0:0:0:0:
219,383,64892,2,0,L|207:290,1,77.999997619629,8|0,0:0|0:0,0:0:0:0:
138,198,65200,2,0,B|212:180|209:241|285:224,1,155.999995239258,2|8,3:0|0:0,0:0:0:0:
364,179,65661,1,2,0:0:0:0:
364,179,65815,6,0,P|375:137|370:92,1,77.999997619629,2|0,3:0|0:0,0:0:0:0:
432,31,66123,2,0,L|350:12,1,77.999997619629,10|0,0:0|0:0,0:0:0:0:
289,75,66431,2,0,P|247:86|202:81,1,77.999997619629,2|0,3:0|0:0,0:0:0:0:
139,135,66738,2,0,L|125:50,1,77.999997619629,10|0,0:0|0:0,0:0:0:0:
13,16,67046,6,0,P|-2:96|19:176,1,155.999995239258,6|10,3:1|0:0,0:0:0:0:
91,222,67508,1,0,0:0:0:0:
211,173,67661,2,0,P|247:161|302:166,1,77.999997619629,6|0,3:1|0:0,0:0:0:0:
298,251,67969,2,0,P|262:263|207:258,1,77.999997619629,10|0,0:0|0:0,0:0:0:0:
370,200,68277,6,0,P|398:272|397:359,1,155.999995239258,6|8,3:1|0:0,0:0:0:0:
314,380,68738,1,0,0:0:0:0:
240,329,68892,2,0,P|200:312|142:311,1,77.999997619629,2|0,3:0|0:0,0:0:0:0:
94,245,69200,2,0,L|72:337,1,77.999997619629,8|0,0:0|0:0,0:0:0:0:
180,220,69508,6,0,P|142:167|56:163,1,155.999995239258,4|8,3:1|0:0,0:0:0:0:
94,245,69969,1,0,0:0:0:0:
166,308,70123,2,0,B|240:322|234:261|311:274,1,155.999995239258,2|8,3:0|0:0,0:0:0:0:
393,315,70585,1,0,0:0:0:0:
429,213,70738,6,0,L|445:128,1,77.999997619629,4|0,3:1|0:0,0:0:0:0:
354,88,71046,2,0,L|339:164,1,77.999997619629,8|0,0:0|0:0,0:0:0:0:
256,211,71354,2,0,P|211:222|165:215,1,77.999997619629,8|0,0:0|0:0,0:0:0:0:
99,179,71661,1,8,3:0:0:0:
175,131,71815,1,8,3:0:0:0:
178,122,71892,1,8,3:0:0:0:
182,113,71969,6,0,P|198:70|193:18,1,77.999997619629,4|0,0:0|0:0,0:0:0:0:
108,18,72277,2,0,P|92:61|97:113,1,77.999997619629,8|8,0:0|0:0,0:0:0:0:
99,179,72585,1,8,0:0:0:0:
142,256,72738,1,8,0:0:0:0:
231,253,72892,1,8,0:0:0:0:
256,172,73045,1,8,0:0:0:0:
317,105,73200,6,0,P|355:106|392:120,1,77.999997619629,12|0,0:0|0:0,0:0:0:0:
425,204,73508,2,0,L|434:269,3,38.9999988098145,8|8|8|8,0:0|0:0|0:0|0:0,0:0:0:0:
452,283,73815,2,0,L|443:348,3,38.9999988098145,8|8|8|8,0:0|0:0|0:0|0:0,0:0:0:0:
406,343,74123,2,0,L|411:381,3,38.9999988098145,8|8|8|8,0:0|0:0|0:0|0:0,0:0:0:0:
366,376,74431,6,0,B|268:340|268:340|208:368,1,155.999995239258,6|8,3:0|0:0,0:0:0:0:
127,370,74892,1,2,0:0:0:0:
174,289,75046,2,0,P|185:241|180:202,1,77.999997619629,2|0,3:0|3:1,0:0:0:0:
145,131,75354,1,10,0:0:0:0:
145,131,75508,1,2,0:0:0:0:
257,164,75661,6,0,P|332:178|387:120,1,155.999995239258,2|8,3:0|0:0,0:0:0:0:
431,50,76123,1,2,0:0:0:0:
338,48,76277,2,0,P|297:61|251:60,1,77.999997619629,2|0,3:0|3:1,0:0:0:0:
181,13,76585,2,0,P|140:0|94:1,1,77.999997619629,8|2,0:0|0:0,0:0:0:0:
4,35,76892,6,0,L|20:190,1,149.500002851486,2|8,3:0|0:0,0:0:0:0:
4,276,77354,1,2,0:0:0:0:
4,276,77508,2,0,P|37:264|86:263,1,74.7500014257431,2|0,3:0|3:1,0:0:0:0:
135,336,77815,1,10,0:0:0:0:
135,336,77969,1,2,0:0:0:0:
228,364,78123,6,0,P|295:380|385:370,1,149.500002851486,2|8,3:0|0:0,0:0:0:0:
439,311,78585,1,2,0:0:0:0:
439,311,78738,2,0,L|447:226,1,74.7500014257431,2|0,3:0|3:1,0:0:0:0:
356,220,79046,2,0,L|348:135,1,74.7500014257431,8|2,0:0|0:0,0:0:0:0:
394,49,79354,6,0,P|346:102|276:87,1,149.500002851486,6|8,3:0|0:0,0:0:0:0:
218,18,79815,1,2,0:0:0:0:
159,86,79969,2,0,P|148:128|148:170,1,74.7500014257431,2|0,3:0|3:1,0:0:0:0:
175,249,80277,1,10,0:0:0:0:
175,249,80431,1,2,0:0:0:0:
235,156,80585,6,0,L|87:172,1,149.500002851486,2|8,3:0|0:0,0:0:0:0:
0,151,81046,1,2,0:0:0:0:
21,244,81200,2,0,L|11:334,1,74.7500014257431,2|0,3:0|3:1,0:0:0:0:
93,373,81508,2,0,L|101:298,1,74.7500014257431,8|2,0:0|0:0,0:0:0:0:
181,244,81815,6,0,P|240:205|331:232,1,149.500002851486,2|12,3:0|0:0,0:0:0:0:
359,302,82277,1,2,0:0:0:0:
359,302,82431,2,0,P|410:316|446:313,1,74.7500014257431,2|0,3:0|3:1,0:0:0:0:
510,270,82738,1,10,0:0:0:0:
510,270,82892,1,2,0:0:0:0:
431,222,83046,6,0,B|341:176|341:176|291:201,1,149.500002851486,8|8,0:0|0:0,0:0:0:0:
225,251,83508,1,0,0:0:0:0:
188,169,83661,2,0,P|179:136|181:104,2,49.8333342838288,8|8|8,3:0|3:0|3:0,0:0:0:0:
152,206,83969,2,0,P|150:230|142:254,2,49.8333342838288,8|8|8,3:0|3:0|3:0,0:0:0:0:
111,181,84277,5,4,3:1:0:0:
83,318,84585,1,2,0:0:0:0:
24,190,84892,2,0,L|11:80,1,77.999997619629,10|2,0:0|0:0,0:0:0:0:
38,71,85200,2,0,P|99:50|142:50,1,77.999997619629,2|2,0:0|0:0,0:0:0:0:
145,81,85508,6,0,P|206:102|249:102,1,77.999997619629,2|0,3:0|0:0,0:0:0:0:
262,84,85816,1,2,0:0:0:0:
341,32,86021,1,2,0:0:0:0:
353,45,86123,2,0,L|367:134,1,77.999997619629,10|2,0:0|0:0,0:0:0:0:
364,169,86431,2,0,P|310:191|266:191,1,77.999997619629,2|0,0:0|0:0,0:0:0:0:
244,189,86738,6,0,B|218:217|218:217|230:326,1,116.999996429443,2|2,3:0|0:0,0:0:0:0:
107,370,87354,2,0,B|133:342|133:342|121:233,1,116.999996429443,10|2,0:0|0:0,0:0:0:0:
233,352,87969,6,0,P|292:372|373:358,1,116.999996429443,2|2,3:0|0:0,0:0:0:0:
459,300,88585,2,0,P|416:299|373:280,1,77.999997619629,8|2,0:0|0:0,0:0:0:0:
348,258,88892,1,2,0:0:0:0:
480,211,89200,5,2,3:0:0:0:
384,107,89508,2,0,L|398:204,1,77.999997619629,2|2,0:0|0:0,0:0:0:0:
363,218,89816,2,0,P|325:217|276:193,1,77.999997619629,8|2,0:0|0:0,0:0:0:0:
267,160,90123,2,0,P|229:161|180:185,1,77.999997619629,2|0,0:0|0:0,0:0:0:0:
162,212,90431,6,0,L|152:334,1,116.999996429443,2|2,3:0|0:0,0:0:0:0:
279,318,91046,2,0,L|288:201,1,116.999996429443,10|2,0:0|0:0,0:0:0:0:
353,76,91662,6,0,P|310:89|253:79,1,77.999997619629,2|0,3:0|0:0,0:0:0:0:
237,63,91969,1,2,0:0:0:0:
101,26,92277,2,0,P|88:69|98:126,1,77.999997619629,10|2,0:0|0:0,0:0:0:0:
114,142,92584,1,2,0:0:0:0:
166,272,92892,6,0,P|193:246|229:229,1,77.999997619629,2|2,0:0|0:0,0:0:0:0:
256,191,93200,2,0,L|165:179,1,77.999997619629,2|8,0:0|0:0,0:0:0:0:
131,184,93508,2,0,P|121:145|125:105,2,77.999997619629,8|8|8,0:0|0:0|0:0,0:0:0:0:
104,273,94123,6,0,P|42:308|-30:293,1,116.999996429443,4|0,3:1|0:0,0:0:0:0:
29,219,94636,1,2,0:0:0:0:
38,203,94739,2,0,L|27:98,1,77.999997619629,10|0,0:0|0:0,0:0:0:0:
73,107,95046,2,0,L|84:2,1,77.999997619629,2|2,0:0|0:0,0:0:0:0:
124,12,95354,6,0,P|185:0|233:35,1,116.999996429443,2|2,3:0|0:0,0:0:0:0:
339,117,95969,2,0,P|357:112|375:103,2,38.9999988098145,8|8|8,0:0|0:0|0:0,0:0:0:0:
312,155,96277,2,0,P|294:146|275:141,2,38.9999988098145,8|8|8,0:0|0:0|0:0,0:0:0:0:
350,190,96585,6,0,B|369:231|369:231|358:296,1,86.6666666666667,4|0,3:1|0:0,0:0:0:0:
323,306,96892,2,0,B|277:301|277:301|227:259,1,86.6666666666667,12|0,0:0|0:0,0:0:0:0:
236,224,97200,2,0,B|262:187|262:187|323:164,1,86.6666666666667,4|0,3:1|0:0,0:0:0:0:
350,190,97508,2,0,P|412:194|454:184,1,77.999997619629,12|0,0:0|0:0,0:0:0:0:
469,172,97815,5,12,0:0:0:0:
391,36,98123,2,0,L|403:101,2,43.3333333333333,8|8|8,0:0|0:0|0:0,0:0:0:0:
339,41,98431,2,0,L|328:-5,2,43.3333333333333,8|8|8,3:0|3:0|3:0,0:0:0:0:
293,65,98738,2,0,L|300:107,2,43.3333333333333,8|8|8,3:0|3:0|3:0,0:0:0:0:
249,36,99046,6,0,P|184:19|110:19,1,130,12|0,3:1|3:1,0:0:0:0:
56,70,99508,1,8,0:0:0:0:
56,70,99585,1,8,0:0:0:0:
56,70,99661,1,0,3:1:0:0:
132,106,99815,2,0,L|143:159,2,32.5,8|8|0,0:0|0:0|3:1,0:0:0:0:
59,151,100123,1,2,0:0:0:0:
113,215,100277,5,8,0:0:0:0:
37,239,100431,1,8,0:0:0:0:
37,239,100508,1,8,0:0:0:0:
37,239,100585,2,0,P|31:280|41:325,1,65,0|0,3:1|0:0,0:0:0:0:
79,374,100892,1,8,0:0:0:0:
118,299,101046,2,0,L|128:253,2,32.5,8|8|0,0:0|0:0|3:1,0:0:0:0:
166,368,101354,1,0,3:1:0:0:
231,290,101508,6,0,P|301:272|386:287,1,130,12|8,0:0|0:0,0:0:0:0:
409,207,101969,1,8,0:0:0:0:
471,275,102123,2,0,P|485:303|489:335,1,65,8|8,0:0|0:0,0:0:0:0:
392,355,102431,2,0,P|378:327|374:295,1,65,8|8,0:0|0:0,0:0:0:0:
409,207,102738,6,0,L|480:217,1,65,8|8,3:0|3:0,0:0:0:0:
511,118,103046,2,0,L|440:128,1,65,8|8,3:0|3:0,0:0:0:0:
365,125,103354,1,8,3:0:0:0:
365,125,103508,1,8,3:0:0:0:
299,176,103661,1,8,3:0:0:0:
299,176,103815,1,8,3:0:0:0:
224,136,103969,5,6,0:0:0:0:
137,269,111354,6,0,P|210:277|250:257,1,104,8|0,0:0|0:0,0:0:0:0:
287,198,111815,1,2,0:0:0:0:
287,198,111969,2,0,P|337:186|386:200,1,104,8|0,0:0|0:0,0:0:0:0:
460,159,112431,2,0,L|471:207,1,32.5,0|0,3:1|3:1,0:0:0:0:
480,231,112585,5,12,0:0:0:0:
423,292,112738,1,8,0:0:0:0:
423,292,112815,1,8,0:0:0:0:
423,292,112892,2,0,L|369:283,3,32.5,8|8|8|8,0:0|0:0|0:0|0:0,0:0:0:0:
358,315,113200,2,0,L|304:324,3,32.5,8|8|8|8,0:0|0:0|0:0|0:0,0:0:0:0:
291,295,113508,2,0,L|237:286,3,32.5,8|8|8|8,0:0|0:0|0:0|0:0,0:0:0:0:
225,315,113815,6,0,P|169:328|140:327,1,77.999997619629,4|0,3:1|0:0,0:0:0:0:
76,267,114123,2,0,L|61:170,1,77.999997619629,8|0,0:0|0:0,0:0:0:0:
179,217,114431,2,0,P|239:188|224:97,1,155.999995239258,2|8,3:0|0:0,0:0:0:0:
166,49,114892,1,2,0:0:0:0:
166,49,115046,6,0,P|122:63|83:64,1,77.999997619629,2|0,3:0|0:0,0:0:0:0:
37,138,115354,2,0,P|81:152|120:153,1,77.999997619629,10|0,0:0|0:0,0:0:0:0:
199,132,115661,2,0,L|210:215,1,77.999997619629,2|0,3:0|0:0,0:0:0:0:
286,256,115969,2,0,L|296:178,1,77.999997619629,10|0,0:0|0:0,0:0:0:0:
355,73,116277,6,0,P|432:73|496:115,1,155.999995239258,6|10,3:1|0:0,0:0:0:0:
511,204,116738,1,0,0:0:0:0:
433,294,116892,2,0,P|394:293|359:276,1,77.999997619629,6|0,3:1|0:0,0:0:0:0:
301,195,117200,2,0,P|262:195|227:212,1,77.999997619629,8|0,0:0|0:0,0:0:0:0:
140,139,117508,6,0,P|120:210|130:298,1,155.999995239258,6|8,3:1|0:0,0:0:0:0:
191,354,117969,1,0,0:0:0:0:
191,354,118123,2,0,L|288:344,1,77.999997619629,2|0,3:0|0:0,0:0:0:0:
354,373,118431,2,0,L|361:295,1,77.999997619629,8|0,0:0|0:0,0:0:0:0:
456,210,118738,6,0,L|300:194,1,155.999995239258,4|8,3:1|0:0,0:0:0:0:
226,245,119200,1,0,0:0:0:0:
213,156,119354,2,0,P|250:111|353:117,1,155.999995239258,2|8,3:0|0:0,0:0:0:0:
360,201,119815,1,0,0:0:0:0:
436,117,119969,6,0,L|512:102,1,77.999997619629,12|0,0:0|3:1,0:0:0:0:
436,28,120277,2,0,L|349:12,1,77.999997619629,12|0,0:0|3:1,0:0:0:0:
282,61,120585,2,0,P|274:83|273:108,3,38.9999988098145,8|8|8|8,0:0|3:0|3:0|3:0,0:0:0:0:
244,133,120892,2,0,P|246:152|253:170,3,38.9999988098145,8|8|8|8,0:0|3:0|3:0|3:0,0:0:0:0:
291,195,121200,6,0,P|330:209|372:211,1,77.999997619629,12|0,0:0|0:0,0:0:0:0:
454,264,121508,2,0,P|422:290|399:326,1,77.999997619629,8|8,0:0|0:0,0:0:0:0:
306,373,121815,2,0,P|299:332|279:294,1,77.999997619629,8|8,0:0|0:0,0:0:0:0:
214,238,122123,1,8,0:0:0:0:
129,268,122277,1,8,0:0:0:0:
105,354,122431,6,0,P|66:352|30:337,1,77.999997619629,4|8,3:1|0:0,0:0:0:0:
28,249,122738,2,0,L|20:187,3,38.9999988098145,8|8|8|8,0:0|0:0|0:0|0:0,0:0:0:0:
61,184,123046,2,0,L|69:122,3,38.9999988098145,8|8|8|8,0:0|0:0|0:0|0:0,0:0:0:0:
28,119,123354,2,0,L|20:57,3,38.9999988098145,8|8|8|8,0:0|0:0|0:0|0:0,0:0:0:0:
50,44,123661,6,0,P|102:10|202:28,1,155.999995239258,6|8,3:0|0:0,0:0:0:0:
277,59,124123,1,2,0:0:0:0:
202,115,124277,2,0,P|191:153|195:191,1,77.999997619629,2|0,3:0|3:1,0:0:0:0:
251,272,124585,1,10,0:0:0:0:
251,272,124738,1,2,0:0:0:0:
333,215,124892,6,0,P|268:175|194:190,1,155.999995239258,2|8,3:0|0:0,0:0:0:0:
154,276,125354,1,2,0:0:0:0:
206,353,125508,2,0,P|242:364|281:363,1,77.999997619629,2|0,3:0|3:1,0:0:0:0:
354,304,125815,2,0,P|390:292|429:293,1,77.999997619629,8|2,0:0|0:0,0:0:0:0:
507,365,126123,6,0,P|464:302|489:232,1,155.999995239258,2|8,3:0|0:0,0:0:0:0:
484,141,126585,1,2,0:0:0:0:
484,141,126738,2,0,P|447:152|408:151,1,77.999997619629,2|0,3:0|3:1,0:0:0:0:
324,119,127046,1,10,0:0:0:0:
324,119,127200,1,2,0:0:0:0:
264,46,127354,6,0,B|159:15|159:15|116:53,1,155.999995239258,2|8,3:0|0:0,0:0:0:0:
61,115,127815,1,2,0:0:0:0:
61,115,127969,2,0,P|92:132|138:137,1,77.999997619629,2|0,3:0|3:1,0:0:0:0:
145,230,128277,2,0,P|186:212|222:208,1,77.999997619629,8|2,0:0|0:0,0:0:0:0:
338,239,128585,6,0,P|343:291|266:339,1,149.500002851486,6|8,3:0|0:0,0:0:0:0:
188,378,129046,1,2,0:0:0:0:
124,314,129200,2,0,L|33:296,1,74.7500014257431,2|0,3:0|3:1,0:0:0:0:
97,224,129508,1,10,0:0:0:0:
97,224,129661,1,2,0:0:0:0:
203,250,129815,6,0,L|349:220,1,149.500002851486,2|8,3:0|0:0,0:0:0:0:
423,168,130277,1,2,0:0:0:0:
434,257,130431,2,0,P|432:294|417:328,1,74.7500014257431,2|0,3:0|3:1,0:0:0:0:
347,383,130738,2,0,P|331:341|332:305,1,74.7500014257431,8|2,0:0|0:0,0:0:0:0:
349,220,131046,6,0,P|300:273|228:266,1,149.500002851486,6|8,3:0|0:0,0:0:0:0:
175,200,131508,1,2,0:0:0:0:
175,200,131661,2,0,L|168:123,1,74.7500014257431,2|0,3:0|3:1,0:0:0:0:
160,39,131969,1,10,0:0:0:0:
160,39,132123,1,2,0:0:0:0:
240,78,132277,6,0,P|285:90|325:85,1,74.7500014257431,0|8,3:1|0:0,0:0:0:0:
399,51,132585,2,0,L|408:101,3,37.3750007128716,8|8|8|8,0:0|0:0|0:0|0:0,0:0:0:0:
445,109,132892,2,0,L|436:159,3,37.3750007128716,8|8|8|8,0:0|0:0|0:0|0:0,0:0:0:0:
402,173,133200,2,0,L|411:223,3,37.3750007128716,8|8|8|8,0:0|0:0|0:0|0:0,0:0:0:0:
449,230,133508,6,0,B|483:267|483:267|468:367,1,149.500002851486,6|8,3:0|0:0,0:0:0:0:
379,377,133969,1,2,0:0:0:0:
319,309,134123,2,0,P|279:293|240:294,1,74.7500014257431,2|0,3:0|0:0,0:0:0:0:
189,362,134431,1,10,0:0:0:0:
189,362,134585,1,2,0:0:0:0:
101,300,134738,6,0,P|73:232|76:147,1,149.500002851486,2|8,3:0|0:0,0:0:0:0:
115,77,135200,1,2,0:0:0:0:
163,152,135354,2,0,P|200:150|234:135,1,74.7500014257431,2|0,3:0|0:0,0:0:0:0:
315,181,135661,2,0,L|324:91,1,74.7500014257431,8|2,0:0|0:0,0:0:0:0:
402,65,135969,6,0,P|344:20|272:30,1,149.500002851486,2|8,3:0|0:0,0:0:0:0:
190,61,136431,1,2,0:0:0:0:
190,61,136585,2,0,P|152:59|118:44,1,74.7500014257431,2|0,3:0|0:0,0:0:0:0:
44,3,136892,1,8,0:0:0:0:
44,3,137046,1,2,0:0:0:0:
8,88,137200,6,0,P|-3:166|17:242,1,149.500002851486,2|8,3:0|0:0,0:0:0:0:
15,327,137661,1,2,0:0:0:0:
15,327,137815,2,0,L|100:316,1,74.7500014257431,2|0,3:0|0:0,0:0:0:0:
106,228,138123,2,0,L|191:239,1,74.7500014257431,8|2,0:0|0:0,0:0:0:0:
273,178,138431,6,0,P|214:220|215:292,1,149.500002851486,6|8,3:0|0:0,0:0:0:0:
273,360,138892,1,2,0:0:0:0:
307,276,139046,2,0,P|346:264|382:266,1,74.7500014257431,2|0,3:0|0:0,0:0:0:0:
437,341,139354,1,8,0:0:0:0:
437,341,139508,1,2,0:0:0:0:
504,258,139661,6,0,B|528:218|528:218|506:99,1,149.500002851486,2|8,3:0|0:0,0:0:0:0:
490,28,140123,1,2,0:0:0:0:
426,91,140277,2,0,L|336:76,1,74.7500014257431,14|0,0:0|0:0,0:0:0:0:
296,7,140585,2,0,L|206:22,1,74.7500014257431,8|8,3:0|3:0,0:0:0:0:
116,48,140892,6,0,P|187:48|221:110,1,149.500002851486,6|8,3:0|0:0,0:0:0:0:
308,131,141354,1,8,0:0:0:0:
246,196,141508,2,0,L|238:280,1,74.7500014257431,8|8,0:0|0:0,0:0:0:0:
335,286,141815,2,0,L|341:361,1,74.7500014257431,8|8,0:0|0:0,0:0:0:0:
252,378,142123,5,8,0:0:0:0:
211,297,142277,1,8,0:0:0:0:
266,226,142431,1,8,0:0:0:0:
355,233,142585,1,8,0:0:0:0:
406,305,142738,2,0,P|447:322|480:322,1,74.7500014257431,8|8,0:0|0:0,0:0:0:0:
509,230,143046,2,0,L|518:154,1,74.7500014257431,8|8,0:0|0:0,0:0:0:0:
427,175,143354,6,0,B|371:172|334:211|334:211|311:191|279:188,1,156,2|2,0:0|0:0,0:0:0:0:
270,107,143969,2,0,P|214:116|168:143,1,104,2|2,0:0|0:0,0:0:0:0:
138,216,144431,1,2,0:0:0:0:
138,216,144585,2,0,P|77:219|43:132,1,156,2|2,0:0|0:0,0:0:0:0:
9,64,145200,2,0,P|75:52|118:53,1,104,2|0,0:0|0:0,0:0:0:0:
272,7,145815,6,0,L|254:171,1,156,2|2,0:0|0:0,0:0:0:0:
327,205,146491,2,0,L|339:328,1,104,2|2,0:0|0:0,0:0:0:0:
266,350,146977,1,2,0:0:0:0:
266,350,147139,2,0,P|223:322|122:337,1,156,2|2,0:0|0:0,0:0:0:0:
41,327,147827,2,0,P|59:278|59:208,1,104,2|0,0:0|0:0,0:0:0:0:
