osu file format v14

[General]
AudioFilename: audio.mp3
AudioLeadIn: 0
PreviewTime: 54728
Countdown: 0
SampleSet: Soft
StackLeniency: 0.5
Mode: 0
LetterboxInBreaks: 0
WidescreenStoryboard: 0

[Editor]
Bookmarks: 10421,35036,54728,84267
DistanceSpacing: 0.8
BeatDivisor: 4
GridSize: 32
TimelineZoom: 1.6

[Metadata]
Title:KIRIFUDA
TitleUnicode:キリフダ
Artist:PENGUIN RESEARCH
ArtistUnicode:PENGUIN RESEARCH
Creator:banter
Version:A New Day
Source:シャドウバース
Tags:shadowverse opening anime pop j-pop rock male vocals full version horie shota 堀江晶太 yoji ikuta 生田鷹司 sacra music japanese green leaves summer
BeatmapID:2486025
BeatmapSetID:1193081

[Difficulty]
HPDrainRate:5.7
CircleSize:4
OverallDifficulty:9
ApproachRate:9.4
SliderMultiplier:1.8
SliderTickRate:1

[Events]
//Background and Video events
0,0,"A24nTXo.jpg",0,0
//Break Periods
//Storyboard Layer 0 (Background)
//Storyboard Layer 1 (Fail)
//Storyboard Layer 2 (Pass)
//Storyboard Layer 3 (Foreground)
//Storyboard Layer 4 (Overlay)
//Storyboard Sound Samples

[TimingPoints]
585,307.692307692308,4,2,0,50,1,0
585,-133.333333333333,4,2,0,35,0,0
10431,-86.9565217391304,4,2,1,75,0,1
15354,-100,4,2,1,50,0,0
29123,-100,4,2,1,5,0,0
29200,-100,4,2,1,50,0,0
31585,-100,4,2,1,5,0,0
31661,-100,4,2,1,50,0,0
35046,-111.111111111111,4,2,1,50,0,0
47354,-74.0740740740741,4,2,1,75,0,0
47661,-86.9565217391304,4,2,1,65,0,0
47969,-105.263157894737,4,2,1,55,0,0
48277,-133.333333333333,4,2,1,45,0,0
48585,-111.111111111111,4,2,1,50,0,0
49815,-100,4,2,1,60,0,0
52277,-100,4,2,1,60,0,0
52585,-100,4,2,1,55,0,0
52892,-100,4,2,1,65,0,0
53200,-100,4,2,1,75,0,0
53508,-100,4,2,1,75,0,0
54738,-83.3333333333333,4,2,1,80,0,1
67046,-100,4,2,1,75,0,1
67661,-71.4285714285714,4,2,1,85,0,1
68277,-83.3333333333333,4,2,1,80,0,1
69123,-83.3333333333333,4,2,1,5,0,1
69200,-83.3333333333333,4,2,1,80,0,1
74431,-83.3333333333333,4,2,1,75,0,1
76892,-86.9565217391304,4,2,1,70,0,1
84277,-111.111111111111,4,2,1,50,0,0
93405,-111.111111111111,4,2,1,25,0,0
93508,-111.111111111111,4,2,1,50,0,0
96585,-74.0740740740741,4,2,1,75,0,0
96892,-86.9565217391304,4,2,1,65,0,0
97200,-105.263157894737,4,2,1,55,0,0
97508,-133.333333333333,4,2,1,45,0,0
97815,-111.111111111111,4,2,1,50,0,0
99046,-111.111111111111,4,2,1,60,0,0
101508,-100,4,2,1,70,0,0
101815,-100,4,2,1,55,0,0
102123,-100,4,2,1,70,0,0
102431,-100,4,2,1,80,0,0
102738,-100,4,2,1,85,0,0
103046,-100,4,2,1,70,0,0
103354,-100,4,2,1,60,0,0
103661,-100,4,2,1,50,0,0
103969,-166.666666666667,4,2,1,65,0,0
104585,-166.666666666667,4,2,0,35,0,0
112431,-166.666666666667,4,2,1,50,0,0
112585,-90.909090909091,4,2,1,50,0,0
113815,-83.3333333333333,4,2,1,80,0,1
116277,-100,4,2,1,75,0,1
116892,-71.4285714285714,4,2,1,85,0,1
117508,-83.3333333333333,4,2,1,80,0,1
118354,-83.3333333333333,4,2,1,5,0,1
118431,-83.3333333333333,4,2,1,80,0,1
123661,-83.3333333333333,4,2,1,75,0,1
128585,-86.9565217391304,4,2,1,70,0,1
132585,-86.9565217391304,4,2,1,50,0,1
132892,-86.9565217391304,4,2,1,70,0,1
141200,-86.9565217391304,4,2,1,40,0,1
141508,-86.9565217391304,4,2,1,50,0,1
141815,-86.9565217391304,4,2,1,60,0,1
142123,-86.9565217391304,4,2,1,70,0,1
142431,-86.9565217391304,4,2,1,80,0,1
142738,-86.9565217391304,4,2,1,85,0,1
143046,-86.9565217391304,4,2,1,90,0,1
143354,-133.333333333333,4,2,1,30,0,0
145815,342.857142857143,4,2,1,30,1,0
145815,-142.857142857143,4,2,1,30,0,0
146329,324.324324324324,4,2,1,30,1,0
146329,-142.857142857143,4,2,1,30,0,0
147139,-153.846153846154,4,2,1,30,0,0
147464,363.636363636364,4,2,1,30,1,0
147464,-153.846153846154,4,2,1,30,0,0
148191,-153.846153846154,4,2,1,15,0,0

[Colours]
Combo1 : 248,231,75
Combo2 : 73,241,153
Combo3 : 141,193,252

[HitObjects]
139,124,585,6,0,P|206:126|282:100,1,135.000005149842,2|0,2:0|0:0,0:0:0:0:
397,68,1046,1,2,2:0:0:0:
397,68,1200,2,0,P|361:125|346:203,1,135.000005149842,2|0,2:0|0:0,0:0:0:0:
438,213,1661,1,2,2:0:0:0:
391,290,1815,6,0,B|306:266|306:266|250:292,1,135.000005149842,2|0,2:0|0:0,0:0:0:0:
186,336,2277,1,2,2:0:0:0:
186,336,2431,2,0,B|101:360|101:360|45:334,1,135.000005149842,2|2,2:0|2:0,0:0:0:0:
183,38,3046,6,0,P|211:106|212:194,1,135.000005149842,2|0,2:0|0:0,0:0:0:0:
91,126,3508,1,2,2:0:0:0:
91,126,3661,2,0,P|63:194|62:282,1,135.000005149842,2|0,2:0|0:0,0:0:0:0:
148,318,4123,1,2,2:0:0:0:
246,258,4277,6,0,P|189:258|150:336,1,135.000005149842,2|0,2:0|0:0,0:0:0:0:
327,293,4738,1,2,2:0:0:0:
327,293,4892,2,0,B|333:242|333:242|316:213|316:213|323:163,1,135.000005149842,2|2,2:0|2:0,0:0:0:0:
440,29,5508,6,0,P|397:57|305:54,1,135.000005149842,2|0,2:0|0:0,0:0:0:0:
206,104,5969,1,2,2:0:0:0:
206,104,6123,2,0,P|163:76|71:79,1,135.000005149842,2|0,2:0|0:0,0:0:0:0:
32,215,6585,1,2,2:0:0:0:
115,162,6738,6,0,L|126:317,1,135.000005149842,2|0,2:0|0:0,0:0:0:0:
223,244,7200,1,2,2:0:0:0:
223,244,7354,2,0,L|212:399,1,135.000005149842,2|2,2:0|2:0,0:0:0:0:
414,250,7969,6,0,P|377:235|359:144,1,135.000005149842,2|0,2:0|0:0,0:0:0:0:
447,47,8431,1,2,2:0:0:0:
447,47,8585,2,0,B|409:78|409:78|311:59,1,135.000005149842,2|0,2:0|0:0,0:0:0:0:
271,135,9046,1,2,2:0:0:0:
230,47,9200,6,0,B|192:16|192:16|94:35,1,135.000005149842,0|0,2:0|0:0,0:0:0:0:
34,139,9661,1,2,2:0:0:0:
34,139,9815,2,0,B|166:113,1,135.000005149842,2|0,2:0|0:0,0:0:0:0:
424,236,10431,6,0,B|315:203|337:294|229:269,1,207.000003948212,6|8,0:0|0:0,0:0:0:0:
385,323,10892,1,2,0:0:0:0:
260,181,11046,2,0,L|247:66,1,103.500001974106,2|0,3:0|0:0,0:0:0:0:
238,356,11354,1,10,0:0:0:0:
347,147,11508,1,2,0:0:0:0:
106,260,11661,6,0,P|37:224|42:104,1,207.000003948212,2|8,3:0|0:0,0:0:0:0:
260,181,12123,1,2,0:0:0:0:
260,181,12277,2,0,B|110:166|110:166|184:126,1,207.000003948212,2|8,3:0|0:0,0:0:0:0:
248,91,12738,1,2,0:0:0:0:
312,281,12892,6,0,L|93:259,1,207.000003948212,2|8,3:0|0:0,0:0:0:0:
282,182,13354,1,2,0:0:0:0:
351,368,13508,2,0,P|406:370|461:346,1,103.500001974106,2|0,3:0|0:0,0:0:0:0:
365,204,13815,1,10,0:0:0:0:
264,373,13969,1,2,0:0:0:0:
455,232,14123,6,0,P|432:136|336:114,1,207.000003948212,6|8,0:0|0:0,0:0:0:0:
198,160,14585,1,2,0:0:0:0:
365,204,14738,1,0,3:0:0:0:
403,180,14814,1,0,3:0:0:0:
425,141,14891,1,0,3:0:0:0:
428,96,14968,1,0,3:0:0:0:
410,55,15045,1,0,3:0:0:0:
376,27,15122,1,0,3:0:0:0:
332,18,15199,1,0,3:0:0:0:
288,29,15276,1,0,3:0:0:0:
255,60,15354,6,0,P|203:69|152:61,1,90,6|0,0:0|0:0,0:0:0:0:
71,30,15661,1,10,0:0:0:0:
108,129,15815,1,2,0:0:0:0:
9,103,15969,2,0,L|-1:197,1,90,2|2,3:0|3:0,0:0:0:0:
118,219,16277,2,0,L|108:129,1,90,10|2,0:0|0:0,0:0:0:0:
46,292,16585,6,0,P|125:322|208:268,1,180,2|8,3:0|0:0,0:0:0:0:
298,199,17046,2,0,L|192:182,1,90,2|0,0:0|3:1,0:0:0:0:
349,118,17354,2,0,L|243:101,1,90,2|8,3:0|0:0,0:0:0:0:
411,203,17661,6,0,B|448:166|448:166|429:29,1,180,2|0,0:0|3:1,0:0:0:0:
380,296,18123,2,0,L|486:279,1,90,8|0,0:0|0:0,0:0:0:0:
349,118,18431,1,0,3:1:0:0:
349,118,18585,1,0,3:1:0:0:
283,277,18738,2,0,P|282:325|312:377,1,90,8|0,0:0|0:0,0:0:0:0:
411,203,19046,5,0,3:1:0:0:
411,203,19200,1,0,3:1:0:0:
219,209,19354,2,0,P|194:250|194:310,1,90,8|0,0:0|0:0,0:0:0:0:
380,296,19661,1,2,3:0:0:0:
276,148,19815,1,2,3:0:0:0:
218,374,19969,1,10,0:0:0:0:
332,230,20123,6,0,L|115:208,1,180,2|0,0:0|3:1,0:0:0:0:
72,82,20585,1,10,0:0:0:0:
72,82,20738,2,0,B|110:174|40:160|76:263,1,180,2|0,0:0|3:1,0:0:0:0:
0,131,21200,1,10,0:0:0:0:
153,212,21354,6,0,P|165:92|132:18,1,180,2|0,0:0|3:1,0:0:0:0:
74,257,21815,1,10,0:0:0:0:
255,195,21969,1,2,0:0:0:0:
78,171,22123,1,0,3:1:0:0:
78,171,22200,1,0,3:1:0:0:
78,171,22277,1,0,3:1:0:0:
165,320,22431,1,10,0:0:0:0:
195,117,22585,6,0,P|267:97|353:177,1,180,2|0,0:0|3:1,0:0:0:0:
241,280,23046,2,0,P|236:235|254:194,1,90,8|0,0:0|0:0,0:0:0:0:
331,251,23354,1,0,3:1:0:0:
331,251,23508,1,0,3:1:0:0:
264,374,23661,2,0,L|155:351,1,90,8|0,0:0|0:0,0:0:0:0:
254,194,23969,5,0,3:1:0:0:
254,194,24123,1,0,3:1:0:0:
407,298,24277,2,0,P|412:343|394:384,1,90,8|0,0:0|0:0,0:0:0:0:
241,280,24585,1,0,3:1:0:0:
241,280,24738,1,0,3:1:0:0:
408,212,24892,2,0,L|517:189,1,90,10|0,0:0|0:0,0:0:0:0:
270,107,25200,6,0,P|253:154|260:216,1,90,6|0,0:0|0:0,0:0:0:0:
362,134,25508,1,10,0:0:0:0:
285,23,25661,1,2,0:0:0:0:
175,133,25815,2,0,P|130:132|88:116,1,90,2|0,3:0|3:0,0:0:0:0:
199,47,26123,1,10,0:0:0:0:
253,193,26277,1,2,0:0:0:0:
77,220,26431,6,0,B|64:82|64:82|107:143,1,180,2|10,3:0|0:0,0:0:0:0:
139,299,26892,2,0,P|86:322|50:318,1,90,2|0,0:0|3:1,0:0:0:0:
172,213,27200,1,0,3:1:0:0:
231,331,27354,1,10,0:0:0:0:
420,287,27508,6,0,P|341:245|252:246,1,180,2|0,0:0|3:1,0:0:0:0:
398,372,27969,2,0,P|442:372|481:351,1,90,8|0,0:0|0:0,0:0:0:0:
463,206,28277,1,0,3:1:0:0:
463,206,28431,1,0,3:1:0:0:
307,277,28585,2,0,L|319:378,1,90,8|2,0:0|0:0,0:0:0:0:
354,197,28892,6,0,P|295:186|230:221,1,135,0|0,3:1|0:0,0:0:0:0:
231,219,29200,1,8,0:0:0:0:
392,278,29354,2,0,L|399:94,1,180,2|0,0:0|3:1,0:0:0:0:
308,12,29815,2,0,L|311:101,1,90,8|2,0:0|0:0,0:0:0:0:
405,15,30123,5,0,3:1:0:0:
405,15,30277,1,0,3:1:0:0:
235,101,30431,2,0,P|191:116|147:115,1,90,8|0,0:0|0:0,0:0:0:0:
220,10,30738,1,0,3:1:0:0:
220,10,30892,1,0,3:1:0:0:
340,120,31046,2,0,L|348:210,1,90,8|2,0:0|0:0,0:0:0:0:
424,328,31354,6,0,P|362:295|286:308,1,135,0|0,3:1|0:0,0:0:0:0:
299,301,31661,1,8,0:0:0:0:
153,338,31815,2,0,P|208:300|191:190,1,180,2|0,0:0|3:1,0:0:0:0:
71,123,32277,2,0,L|76:222,1,90,8|2,0:0|0:0,0:0:0:0:
174,110,32585,5,0,3:1:0:0:
174,110,32738,1,0,3:1:0:0:
40,42,32892,2,0,P|-6:87|-15:122,1,90,8|0,0:0|0:0,0:0:0:0:
127,37,33200,1,0,3:1:0:0:
127,37,33354,1,0,3:1:0:0:
122,182,33508,2,0,P|183:199|218:189,1,90,8|0,0:0|0:0,0:0:0:0:
286,97,33815,5,0,3:1:0:0:
236,299,33969,1,8,0:0:0:0:
330,177,34123,2,0,P|391:159|426:169,1,90,0|0,3:1|0:0,0:0:0:0:
383,314,34431,5,8,0:0:0:0:
332,334,34533,5,8,0:0:0:0:
278,329,34636,5,8,0:0:0:0:
236,299,34738,6,0,L|230:220,2,60,8|8|8,0:0|0:0|0:0,0:0:0:0:
186,368,35046,6,0,P|133:375|72:353,1,107.999996704102,4|0,3:1|0:0,0:0:0:0:
27,287,35354,2,0,L|18:179,1,107.999996704102,2|0,0:0|0:0,0:0:0:0:
107,171,35661,2,0,L|116:279,1,107.999996704102,10|0,0:0|0:0,0:0:0:0:
81,359,35969,1,2,0:0:0:0:
18,179,36174,1,2,0:0:0:0:
21,211,36277,5,2,3:0:0:0:
187,128,36482,1,2,0:0:0:0:
184,160,36585,1,2,0:0:0:0:
7,44,36790,1,2,0:0:0:0:
10,76,36892,2,0,L|142:59,1,107.999996704102,10|2,0:0|0:0,0:0:0:0:
187,128,37200,2,0,L|319:111,1,107.999996704102,2|2,0:0|0:0,0:0:0:0:
389,99,37508,6,0,P|370:174|379:216,1,107.999996704102,0|0,3:1|0:0,0:0:0:0:
461,215,37815,2,0,P|480:140|471:98,1,107.999996704102,2|2,0:0|0:0,0:0:0:0:
289,215,38123,2,0,P|285:268|303:319,1,107.999996704102,10|0,0:0|0:0,0:0:0:0:
389,307,38430,2,0,P|392:253|374:202,1,107.999996704102,2|0,0:0|0:0,0:0:0:0:
309,132,38738,6,0,L|142:155,1,161.999995056153,2|2,3:0|0:0,0:0:0:0:
229,309,39251,1,2,0:0:0:0:
259,313,39354,1,8,0:0:0:0:
115,362,39559,1,2,0:0:0:0:
87,374,39662,2,0,L|74:259,1,107.999996704102,2|0,0:0|0:0,0:0:0:0:
24,176,39969,6,0,P|83:178|134:153,1,107.999996704102,2|0,3:0|0:0,0:0:0:0:
159,80,40277,1,2,0:0:0:0:
315,224,40482,1,2,0:0:0:0:
337,209,40585,2,0,L|351:65,1,107.999996704102,10|0,0:0|0:0,0:0:0:0:
415,250,40892,2,0,L|429:106,1,107.999996704102,2|0,0:0|0:0,0:0:0:0:
312,96,41200,6,0,P|258:114|184:106,1,107.999996704102,2|0,3:0|0:0,0:0:0:0:
151,47,41508,2,0,P|97:29|23:37,1,107.999996704102,2|0,0:0|0:0,0:0:0:0:
32,148,41815,2,0,P|86:166|160:158,1,107.999996704102,8|2,0:0|0:0,0:0:0:0:
208,113,42123,1,2,0:0:0:0:
174,282,42328,1,2,0:0:0:0:
160,310,42431,6,0,B|103:318|103:318|49:293,1,107.999996704102,2|0,3:0|0:0,0:0:0:0:
15,223,42738,1,2,0:0:0:0:
237,208,42943,1,2,0:0:0:0:
255,221,43046,2,0,P|274:288|263:347,1,107.999996704102,10|0,0:0|0:0,0:0:0:0:
351,362,43354,2,0,P|399:312|456:292,1,107.999996704102,2|2,0:0|0:0,0:0:0:0:
512,328,43661,5,2,3:0:0:0:
424,184,43867,1,2,0:0:0:0:
426,209,43969,2,0,P|358:191|312:152,1,107.999996704102,2|0,0:0|0:0,0:0:0:0:
301,88,44277,5,8,0:0:0:0:
227,138,44482,1,8,0:0:0:0:
148,95,44687,1,8,0:0:0:0:
91,224,44892,6,0,P|151:173|231:173,1,161.999995056153,4|0,3:1|0:0,0:0:0:0:
241,379,45405,1,2,0:0:0:0:
214,370,45508,2,0,P|190:315|191:253,1,107.999996704102,10|0,0:0|0:0,0:0:0:0:
285,247,45815,2,0,P|309:302|308:364,1,107.999996704102,2|2,0:0|0:0,0:0:0:0:
397,262,46123,2,0,P|410:178|463:122,1,161.999995056153,2|0,3:0|0:0,0:0:0:0:
295,102,46738,5,8,0:0:0:0:
247,126,46840,1,8,0:0:0:0:
192,127,46943,1,8,0:0:0:0:
145,99,47046,1,8,0:0:0:0:
108,61,47148,1,8,0:0:0:0:
56,43,47251,1,8,0:0:0:0:
2,55,47354,6,0,L|13:229,1,162.000000617981,4|0,3:1|0:0,0:0:0:0:
108,175,47661,2,0,L|97:349,1,138.000002632141,14|0,0:0|0:0,0:0:0:0:
199,250,47969,2,0,L|208:401,1,113.999996955872,4|0,3:1|0:0,0:0:0:0:
303,295,48277,2,0,L|295:421,1,90.0000034332277,12|0,0:0|0:0,0:0:0:0:
387,348,48585,5,8,0:0:0:0:
239,107,48892,1,8,0:0:0:0:
283,213,49046,1,8,0:0:0:0:
359,77,49200,1,8,0:0:0:0:
135,129,49354,1,8,0:0:0:0:
383,253,49508,1,8,0:0:0:0:
265,8,49661,1,8,0:0:0:0:
155,270,49815,6,0,P|94:287|48:273,1,90,4|0,3:1|0:0,0:0:0:0:
259,185,50123,2,0,P|300:168|345:172,1,90,8|0,0:0|0:0,0:0:0:0:
263,300,50431,1,0,3:1:0:0:
263,300,50585,1,0,3:1:0:0:
155,167,50738,2,0,P|138:125|142:80,1,90,8|2,0:0|0:0,0:0:0:0:
345,172,51046,5,0,3:1:0:0:
345,172,51200,1,0,3:1:0:0:
189,251,51354,2,0,L|78:264,1,90,8|0,0:0|0:0,0:0:0:0:
227,111,51661,1,0,3:1:0:0:
263,300,51815,1,0,3:1:0:0:
59,133,51969,2,0,P|55:88|71:46,1,90,8|2,0:0|0:0,0:0:0:0:
313,104,52277,6,0,B|269:119|269:119|218:109,1,90,8|0,0:0|0:0,0:0:0:0:
266,29,52585,1,8,0:0:0:0:
400,126,52738,1,8,0:0:0:0:
242,198,52892,1,8,0:0:0:0:
353,25,53046,1,8,0:0:0:0:
459,264,53200,1,8,0:0:0:0:
226,110,53354,1,8,0:0:0:0:
493,55,53508,6,0,L|506:143,1,90,12|0,0:0|0:0,0:0:0:0:
508,238,53739,1,0,3:0:0:0:
476,226,53815,1,0,3:0:0:0:
441,225,53892,1,0,3:0:0:0:
407,237,53969,1,0,3:0:0:0:
378,258,54045,1,0,3:0:0:0:
359,289,54122,5,0,3:0:0:0:
387,239,54200,1,0,3:0:0:0:
386,186,54277,1,0,3:0:0:0:
365,139,54354,1,0,3:0:0:0:
332,103,54431,1,0,3:0:0:0:
289,89,54508,1,0,3:0:0:0:
248,95,54585,1,0,3:0:0:0:
216,112,54661,1,0,3:0:0:0:
201,138,54738,6,0,L|215:248,1,107.999996704102,4|0,3:1|0:0,0:0:0:0:
59,335,55046,2,0,L|72:224,1,107.999996704102,8|0,0:0|0:0,0:0:0:0:
374,318,55354,2,0,B|294:311|294:311|251:349|251:349|170:342,1,215.999993408203,2|8,3:0|0:0,0:0:0:0:
71,244,55815,1,0,0:0:0:0:
293,100,55969,6,0,P|310:146|307:210,1,107.999996704102,2|0,3:0|0:0,0:0:0:0:
89,120,56277,2,0,P|86:66|104:15,1,107.999996704102,10|0,0:0|0:0,0:0:0:0:
379,86,56585,2,0,P|396:132|393:196,1,107.999996704102,2|0,3:0|0:0,0:0:0:0:
174,133,56892,2,0,P|171:79|189:28,1,107.999996704102,10|0,0:0|0:0,0:0:0:0:
369,275,57200,6,0,P|318:292|264:290,1,107.999996704102,2|0,3:0|0:0,0:0:0:0:
121,211,57508,2,0,P|70:193|16:195,1,107.999996704102,10|0,0:0|0:0,0:0:0:0:
282,183,57815,2,0,L|293:71,1,107.999996704102,2|0,3:0|0:0,0:0:0:0:
112,243,58123,2,0,L|122:350,1,107.999996704102,10|0,0:0|0:0,0:0:0:0:
241,99,58431,6,0,B|358:75|325:158|445:134,1,215.999993408203,2|8,3:0|0:0,0:0:0:0:
407,49,58892,1,0,0:0:0:0:
137,28,59046,2,0,P|116:76|115:130,1,107.999996704102,2|0,3:0|0:0,0:0:0:0:
304,286,59354,2,0,P|303:232|282:183,1,107.999996704102,8|0,0:0|0:0,0:0:0:0:
20,288,59661,6,0,B|177:269|177:269|128:235,1,215.999993408203,0|8,3:0|0:0,0:0:0:0:
39,190,60123,1,2,0:0:0:0:
0,384,60277,2,0,L|229:353,1,215.999993408203,0|8,3:1|0:0,0:0:0:0:
373,384,60738,1,2,0:0:0:0:
228,162,60892,6,0,P|323:160|375:261,1,215.999993408203,0|8,3:1|0:0,0:0:0:0:
177,269,61354,1,2,0:0:0:0:
188,55,61508,2,0,L|408:77,1,215.999993408203,0|8,3:1|0:0,0:0:0:0:
512,87,61969,1,2,0:0:0:0:
365,271,62123,6,0,P|350:220|354:163,1,107.999996704102,0|0,3:1|0:0,0:0:0:0:
470,239,62431,1,8,0:0:0:0:
370,378,62585,1,2,0:0:0:0:
165,296,62738,2,0,B|218:253|218:253|364:270,1,215.999993408203,0|8,3:1|0:0,0:0:0:0:
252,352,63200,1,2,0:0:0:0:
143,195,63354,6,0,L|131:82,1,107.999996704102,4|0,3:1|0:0,0:0:0:0:
288,0,63661,2,0,L|277:107,1,107.999996704102,12|0,0:0|0:0,0:0:0:0:
58,57,63969,1,8,0:0:0:0:
87,24,64045,1,8,0:0:0:0:
130,11,64122,1,8,0:0:0:0:
173,22,64199,1,8,0:0:0:0:
204,53,64276,1,8,0:0:0:0:
235,85,64354,1,8,0:0:0:0:
278,96,64431,1,8,0:0:0:0:
321,83,64508,1,8,0:0:0:0:
351,50,64585,6,0,L|460:34,1,107.999996704102,4|0,3:1|0:0,0:0:0:0:
298,187,64892,2,0,L|189:171,1,107.999996704102,8|0,0:0|0:0,0:0:0:0:
0,36,65200,2,0,P|65:84|61:231,1,215.999993408203,2|8,3:0|0:0,0:0:0:0:
0,305,65661,1,2,0:0:0:0:
198,162,65815,6,0,P|248:142|301:144,1,107.999996704102,2|0,3:0|0:0,0:0:0:0:
104,323,66123,2,0,P|50:324|0:305,1,107.999996704102,10|0,0:0|0:0,0:0:0:0:
273,248,66431,2,0,P|292:298|290:351,1,107.999996704102,2|0,3:0|0:0,0:0:0:0:
107,199,66738,2,0,P|105:145|124:95,1,107.999996704102,10|0,0:0|0:0,0:0:0:0:
362,209,67046,6,0,L|375:310,1,90,6|0,3:1|0:0,0:0:0:0:
464,323,67354,2,0,L|450:213,1,90,10|0,0:0|0:0,0:0:0:0:
422,99,67661,2,0,P|348:130|273:121,1,125.999996154785,6|0,3:1|0:0,0:0:0:0:
84,13,67969,2,0,P|146:15|202:43,1,125.999996154785,10|0,0:0|0:0,0:0:0:0:
129,253,68277,6,0,B|97:210|89:155|108:106|108:106|144:109|173:146,1,215.999993408203,6|8,3:1|0:0,0:0:0:0:
218,218,68738,1,0,0:0:0:0:
179,338,68892,2,0,P|90:343|37:279,1,161.999995056153,2|0,3:0|0:0,0:0:0:0:
28,279,69200,2,0,L|17:165,1,107.999996704102,8|0,0:0|0:0,0:0:0:0:
145,112,69508,6,0,L|134:219,1,107.999996704102,4|0,3:1|0:0,0:0:0:0:
71,35,69815,2,0,P|118:10|171:8,1,107.999996704102,8|0,0:0|0:0,0:0:0:0:
346,167,70123,2,0,P|239:163|145:112,1,215.999993408203,2|8,3:0|0:0,0:0:0:0:
253,64,70585,1,0,0:0:0:0:
430,43,70738,6,0,B|449:72|475:95|475:95|451:166|453:239,1,215.999993408203,4|8,3:1|0:0,0:0:0:0:
500,358,71200,1,0,0:0:0:0:
305,139,71354,2,0,B|282:187|282:187|289:245,1,107.999996704102,8|0,0:0|0:0,0:0:0:0:
384,349,71661,1,8,3:0:0:0:
349,327,71737,1,8,3:0:0:0:
309,325,71814,1,8,3:0:0:0:
272,341,71891,1,8,3:0:0:0:
247,372,71969,6,0,P|195:377|136:360,1,107.999996704102,4|0,0:0|0:0,0:0:0:0:
145,202,72277,1,8,0:0:0:0:
190,288,72431,1,8,0:0:0:0:
49,199,72585,1,8,0:0:0:0:
216,111,72738,1,8,0:0:0:0:
74,314,72892,1,8,0:0:0:0:
34,64,73046,1,8,0:0:0:0:
252,223,73200,6,0,L|366:208,1,107.999996704102,12|0,0:0|0:0,0:0:0:0:
473,0,73508,1,8,0:0:0:0:
433,36,73584,1,8,0:0:0:0:
417,87,73661,1,8,0:0:0:0:
427,139,73738,1,8,0:0:0:0:
461,180,73815,1,8,0:0:0:0:
495,221,73892,1,8,0:0:0:0:
505,273,73969,1,8,0:0:0:0:
489,324,74046,1,8,0:0:0:0:
450,361,74122,1,8,0:0:0:0:
398,379,74200,1,8,0:0:0:0:
344,368,74277,1,8,0:0:0:0:
304,330,74354,1,8,0:0:0:0:
286,278,74431,6,0,B|265:111|265:111|317:178,1,215.999993408203,6|8,3:0|0:0,0:0:0:0:
394,267,74892,1,2,0:0:0:0:
186,185,75046,2,0,L|170:59,1,107.999996704102,2|0,3:0|3:1,0:0:0:0:
339,74,75354,1,10,0:0:0:0:
286,278,75508,1,2,0:0:0:0:
173,78,75661,6,0,P|114:52|39:66,1,107.999996704102,2|0,3:0|0:0,0:0:0:0:
129,255,75969,1,8,0:0:0:0:
265,112,76123,1,2,0:0:0:0:
71,53,76277,2,0,L|83:178,1,107.999996704102,2|0,3:0|3:1,0:0:0:0:
239,311,76585,2,0,L|249:203,1,107.999996704102,8|2,0:0|0:0,0:0:0:0:
47,320,76892,6,0,P|120:347|251:301,1,207.000003948212,2|8,3:0|0:0,0:0:0:0:
355,258,77354,1,2,0:0:0:0:
167,231,77508,2,0,P|149:172|154:121,1,103.500001974106,2|0,3:0|3:1,0:0:0:0:
305,141,77815,1,10,0:0:0:0:
239,311,77969,1,2,0:0:0:0:
250,74,78123,6,0,B|281:50|281:50|377:66,1,103.500001974106,2|0,3:0|0:0,0:0:0:0:
512,94,78431,1,8,0:0:0:0:
392,142,78585,1,2,0:0:0:0:
392,142,78661,1,0,0:0:0:0:
392,142,78738,1,2,3:0:0:0:
420,2,78892,1,0,3:1:0:0:
481,199,79046,2,0,L|491:306,1,103.500001974106,8|2,0:0|0:0,0:0:0:0:
315,185,79354,6,0,B|206:152|228:243|120:218,1,207.000003948212,6|8,3:0|0:0,0:0:0:0:
170,90,79815,1,2,0:0:0:0:
276,274,79969,2,0,P|330:287|391:282,1,103.500001974106,2|0,3:0|3:1,0:0:0:0:
273,103,80277,1,10,0:0:0:0:
197,309,80431,1,2,0:0:0:0:
349,171,80585,6,0,B|373:127|373:127|360:60,1,103.500001974106,2|0,3:0|0:0,0:0:0:0:
240,186,80892,1,8,0:0:0:0:
377,284,81046,1,2,0:0:0:0:
273,103,81200,2,0,L|165:90,1,103.500001974106,2|0,3:0|3:1,0:0:0:0:
274,296,81508,2,0,L|376:284,1,103.500001974106,8|2,0:0|0:0,0:0:0:0:
139,183,81815,6,0,P|71:110|105:17,1,207.000003948212,2|12,3:0|0:0,0:0:0:0:
273,103,82277,1,2,0:0:0:0:
172,278,82431,2,0,P|124:291|59:290,1,103.500001974106,2|0,3:0|3:1,0:0:0:0:
240,194,82738,1,10,0:0:0:0:
309,378,82892,1,2,0:0:0:0:
331,197,83046,6,0,L|340:128,2,69.0000013160706,8|8|8,0:0|0:0|0:0,0:0:0:0:
389,283,83354,2,0,L|398:352,2,69.0000013160706,8|8|8,0:0|0:0|0:0,0:0:0:0:
305,281,83661,1,8,3:0:0:0:
256,264,83764,1,8,3:0:0:0:
205,272,83867,1,8,3:0:0:0:
157,300,83969,1,8,3:0:0:0:
133,309,84072,1,8,3:0:0:0:
107,305,84175,1,8,3:0:0:0:
45,261,84277,6,0,P|26:189|65:134,1,107.999996704102,4|0,3:1|0:0,0:0:0:0:
113,128,84585,1,2,0:0:0:0:
371,86,84790,1,2,0:0:0:0:
374,115,84892,1,10,0:0:0:0:
245,25,85097,1,2,0:0:0:0:
242,54,85199,1,2,0:0:0:0:
110,99,85405,1,2,0:0:0:0:
113,128,85508,6,0,P|164:149|233:143,1,107.999996704102,2|0,3:0|0:0,0:0:0:0:
292,122,85815,1,2,0:0:0:0:
155,1,86020,1,2,0:0:0:0:
158,30,86122,1,10,0:0:0:0:
24,150,86328,1,2,0:0:0:0:
27,121,86431,2,0,L|172:105,1,107.999996704102,2|0,0:0|0:0,0:0:0:0:
189,191,86738,6,0,L|81:202,1,107.999996704102,2|0,3:0|0:0,0:0:0:0:
18,265,87046,2,0,P|-2:331|1:376,1,107.999996704102,2|0,0:0|0:0,0:0:0:0:
86,384,87354,2,0,P|106:318|103:273,1,107.999996704102,10|0,0:0|0:0,0:0:0:0:
189,191,87661,2,0,P|189:244|207:295,1,107.999996704102,2|2,0:0|0:0,0:0:0:0:
313,343,87969,6,0,L|442:331,1,107.999996704102,2|0,3:0|0:0,0:0:0:0:
510,326,88277,1,2,0:0:0:0:
316,245,88482,1,2,0:0:0:0:
284,233,88585,1,8,0:0:0:0:
459,208,88790,1,2,0:0:0:0:
491,196,88892,2,0,P|505:139|496:75,1,107.999996704102,2|0,0:0|0:0,0:0:0:0:
419,16,89200,6,0,L|293:6,1,107.999996704102,2|0,3:0|0:0,0:0:0:0:
328,93,89508,1,2,0:0:0:0:
166,31,89713,1,2,0:0:0:0:
157,0,89815,1,8,0:0:0:0:
41,111,90020,1,2,0:0:0:0:
32,142,90123,2,0,P|84:155|137:151,1,107.999996704102,2|0,0:0|0:0,0:0:0:0:
224,203,90431,6,0,L|239:80,1,107.999996704102,2|0,3:0|0:0,0:0:0:0:
313,26,90738,2,0,L|326:133,1,107.999996704102,2|0,0:0|0:0,0:0:0:0:
342,221,91046,1,10,0:0:0:0:
473,126,91251,1,2,0:0:0:0:
469,156,91354,2,0,L|455:263,1,107.999996704102,2|0,0:0|0:0,0:0:0:0:
492,347,91661,6,0,P|438:343|386:356,1,107.999996704102,2|0,3:0|0:0,0:0:0:0:
322,298,91969,2,0,P|268:301|216:288,1,107.999996704102,2|0,0:0|0:0,0:0:0:0:
170,218,92277,1,10,0:0:0:0:
339,134,92482,1,2,0:0:0:0:
348,163,92585,2,0,B|296:180|296:180|232:164,1,107.999996704102,2|0,0:0|0:0,0:0:0:0:
179,112,92892,6,0,P|165:164|169:217,1,107.999996704102,2|2,3:0|0:0,0:0:0:0:
130,292,93200,2,0,L|204:301,1,53.9999983520508,2|0,0:0|0:0,0:0:0:0:
249,251,93405,1,8,0:0:0:0:
260,277,93508,5,8,0:0:0:0:
344,241,93713,1,8,0:0:0:0:
408,306,93918,1,8,0:0:0:0:
483,204,94123,6,0,L|314:222,1,161.999995056153,4|0,3:1|0:0,0:0:0:0:
105,130,94636,1,2,0:0:0:0:
111,157,94738,2,0,L|227:142,1,107.999996704102,10|0,0:0|0:0,0:0:0:0:
306,126,95046,1,2,0:0:0:0:
214,0,95251,1,2,0:0:0:0:
192,19,95353,6,0,P|178:63|202:140,1,107.999996704102,2|0,3:0|0:0,0:0:0:0:
249,188,95661,1,2,0:0:0:0:
437,17,95969,1,8,0:0:0:0:
483,69,96071,1,8,0:0:0:0:
477,139,96174,1,8,0:0:0:0:
432,193,96277,1,8,0:0:0:0:
412,260,96379,1,8,0:0:0:0:
440,324,96482,1,8,0:0:0:0:
492,260,96585,6,0,P|410:236|327:249,1,162.000000617981,4|0,3:1|0:0,0:0:0:0:
332,145,96892,2,0,P|257:186|207:253,1,138.000002632141,12|0,0:0|0:0,0:0:0:0:
144,155,97200,2,0,P|121:232|133:310,1,113.999996955872,4|0,3:1|0:0,0:0:0:0:
23,282,97508,2,0,P|54:338|105:376,1,90.0000034332277,12|0,0:0|0:0,0:0:0:0:
167,342,97815,5,12,0:0:0:0:
203,365,97918,1,8,0:0:0:0:
245,366,98020,1,8,0:0:0:0:
295,304,98123,1,8,0:0:0:0:
336,293,98226,1,8,0:0:0:0:
376,306,98328,1,8,0:0:0:0:
390,384,98431,2,0,P|362:384|323:368,2,53.9999983520508,8|8|8,3:0|3:0|3:0,0:0:0:0:
454,327,98738,2,0,P|479:319|506:319,2,53.9999983520508,8|8|8,3:0|3:0|3:0,0:0:0:0:
376,306,99046,6,0,L|363:239,3,40.4999987640381,12|8|8|8,3:2|0:0|0:0|0:0,0:0:0:0:
346,177,99354,1,0,3:1:0:0:
450,219,99508,1,8,0:0:0:0:
450,219,99585,1,8,0:0:0:0:
450,219,99661,1,0,3:1:0:0:
423,118,99815,1,8,0:0:0:0:
423,118,99892,1,8,0:0:0:0:
423,118,99968,1,0,3:1:0:0:
368,266,100123,1,2,0:0:0:0:
318,82,100277,5,8,0:0:0:0:
512,154,100431,1,8,0:0:0:0:
512,154,100508,1,8,0:0:0:0:
512,154,100585,1,0,3:1:0:0:
286,251,100738,1,0,0:0:0:0:
423,118,100892,1,8,0:0:0:0:
456,314,101046,1,8,0:0:0:0:
456,314,101123,1,8,0:0:0:0:
456,314,101200,1,0,3:1:0:0:
134,210,101354,1,0,3:1:0:0:
134,210,101431,1,8,0:0:0:0:
134,210,101508,6,0,L|258:195,1,90,12|0,0:0|0:0,0:0:0:0:
331,185,101815,1,8,0:0:0:0:
237,300,101969,1,8,0:0:0:0:
241,95,102123,1,8,0:0:0:0:
332,279,102277,1,8,0:0:0:0:
134,210,102431,1,8,0:0:0:0:
357,93,102585,1,8,0:0:0:0:
299,371,102738,5,8,3:0:0:0:
298,27,102892,1,8,3:0:0:0:
1,200,103046,1,8,3:0:0:0:
298,198,103200,1,8,3:0:0:0:
149,113,103354,1,8,3:0:0:0:
149,285,103508,1,8,3:0:0:0:
223,156,103661,1,8,3:0:0:0:
149,199,103815,1,8,3:0:0:0:
224,242,103969,5,6,0:0:0:0:
224,242,104585,2,0,L|388:256,1,161.999995056153,8|0,0:0|0:0,0:0:0:0:
459,303,105200,6,0,P|470:276|468:233,1,53.9999983520508,2|0,0:0|0:0,0:0:0:0:
372,204,105508,2,0,P|374:230|384:255,1,53.9999983520508,2|0,0:0|0:0,0:0:0:0:
422,131,105815,2,0,L|354:115,1,53.9999983520508,8|0,0:0|0:0,0:0:0:0:
319,216,106123,2,0,L|387:200,1,53.9999983520508,2|0,0:0|0:0,0:0:0:0:
293,75,106431,6,0,P|282:102|284:145,1,53.9999983520508,2|0,0:0|0:0,0:0:0:0:
212,210,106738,2,0,P|209:183|199:158,1,53.9999983520508,2|0,0:0|0:0,0:0:0:0:
72,191,107046,2,0,L|133:202,1,53.9999983520508,8|0,0:0|0:0,0:0:0:0:
124,115,107354,2,0,L|70:105,1,53.9999983520508,2|0,0:0|0:0,0:0:0:0:
208,179,107661,5,2,0:0:0:0:
208,179,108277,2,0,P|164:264|180:336,1,161.999995056153,10|0,0:0|0:0,0:0:0:0:
248,380,108892,6,0,P|302:356|371:358,1,107.999996704102,2|0,0:0|0:0,0:0:0:0:
439,376,109354,1,2,0:0:0:0:
368,273,109508,1,8,0:0:0:0:
368,273,109969,1,2,0:0:0:0:
407,202,110123,6,0,P|443:242|446:295,1,107.999996704102,2|0,0:0|0:0,0:0:0:0:
388,354,110585,1,2,0:0:0:0:
328,198,110738,1,8,0:0:0:0:
328,198,111200,1,2,0:0:0:0:
284,270,111354,6,0,P|230:266|181:243,1,107.999996704102,8|0,0:0|0:0,0:0:0:0:
127,171,111815,1,2,0:0:0:0:
247,190,111969,2,0,P|258:241|254:314,1,107.999996704102,8|0,0:0|0:0,0:0:0:0:
163,376,112431,1,0,3:1:0:0:
163,376,112508,1,0,3:1:0:0:
163,376,112585,5,12,0:0:0:0:
15,284,112738,1,8,0:0:0:0:
35,239,112814,1,8,0:0:0:0:
72,206,112891,1,8,0:0:0:0:
119,191,112968,1,8,0:0:0:0:
168,195,113045,1,8,0:0:0:0:
211,219,113122,1,8,0:0:0:0:
241,257,113200,1,8,0:0:0:0:
271,295,113277,1,8,0:0:0:0:
314,319,113354,1,8,0:0:0:0:
363,323,113431,1,8,0:0:0:0:
410,308,113508,1,8,0:0:0:0:
447,275,113585,1,8,0:0:0:0:
467,230,113661,1,8,0:0:0:0:
470,180,113738,1,8,0:0:0:0:
453,132,113815,6,0,L|347:112,1,107.999996704102,4|0,3:1|0:0,0:0:0:0:
144,37,114123,2,0,L|250:17,1,107.999996704102,8|0,0:0|0:0,0:0:0:0:
291,273,114431,2,0,P|243:244|282:94,1,215.999993408203,2|8,3:0|0:0,0:0:0:0:
369,212,114892,1,2,0:0:0:0:
242,357,115046,6,0,P|190:377|118:370,1,107.999996704102,2|0,3:0|0:0,0:0:0:0:
388,310,115354,2,0,P|441:309|491:328,1,107.999996704102,10|0,0:0|0:0,0:0:0:0:
163,293,115661,2,0,P|143:243|144:189,1,107.999996704102,2|0,3:0|0:0,0:0:0:0:
272,168,115969,2,0,P|291:217|290:271,1,107.999996704102,10|0,0:0|0:0,0:0:0:0:
211,69,116277,6,0,L|310:79,1,90,6|0,3:0|0:0,0:0:0:0:
361,178,116585,2,0,L|271:167,1,90,10|0,0:0|0:0,0:0:0:0:
147,0,116892,2,0,B|115:26|115:26|122:128,1,125.999996154785,6|0,3:1|0:0,0:0:0:0:
417,244,117200,2,0,B|449:218|449:218|442:116,1,125.999996154785,8|0,0:0|0:0,0:0:0:0:
79,235,117508,6,0,B|160:226|160:226|200:265|200:265|277:257,1,215.999993408203,6|8,3:1|0:0,0:0:0:0:
417,244,117969,1,0,0:0:0:0:
233,179,118123,2,0,P|200:106|214:27,1,161.999995056153,2|0,3:0|0:0,0:0:0:0:
197,10,118431,2,0,P|251:-5|320:8,1,107.999996704102,8|0,0:0|0:0,0:0:0:0:
113,87,118738,6,0,P|59:92|8:77,1,107.999996704102,4|0,3:1|0:0,0:0:0:0:
310,94,119046,2,0,L|323:208,1,107.999996704102,8|0,0:0|0:0,0:0:0:0:
107,0,119354,2,0,L|81:228,1,215.999993408203,2|8,3:0|0:0,0:0:0:0:
117,324,119815,1,0,0:0:0:0:
231,99,119969,5,12,0:0:0:0:
251,323,120123,1,0,3:1:0:0:
328,61,120277,5,12,0:0:0:0:
350,344,120431,1,0,3:1:0:0:
158,53,120585,5,8,0:0:0:0:
158,53,120661,1,8,3:0:0:0:
158,53,120738,2,0,L|92:38,1,53.9999983520508,8|8,3:0|3:0,0:0:0:0:
324,163,120892,1,8,0:0:0:0:
324,163,120968,1,8,3:0:0:0:
324,163,121046,2,0,L|390:148,1,53.9999983520508,8|8,3:0|3:0,0:0:0:0:
133,166,121200,6,0,P|109:221|108:278,1,107.999996704102,12|0,0:0|0:0,0:0:0:0:
241,216,121508,1,8,0:0:0:0:
52,95,121661,1,8,0:0:0:0:
208,308,121815,1,8,0:0:0:0:
199,24,121969,1,8,0:0:0:0:
0,267,122123,1,8,0:0:0:0:
336,302,122277,1,8,0:0:0:0:
77,6,122431,6,0,L|68:113,1,107.999996704102,4|8,3:1|0:0,0:0:0:0:
58,200,122661,1,8,0:0:0:0:
99,234,122737,1,8,0:0:0:0:
151,245,122814,1,8,0:0:0:0:
202,230,122891,1,8,0:0:0:0:
241,193,122968,1,8,0:0:0:0:
258,142,123045,1,8,0:0:0:0:
275,91,123123,1,8,0:0:0:0:
314,54,123200,1,8,0:0:0:0:
365,39,123277,1,8,0:0:0:0:
417,50,123354,1,8,0:0:0:0:
459,85,123430,1,8,0:0:0:0:
478,136,123508,1,8,0:0:0:0:
473,189,123585,1,8,0:0:0:0:
447,230,123661,6,0,B|389:226|352:273|352:273|325:217|270:205,1,215.999993408203,6|8,3:0|0:0,0:0:0:0:
369,149,124123,1,2,0:0:0:0:
389,356,124277,2,0,P|312:355|285:337,1,107.999996704102,2|0,3:0|3:1,0:0:0:0:
274,206,124585,1,10,0:0:0:0:
464,316,124738,1,2,0:0:0:0:
198,272,124892,6,0,P|175:223|181:170,1,107.999996704102,2|0,3:0|0:0,0:0:0:0:
314,45,125200,1,8,0:0:0:0:
274,206,125354,1,2,0:0:0:0:
161,34,125508,2,0,L|46:9,1,107.999996704102,2|0,3:0|3:1,0:0:0:0:
297,127,125815,2,0,L|412:102,1,107.999996704102,8|2,0:0|0:0,0:0:0:0:
98,121,126123,6,0,P|52:217|65:323,1,215.999993408203,2|8,3:0|0:0,0:0:0:0:
216,362,126585,1,2,0:0:0:0:
274,206,126738,2,0,P|213:209|157:229,1,107.999996704102,2|0,3:0|3:1,0:0:0:0:
375,279,127046,1,10,0:0:0:0:
297,127,127200,1,2,0:0:0:0:
338,366,127354,6,0,P|390:372|439:349,1,107.999996704102,2|0,3:0|0:0,0:0:0:0:
357,188,127661,1,8,0:0:0:0:
282,303,127815,1,2,0:0:0:0:
444,225,127969,1,2,3:0:0:0:
297,127,128123,1,0,3:1:0:0:
383,298,128277,2,0,P|431:320|484:314,1,107.999996704102,8|2,0:0|0:0,0:0:0:0:
422,76,128585,6,0,B|443:225|443:225|472:154,1,207.000003948212,6|8,3:0|0:0,0:0:0:0:
512,90,129046,1,2,0:0:0:0:
318,37,129200,2,0,L|332:139,1,103.500001974106,2|0,3:0|3:1,0:0:0:0:
355,260,129508,1,10,0:0:0:0:
422,76,129661,1,2,0:0:0:0:
271,210,129815,6,0,P|212:215|160:194,1,103.500001974106,2|0,3:0|0:0,0:0:0:0:
225,0,130123,1,8,0:0:0:0:
332,139,130277,1,2,0:0:0:0:
119,107,130431,2,0,L|103:-3,1,103.500001974106,2|0,3:0|3:1,0:0:0:0:
347,37,130738,2,0,L|332:139,1,103.500001974106,8|2,0:0|0:0,0:0:0:0:
117,253,131046,6,0,P|181:230|256:343,1,207.000003948212,6|8,3:0|0:0,0:0:0:0:
114,356,131508,1,2,0:0:0:0:
26,209,131661,2,0,P|12:161|15:84,1,103.500001974106,2|0,3:0|3:1,0:0:0:0:
203,91,131969,1,10,0:0:0:0:
117,253,132123,1,2,0:0:0:0:
165,3,132277,5,0,3:1:0:0:
280,221,132431,1,8,0:0:0:0:
113,148,132585,1,8,0:0:0:0:
132,114,132661,1,8,0:0:0:0:
164,94,132738,1,8,0:0:0:0:
203,91,132815,1,8,0:0:0:0:
238,106,132892,5,8,0:0:0:0:
278,138,132969,1,8,0:0:0:0:
326,155,133046,1,8,0:0:0:0:
377,151,133123,1,8,0:0:0:0:
420,122,133200,1,8,0:0:0:0:
368,113,133277,1,8,0:0:0:0:
318,128,133354,1,8,0:0:0:0:
288,170,133431,1,8,0:0:0:0:
280,221,133508,6,0,B|273:272|292:322|331:354|331:354|360:335|367:290,1,207.000003948212,6|8,3:0|0:0,0:0:0:0:
366,227,133969,1,2,0:0:0:0:
200,140,134123,2,0,P|180:189|177:263,1,103.500001974106,2|0,3:0|0:0,0:0:0:0:
227,370,134431,1,10,0:0:0:0:
280,221,134585,1,2,0:0:0:0:
127,342,134738,6,0,P|41:364|-10:343,1,103.500001974106,2|0,3:0|0:0,0:0:0:0:
95,109,135046,1,8,0:0:0:0:
174,238,135200,1,2,0:0:0:0:
0,272,135354,2,0,L|8:168,1,103.500001974106,2|0,3:0|0:0,0:0:0:0:
191,36,135661,2,0,L|199:139,1,103.500001974106,8|2,0:0|0:0,0:0:0:0:
247,337,135969,6,0,P|313:366|392:273,1,207.000003948212,2|8,3:0|0:0,0:0:0:0:
310,169,136431,1,2,0:0:0:0:
149,283,136585,2,0,P|149:343|164:396,1,103.500001974106,2|0,3:0|0:0,0:0:0:0:
240,235,136892,1,8,0:0:0:0:
89,184,137046,1,2,0:0:0:0:
103,362,137200,6,0,P|162:372|214:344,1,103.500001974106,2|0,3:0|0:0,0:0:0:0:
169,200,137508,1,8,0:0:0:0:
48,290,137661,1,2,0:0:0:0:
310,279,137815,2,0,L|322:168,1,103.500001974106,2|0,3:0|0:0,0:0:0:0:
160,35,138123,1,8,0:0:0:0:
239,169,138277,1,2,0:0:0:0:
239,169,138354,1,2,0:0:0:0:
239,169,138431,6,0,P|291:103|416:153,1,207.000003948212,6|8,3:0|0:0,0:0:0:0:
310,279,138892,1,2,0:0:0:0:
152,229,139046,2,0,P|136:166|138:108,1,103.500001974106,2|0,3:0|0:0,0:0:0:0:
329,187,139354,1,8,0:0:0:0:
229,348,139508,1,2,0:0:0:0:
247,93,139661,6,0,P|312:72|367:76,1,103.500001974106,2|0,3:0|0:0,0:0:0:0:
420,262,139969,1,8,0:0:0:0:
240,199,140123,1,2,0:0:0:0:
448,72,140277,2,0,B|470:120|470:120|463:170,1,103.500001974106,14|0,0:0|0:0,0:0:0:0:
344,319,140585,1,8,3:0:0:0:
325,285,140661,1,8,3:0:0:0:
322,247,140738,1,8,3:0:0:0:
335,210,140815,1,8,3:0:0:0:
362,183,140892,6,0,L|373:301,1,103.500001974106,6|0,3:0|0:0,0:0:0:0:
243,243,141200,1,8,0:0:0:0:
420,262,141354,1,8,0:0:0:0:
216,336,141508,1,8,0:0:0:0:
270,120,141661,1,8,0:0:0:0:
344,319,141815,1,8,0:0:0:0:
171,130,141969,1,8,0:0:0:0:
421,100,142123,5,8,0:0:0:0:
243,243,142277,1,8,0:0:0:0:
304,3,142431,1,8,0:0:0:0:
420,262,142585,1,8,0:0:0:0:
171,130,142738,1,8,0:0:0:0:
512,89,142892,1,8,0:0:0:0:
340,381,143046,1,8,0:0:0:0:
124,46,143200,1,8,0:0:0:0:
322,193,143354,6,0,P|359:110|332:71,1,135.000005149842,2|0,0:0|0:0,0:0:0:0:
239,148,143815,1,2,0:0:0:0:
239,148,143969,2,0,P|154:169|86:153,1,135.000005149842,2|2,0:0|0:0,0:0:0:0:
42,95,144431,1,2,0:0:0:0:
12,182,144585,6,0,L|24:326,1,135.000005149842,2|0,0:0|0:0,0:0:0:0:
117,301,145046,1,2,0:0:0:0:
117,301,145200,2,0,B|193:290|166:338|244:330,1,135.000005149842,2|0,0:0|0:0,0:0:0:0:
405,89,145815,6,0,B|385:170|385:170|409:206,1,125.999996154785,2|0,0:0|0:0,0:0:0:0:
503,167,146329,1,2,0:0:0:0:
503,167,146491,2,0,P|444:157|407:205,1,125.999996154785,2|2,0:0|0:0,0:0:0:0:
414,312,146977,1,2,0:0:0:0:
510,276,147139,6,0,L|372:292,1,116.999994644165,2|0,0:0|0:0,0:0:0:0:
256,368,147645,1,2,0:0:0:0:
256,368,147827,2,0,L|394:384,1,116.999994644165,2|0,0:0|0:0,0:0:0:0:
