osu file format v14

[General]
AudioFilename: audio.mp3
AudioLeadIn: 0
PreviewTime: 54520
Countdown: 0
SampleSet: Soft
StackLeniency: 0.4
Mode: 0
LetterboxInBreaks: 0
StoryFireInFront: 0
WidescreenStoryboard: 1

[Editor]
DistanceSpacing: 1.7
BeatDivisor: 4
GridSize: 8
TimelineZoom: 2.5

[Metadata]
Title:Joker ni Yoroshiku (TV Size)
TitleUnicode:ジョーカーに宜しく (TV Size)
Artist:PENGUIN RESEARCH
ArtistUnicode:PENGUIN RESEARCH
Creator:Nevo
Version:xChorse's Insane
Source:デュラララ!!×2 結
Tags:durararax2 x2 durarara season 2 cour 3 part ketsu ending anime japanese rock yudragen ChaoticRed spoes glaceon [_L_u_k_a_s_] Lukas xchorse skytuna _epreus
BeatmapID:2083683
BeatmapSetID:959942

[Difficulty]
HPDrainRate:6
CircleSize:4
OverallDifficulty:7.5
ApproachRate:9
SliderMultiplier:1.8
SliderTickRate:1

[Events]
//Background and Video events
0,0,"6-161103135634-50.jpg",0,0
Video,0,"ed.mp4"
//Break Periods
//Storyboard Layer 0 (Background)
//Storyboard Layer 1 (Fail)
//Storyboard Layer 2 (Pass)
//Storyboard Layer 3 (Foreground)
//Storyboard Layer 4 (Overlay)
//Storyboard Sound Samples

[TimingPoints]
363,263.1578947368,4,2,1,40,1,0
363,-166.6666666667,4,2,1,40,0,0
3520,-117.6470588235,4,2,1,40,0,0
4573,-100,4,2,1,60,0,0
12994,270.002700027,4,2,1,60,1,0
13264,263.1578947368,4,2,1,60,1,0
14053,263.1578947368,4,2,1,60,1,0
19316,-142.8571428571,4,2,1,60,0,0
19710,-125,4,2,1,60,0,0
20500,-100,4,2,1,60,0,0
21421,-200,4,2,1,45,0,0
29842,-200,4,2,1,55,0,0
29974,-133.3333333333,4,2,1,55,0,0
37210,-153.8461538462,4,2,1,55,0,0
37737,-181.8181818182,4,2,1,55,0,0
38131,-200,4,2,1,45,0,0
46552,-133.333333333333,4,2,1,55,0,0
49579,255.31914893617,4,2,1,40,1,0
49706,-133.3333333333,4,2,1,55,0,0
49834,263.157894736842,4,2,1,55,1,0
49965,-133.333333333333,4,2,1,40,0,0
50228,300,4,2,1,40,1,0
50378,263.1578947368,4,2,1,40,1,0
50772,-126.582278481013,4,2,1,50,0,0
50904,256.410256410256,4,2,1,50,1,0
51416,263.1578947368,4,2,1,40,1,0
51416,-133.333333333333,4,2,1,40,0,0
51942,-133.333333333333,4,2,1,50,0,0
52073,-133.333333333333,4,2,1,40,0,0
52863,-133.333333333333,4,2,1,40,0,0
53126,338.983050847458,4,2,1,55,1,0
53295,263.1578947368,4,2,1,55,1,0
53689,236.220472440945,4,2,1,55,1,0
53925,262.008733624454,4,2,1,55,1,0
54056,262.008733624454,4,2,1,55,1,0
54580,262.008733624454,4,2,1,65,1,0
54580,-333.3333333333,4,2,1,65,0,0
54973,260.869565217391,4,2,1,75,1,1
54973,-98.0392156862745,4,2,1,75,0,1
55103,260.869565217391,4,2,1,75,1,1
57189,263.1578947368,4,2,1,75,1,1
58504,283.018867924528,4,2,1,75,1,1
58787,259.74025974026,4,2,1,75,1,1
59176,263.1578947368,4,2,1,75,1,1
59307,263.1578947368,4,2,1,75,1,1
60622,243.90243902439,4,2,1,75,1,1
60865,288.46153846157,4,2,1,75,1,1
61009,252.100840336134,4,2,1,75,1,1
61135,254.237288135593,4,2,1,75,1,1
61262,263.1578947368,4,2,1,75,1,1
61393,263.1578947368,4,2,1,75,1,1
62050,283.018867924528,4,2,1,75,1,1
62191,257.510729613734,4,2,1,75,1,1
62319,263.1578947368,4,2,1,75,1,1
63371,-108.695652173913,4,2,1,75,0,1
63766,-100,4,2,1,75,0,1
64687,279.06976744186,4,2,1,75,1,1
65105,258.620689655172,4,2,1,75,1,1
65492,263.1578947368,4,2,1,75,1,1
65623,263.1578947368,4,2,1,75,1,1
67201,-133.3333333333,4,2,1,75,0,1
69701,-100,4,2,1,75,0,1
71938,-100,4,2,1,60,0,1
75359,-100,4,2,1,75,0,1
75491,-100,4,2,1,60,0,1
77728,-100,4,2,1,40,0,1
77793,-100,4,2,1,75,0,1
77859,-100,4,2,1,40,0,1
77925,-100,4,2,1,75,0,1
77991,-100,4,2,1,40,0,1
78056,-100,4,2,1,75,0,1
86675,-142.8571428571,4,2,1,75,0,0
87070,-125,4,2,1,75,0,0
87859,-111.1111111111,4,2,1,75,0,0

[Colours]
Combo1 : 165,240,142
Combo2 : 120,118,203
Combo3 : 128,128,128
Combo4 : 182,109,109

[HitObjects]
0,296,363,6,0,P|46:290|71:299,1,54.2375983520422,2|0,3:2|0:0,0:0:0:0:
108,351,626,2,0,B|141:321|141:321|124:248,1,108.064796704085,0|0,3:0|3:0,0:0:0:0:
224,165,1020,2,0,B|191:195|191:195|208:268,1,108.064796704085,2|0,0:0|0:0,0:0:0:0:
216,343,1415,2,0,L|277:328,1,54.2375983520422,2|0,3:2|0:0,0:0:0:0:
314,261,1678,1,0,3:0:0:0:
381,343,1810,1,0,0:0:0:0:
453,212,1941,2,0,L|465:159,1,54.2375983520422,0|0,3:0|0:0,0:0:0:0:
331,61,2205,2,0,L|343:113,1,54.2375983520422,0|0,3:0|0:0,0:0:0:0:
277,225,2468,6,0,P|271:179|280:154,1,54.2375983520422,2|0,3:2|0:0,0:0:0:0:
179,118,2731,2,0,B|149:85|149:85|76:102,1,108.064796704085,0|0,3:0|3:0,0:0:0:0:
16,177,3126,2,0,B|46:210|46:210|119:193,1,108.064796704085,0|0,0:0|3:0,2:0:0:0:
114,200,3455,1,0,3:0:0:0:
124,208,3520,6,0,P|148:256|147:267,2,51.1275009727397,0|0|0,3:0|3:0|3:0,3:0:0:0:
246,237,3784,2,0,P|222:284|221:302,2,51.1275009727397,0|0|0,3:0|3:0|3:0,3:0:0:0:
162,335,4047,2,8,P|158:387|152:396,2,51.1275009727397,8|8|8,0:0|0:0|0:0,2:0:0:0:
246,360,4310,2,8,L|295:350,2,51.0000009727478,8|8|8,0:0|0:0|0:0,2:0:0:0:
396,349,4573,6,0,P|396:254|415:156,1,180.107999999971,6|8,1:2|0:2,0:0:0:0:
380,70,4968,2,0,B|333:42|282:82|310:102|257:129|197:104,1,180.107999999971,2|0,1:2|1:2,0:0:0:0:
191,208,5362,2,0,P|199:138|101:137,1,180.107999999971,10|0,0:2|0:0,0:0:0:0:
65,209,5757,5,2,1:2:0:0:
65,209,5889,2,0,L|88:309,1,90.3959999999857,0|0,2:0|0:0,2:0:0:0:
141,363,6152,2,0,P|192:339|241:354,1,90.3959999999857,0|0,1:2|1:2,2:0:0:0:
260,264,6415,2,0,P|298:286|342:283,1,90.3959999999857,8|0,0:2|0:0,2:0:0:0:
429,356,6678,6,0,P|428:266|444:178,1,180.107999999971,2|8,1:2|0:2,0:0:0:0:
423,88,7073,2,0,P|351:122|334:20,1,180.107999999971,2|0,1:2|1:2,0:0:0:0:
234,138,7468,2,0,P|199:64|124:97,1,180.107999999971,10|0,0:2|0:0,0:0:0:0:
40,74,7862,5,2,1:2:0:0:
40,74,7994,2,0,P|47:128|36:176,1,90.3959999999857,0|0,2:0|0:0,2:0:0:0:
39,316,8257,1,2,1:2:0:0:
92,254,8389,1,2,1:2:0:0:
169,231,8520,1,10,0:2:0:0:
247,251,8652,1,0,0:0:0:0:
311,300,8784,6,0,P|373:330|357:245,1,180.107999999971,2|8,1:2|0:2,0:0:0:0:
233,171,9178,2,0,P|176:209|257:238,1,180.107999999971,2|0,1:2|1:2,0:0:0:0:
383,167,9573,2,0,P|377:98|312:154,1,180.107999999971,10|0,0:2|0:0,0:0:0:0:
246,250,9968,5,2,1:2:0:0:
246,250,10099,2,0,L|120:226,1,90.3959999999857,0|0,2:0|0:0,2:0:0:0:
65,160,10362,2,0,L|191:136,1,90.3959999999857,0|0,1:2|1:2,2:0:0:0:
271,72,10626,2,0,L|145:48,1,90.3959999999857,8|0,0:2|0:0,0:0:0:0:
260,175,10889,6,0,B|307:203|358:163|330:143|383:116|443:141,1,180.107999999971,2|8,1:2|0:2,2:0:0:0:
512,92,11284,2,0,P|441:132|481:203,1,180.107999999971,2|0,1:2|1:2,0:0:0:0:
512,300,11678,2,0,P|458:286|389:297,1,90.3959999999857,10|0,0:2|2:0,0:0:0:0:
339,326,11941,6,0,P|337:362|326:389,2,45.1979999999928,0|0|0,1:2|2:0|1:2,2:0:0:0:
328,310,12205,2,0,P|267:314|226:220,1,135.251999999978,8|0,0:2|2:0,0:0:0:0:
221,160,12468,6,0,P|202:122|163:102,2,60.1499999999904,8|8|8,0:2|0:0|1:2,2:0:0:0:
291,209,12731,2,0,P|323:199|383:184,2,60.1499999999904,8|8|8,0:0|0:2|0:0,2:0:0:0:
222,261,12994,6,0,P|164:228|69:284,1,180,6|8,1:2|0:2,0:0:0:0:
8,196,13395,2,0,P|65:162|64:51,1,180.107999999971,2|0,1:2|1:2,0:0:0:0:
171,44,13790,2,0,P|171:110|267:165,1,180,10|0,0:2|0:0,0:0:0:0:
346,141,14184,5,2,1:2:0:0:
346,141,14316,2,0,L|365:31,1,90.3959999999857,8|0,0:2|0:0,0:0:0:0:
433,231,14579,1,0,1:2:0:0:
377,302,14710,1,0,1:2:0:0:
305,242,14842,1,8,0:2:0:0:
242,313,14974,1,0,0:0:0:0:
177,247,15105,6,0,B|130:219|79:259|107:279|54:306|-6:281,1,180.107999999971,2|8,1:2|0:2,0:0:0:0:
62,354,15500,2,0,P|95:298|16:202,1,180.107999999971,2|0,1:2|1:2,0:0:0:0:
69,131,15895,2,0,P|133:131|177:15,1,180.107999999971,10|0,0:2|0:0,0:0:0:0:
262,14,16289,5,2,1:2:0:0:
262,14,16421,2,0,L|372:33,1,90.3959999999857,8|0,0:0|0:0,0:0:0:0:
430,18,16684,1,2,1:2:0:0:
472,87,16816,1,2,1:2:0:0:
484,166,16947,1,10,0:2:0:0:
465,245,17079,1,0,0:0:0:0:
416,310,17210,6,0,P|466:311|514:347,2,90.0539999999856,2|0|8,1:2|2:0|0:2,0:0:0:0:
349,355,17605,2,0,B|302:383|251:343|279:323|226:296|166:321,1,180.107999999971,2|0,1:2|1:2,0:0:0:0:
105,326,18000,2,0,P|176:286|136:215,1,180.107999999971,8|0,0:0|0:0,0:0:0:0:
70,168,18395,5,2,1:2:0:0:
70,168,18526,2,0,L|55:55,1,90.3959999999857,8|0,0:0|0:0,0:0:0:0:
117,22,18789,2,0,P|176:49|231:23,1,90.3959999999857,0|0,1:0|1:2,2:0:0:0:
289,111,19052,2,0,P|244:109|207:134,1,90.3959999999857,8|0,0:2|1:2,0:0:0:0:
80,231,19316,6,0,L|70:168,2,63.0377980773825,14|0|0,0:2|1:2|1:2,2:0:0:0:
163,299,19710,2,0,L|179:198,2,72.0431999999885,10|0|0,0:2|1:2|1:2,2:0:0:0:
235,371,20105,5,10,0:2:0:0:
259,241,20237,1,0,1:2:0:0:
222,382,20368,1,0,3:2:0:0:
321,322,20500,6,0,P|353:313|371:317,7,30,0|0|0|0|0|0|0|0,3:0|3:0|3:0|3:0|3:0|3:0|3:0|3:0,3:0:0:0:
400,225,20895,2,0,P|377:224|314:179,1,90,8|0,0:2|2:0,2:0:0:0:
456,159,21158,6,0,P|478:159|515:176,2,60,10|10|10,0:0|0:0|0:0,2:0:0:0:
389,113,21421,6,0,L|380:13,1,90,6|10,1:2|0:2,0:0:0:0:
297,60,21816,2,0,P|263:65|235:61,1,45.1979999999928,2|0,0:0|2:0,0:0:0:0:
187,9,22079,2,0,P|164:8|142:13,1,45.1979999999928,2|8,0:0|0:2,2:0:0:0:
82,86,22342,2,0,P|81:132|46:179,1,90.0539999999856,2|0,0:0|0:0,0:0:0:0:
44,180,22737,1,8,0:2:0:0:
9,357,23000,6,0,L|69:367,1,45.1979999999928,0|0,0:0|0:0,2:0:0:0:
145,286,23263,2,0,L|85:296,1,45.1979999999928,10|0,0:2|0:0,0:0:0:0:
217,352,23526,6,0,P|240:314|241:269,1,90.0539999999856,2|8,0:0|0:2,0:0:0:0:
260,191,23921,2,0,L|273:130,1,45.1979999999928,2|0,0:0|2:0,0:0:0:0:
163,130,24184,2,0,L|172:174,1,45.1979999999928,2|8,0:0|0:2,2:0:0:0:
179,36,24447,2,0,P|134:35|95:57,1,90.0539999999856,2|0,0:0|0:0,0:0:0:0:
85,72,24842,1,8,2:0:0:0:
317,174,25105,6,0,L|324:129,1,45.1979999999928,0|0,0:0|1:2,0:0:0:0:
399,64,25368,2,0,L|406:108,1,45.1979999999928,10|2,0:2|1:2,0:0:0:0:
455,257,25631,6,0,P|414:231|361:237,1,90.0539999999856,2|8,1:2|0:2,0:0:0:0:
386,369,26026,2,0,L|393:324,1,45.1979999999928,2|0,1:2|2:0,0:0:0:0:
296,256,26289,2,0,L|303:300,1,45.1979999999928,2|8,0:0|0:2,2:0:0:0:
239,367,26552,2,0,P|200:345|155:345,1,90.0539999999856,0|2,2:0|0:0,2:0:0:0:
140,355,26947,6,0,P|144:333|139:296,1,45.1979999999928,8|0,0:2|0:0,0:0:0:0:
73,259,27210,2,0,P|69:237|73:200,1,45.1979999999928,0|0,0:0|0:0,0:0:0:0:
149,166,27474,2,0,P|153:144|148:107,1,45.1979999999928,8|0,0:2|0:0,0:0:0:0:
82,70,27737,6,0,P|78:48|82:11,2,45.0269999999928,2|0|10,0:0|2:0|0:2,0:0:0:0:
151,121,28131,2,0,P|191:128|255:109,1,90.0539999999856,2|2,0:0|0:0,0:0:0:0:
358,99,28526,2,0,P|331:130|316:195,1,90.0539999999856,10|0,0:2|0:0,0:0:0:0:
273,289,28921,2,0,P|259:250|218:197,1,90.0539999999856,2|0,0:0|0:0,0:0:0:0:
153,183,29316,2,0,L|88:170,1,45.1979999999928,0|0,0:0|1:2,2:0:0:0:
109,84,29579,2,0,L|174:71,1,45.1979999999928,10|0,0:2|1:2,2:0:0:0:
19,86,29842,5,6,1:2:0:0:
19,86,29974,2,0,L|29:169,1,67.7970025749101,2|0,0:0|0:0,2:0:0:0:
16,268,30237,2,0,P|67:241|91:241,1,67.7970025749101,2|0,1:2|2:0,0:0:0:0:
151,281,30500,2,0,P|177:302|215:312,1,67.7970025749101,2|8,0:0|0:2,0:0:0:0:
279,210,30763,2,0,L|286:290,1,67.7970025749101,2|0,0:0|2:0,0:0:0:0:
363,320,31026,5,2,0:0:0:0:
363,320,31158,2,0,L|457:329,1,67.7970025749101,8|0,0:2|2:0,0:0:0:0:
486,221,31421,2,0,L|392:230,1,67.7970025749101,0|0,0:0|0:0,2:0:0:0:
351,162,31684,2,0,P|343:150|338:95,1,67.7970025749101,10|2,0:2|1:2,0:0:0:0:
268,33,31947,6,0,P|260:48|200:91,1,67.7970025749101,2|0,1:2|2:0,0:0:0:0:
144,92,32210,1,10,0:2:0:0:
144,92,32342,2,0,L|134:167,1,67.7970025749101,2|0,0:0|0:0,0:0:0:0:
223,170,32605,2,0,L|233:245,1,67.7970025749101,2|8,0:0|0:2,0:0:0:0:
125,238,32868,2,0,L|115:313,1,67.7970025749101,2|0,0:0|0:0,0:0:0:0:
246,317,33131,5,2,0:0:0:0:
246,317,33263,2,0,L|256:392,1,67.7970025749101,0|0,2:0|0:0,2:0:0:0:
347,374,33526,2,0,P|376:359|431:367,1,67.7970025749101,0|0,0:0|1:2,0:0:0:0:
503,300,33789,2,0,P|469:299|439:284,1,67.7970025749101,10|0,0:2|1:2,0:0:0:0:
375,221,34052,6,0,L|387:131,1,67.7970025749101,2|0,1:2|2:0,0:0:0:0:
366,50,34316,1,8,0:2:0:0:
366,50,34447,2,0,P|313:74|287:62,1,67.7970025749101,2|0,0:0|2:0,0:0:0:0:
236,20,34710,2,0,P|203:16|177:36,1,67.7970025749101,2|8,0:0|0:2,2:0:0:0:
149,114,34974,2,0,P|102:135|80:124,1,67.7970025749101,2|0,0:0|0:0,0:0:0:0:
51,246,35237,5,2,0:0:0:0:
51,246,35368,2,0,P|83:242|109:263,1,67.7970025749101,8|0,2:0|0:0,2:0:0:0:
176,335,35631,2,0,L|254:317,1,67.7970025749101,0|0,0:0|0:0,0:0:0:0:
280,246,35895,1,10,0:2:0:0:
353,295,36026,1,0,1:2:0:0:
396,219,36158,6,0,L|411:69,1,135.08100514982,2|10,1:2|0:2,0:0:0:0:
295,87,36552,2,0,P|235:111|211:105,1,67.7970025749101,2|0,0:0|0:0,0:0:0:0:
187,37,36816,2,0,P|142:18|108:37,1,67.7970025749101,2|8,0:0|0:2,0:0:0:0:
44,69,37079,1,2,0:0:0:0:
44,69,37210,6,0,L|36:141,3,58.6091973220732,0|2|0|0,0:0|0:0|2:0|0:0,2:0:0:0:
82,208,37737,6,0,P|95:199|144:199,2,49.5297015106123,2|0|8,1:2|1:2|0:2,2:0:0:0:
10,264,38131,2,0,L|1:362,1,90.0539999999856,6|0,1:2|0:0,0:0:0:0:
81,351,38526,2,0,P|135:345|142:347,1,45.1979999999928,8|0,0:2|0:0,0:0:0:0:
190,294,38789,1,0,0:0:0:0:
190,294,38921,1,0,0:0:0:0:
190,294,39052,2,0,P|211:300|241:298,1,45.1979999999928,8|0,0:2|0:0,0:0:0:0:
306,357,39316,6,0,L|315:299,1,45.1979999999928,0|0,0:0|0:0,0:0:0:0:
395,299,39579,2,0,L|386:250,1,45.1979999999928,10|0,0:2|0:0,2:0:0:0:
277,204,39842,2,0,P|323:199|348:159,1,90.0539999999856,2|8,0:0|0:2,0:0:0:0:
201,131,40237,2,0,L|191:234,1,90.0539999999856,2|0,1:2|0:0,0:0:0:0:
231,308,40631,2,0,P|196:300|172:301,1,45.1979999999928,8|0,0:2|0:0,0:0:0:0:
121,258,40895,1,0,0:0:0:0:
121,258,41026,1,0,0:0:0:0:
121,258,41158,2,0,P|98:263|77:265,1,45.1979999999928,10|0,0:2|0:0,0:0:0:0:
0,305,41421,6,0,L|6:199,1,90.0539999999856,2|10,0:0|0:2,0:0:0:0:
0,124,41816,2,0,P|51:130|63:126,1,45.1979999999928,2|0,0:0|0:0,0:0:0:0:
101,66,42079,2,0,P|122:59|145:59,1,45.1979999999928,2|0,0:0|0:0,0:0:0:0:
208,118,42342,6,0,L|297:106,1,90.0539999999856,2|0,1:2|0:0,0:0:0:0:
406,59,42737,2,0,L|343:47,1,45.1979999999928,8|0,0:2|0:0,0:0:0:0:
467,149,43000,1,0,0:0:0:0:
467,149,43131,1,0,0:0:0:0:
467,149,43263,2,0,L|531:141,1,45.1979999999928,10|0,0:2|0:0,0:0:0:0:
384,222,43526,6,0,L|287:212,1,90.0539999999856,2|10,0:0|0:2,0:0:0:0:
192,202,43921,1,0,0:0:0:0:
192,202,44052,2,0,L|249:122,1,90.0539999999856,2|10,0:0|0:2,0:0:0:0:
305,45,44447,2,0,L|344:134,1,90.0539999999856,2|0,1:2|0:0,0:0:0:0:
384,222,44842,6,0,L|320:216,1,45.1979999999928,8|0,0:2|0:0,0:0:0:0:
284,287,45105,1,2,0:0:0:0:
224,231,45237,1,0,0:0:0:0:
144,218,45368,1,8,0:2:0:0:
69,254,45500,6,0,P|51:223|41:200,1,45.1979999999928,4|0,1:2|2:0,0:0:0:0:
60,106,45763,1,8,0:3:0:0:
60,106,45895,2,0,L|121:100,1,45.1979999999928,8|8,0:3|0:3,2:0:0:0:
206,21,46158,2,0,L|144:17,1,45.1979999999928,10|4,0:2|0:3,2:0:0:0:
248,108,46421,1,8,0:3:0:0:
248,108,46552,6,0,P|296:61|300:-4,1,135.08100514982,6|0,1:2|0:0,0:0:0:0:
138,14,46947,2,0,L|130:85,1,67.7970025749101,0|0,1:2|0:0,0:0:0:0:
41,107,47210,2,0,L|48:39,1,67.7970025749101,0|0,1:2|0:0,3:0:0:0:
142,34,47474,2,0,L|134:105,1,67.7970025749101,0|0,1:2|2:0,3:0:0:0:
45,127,47737,2,0,L|52:59,1,67.7970025749101,0|0,1:2|0:0,3:0:0:0:
146,54,48000,6,0,L|138:125,1,67.7970025749101,2|0,1:2|0:0,0:0:0:0:
197,197,48263,2,0,B|233:206|267:181|239:161|287:144|326:155,1,135.08100514982,2|8,1:2|0:2,2:0:0:0:
357,222,48658,2,0,P|360:165|372:87,1,135.08100514982,6|0,1:2|0:0,0:0:0:0:
373,89,49052,1,0,1:2:0:0:
306,303,49316,6,0,P|237:293|215:300,2,67.5000025749208,2|2|0,1:2|0:0|1:2,0:0:0:0:
161,356,49706,2,0,L|151:274,1,68.0287525749209,10|0,0:2|2:0,0:0:0:0:
22,304,49965,2,0,L|30:220,1,67.7970025749208,2|0,0:0|1:2,0:0:0:0:
139,197,50228,2,0,L|125:101,1,90,2|8,0:0|1:3,2:0:0:0:
30,55,50509,5,6,1:3:0:0:
122,95,50641,1,4,1:3:0:0:
208,43,50772,2,0,L|360:22,1,140.57892347168,10|0,1:3|2:0,2:0:0:0:
341,24,51160,1,0,2:0:0:0:
422,247,51416,6,0,L|328:236,1,67.7970025749101,10|0,0:2|0:0,0:0:0:0:
295,304,51679,1,10,0:2:0:0:
234,191,51810,2,0,L|147:181,1,67.7970025749101,2|0,1:2|2:0,2:0:0:0:
18,267,52073,2,0,P|35:225|26:187,1,67.7970025749101,10|0,0:2|1:2,2:0:0:0:
45,86,52337,2,0,P|72:121|111:135,1,67.7970025749101,2|8,1:2|0:2,2:0:0:0:
181,88,52600,5,2,1:2:0:0:
234,191,52731,1,0,1:2:0:0:
271,34,52863,1,10,1:2:0:0:
271,34,53925,5,8,1:2:0:0:
271,34,54580,2,0,P|258:77|265:107,1,67.6052979400635,2|0,0:2|0:0,0:0:0:0:
322,139,54973,6,0,B|275:111|224:151|252:171|199:198|139:173,1,183.600001120605,6|0,1:2|1:2,0:0:0:0:
17,292,55363,2,0,P|21:196|5:186,1,90.2999999999999,10|0,0:2|0:0,0:0:0:0:
15,71,55624,2,0,P|95:122|111:113,1,90.2999999999999,2|0,1:2|1:2,2:0:0:0:
158,179,55885,1,10,0:2:0:0:
271,34,56016,6,0,P|371:29|470:6,1,180.6,2|0,1:2|1:2,0:0:0:0:
512,166,56407,2,0,P|444:128|401:131,1,90.2999999999999,8|0,0:2|1:2,0:0:0:0:
318,225,56668,1,2,1:2:0:0:
343,110,56798,1,0,0:0:0:0:
424,255,56929,1,8,0:2:0:0:
342,303,57059,6,0,B|293:323|244:291|272:271|219:244|159:269,1,180.69,2|0,1:2|1:2,0:0:0:0:
49,192,57452,2,0,L|36:294,1,90.3959999999857,10|0,0:2|0:0,0:0:0:0:
159,87,57715,2,0,L|172:189,1,90.3959999999857,2|0,1:2|1:2,0:0:0:0:
68,17,57978,1,10,0:2:0:0:
248,101,58110,6,0,B|290:120|343:93|315:73|364:41|413:61,1,180.107999999971,2|0,1:2|1:2,0:0:0:0:
475,163,58504,1,8,0:2:0:0:
499,71,58645,1,2,1:2:0:0:
389,138,58787,2,0,L|373:251,1,90.6030000000001,2|2,1:2|1:2,2:0:0:0:
319,295,59046,1,10,0:2:0:0:
462,252,59176,6,0,L|474:162,1,90,6|0,1:2|2:0,0:0:0:0:
411,60,59438,1,0,1:2:0:0:
297,127,59570,2,0,P|254:135|199:96,1,90.3959999999857,10|2,0:2|0:0,0:0:0:0:
78,42,59833,2,0,P|117:22|161:30,1,90.3959999999857,2|0,1:2|1:2,2:0:0:0:
213,115,60096,1,10,0:2:0:0:
9,154,60228,6,0,L|-2:359,1,180.107999999971,6|0,1:2|1:2,0:0:0:0:
97,257,60622,1,8,0:2:0:0:
170,328,60743,1,0,1:2:0:0:
247,193,60865,1,2,1:2:0:0:
361,337,61009,1,0,1:2:0:0:
434,163,61135,1,0,0:0:0:0:
393,78,61262,6,0,P|305:98|260:19,1,179.316,6|0,1:2|1:2,0:0:0:0:
110,35,61656,2,0,P|152:46|183:78,1,90.3959999999857,10|0,0:2|0:0,0:0:0:0:
117,216,61919,2,0,L|107:114,1,90,2|0,1:2|1:2,2:0:0:0:
34,81,62191,1,10,0:2:0:0:
101,297,62319,6,0,B|143:316|196:289|168:269|217:237|266:257,1,180.107999999971,2|2,1:2|1:2,0:0:0:0:
341,330,62713,2,0,L|365:231,1,90.3959999999857,10|2,0:2|1:2,2:0:0:0:
458,291,62976,1,2,1:2:0:0:
369,217,63108,1,2,1:2:0:0:
512,114,63240,1,10,0:2:0:0:
347,15,63371,6,0,B|313:0|262:25|290:45|237:72|184:46,1,165.699354440892,6|2,1:2|1:2,0:0:0:0:
110,173,63766,2,0,L|101:83,1,90.3959999999857,10|0,0:2|0:0,0:0:0:0:
190,240,64029,2,0,L|198:150,1,90.3959999999857,2|0,1:2|1:2,0:0:0:0:
98,309,64292,1,10,0:2:0:0:
287,217,64424,6,0,P|387:222|469:289,1,180,2|0,1:2|1:2,0:0:0:0:
512,184,64826,2,0,P|457:142|446:104,1,90.3449999999998,8|0,0:2|1:2,0:0:0:0:
378,2,65105,1,2,1:2:0:0:
494,16,65234,1,0,1:2:0:0:
358,108,65363,1,8,0:2:0:0:
291,33,65492,6,0,P|191:38|109:105,1,179.316,6|0,1:2|1:2,0:0:0:0:
122,208,65886,2,0,P|69:159|41:154,1,90.3959999999857,10|0,0:2|0:0,0:0:0:0:
157,305,66149,2,0,L|272:279,1,90.3959999999857,2|0,1:2|1:2,0:0:0:0:
312,346,66412,1,10,0:2:0:0:
407,195,66544,6,0,L|292:169,1,90.3959999999857,2|0,1:2|2:0,0:0:0:0:
252,100,66807,1,2,1:2:0:0:
203,164,66938,1,10,0:2:0:0:
122,174,67070,1,2,1:2:0:0:
51,134,67201,2,0,L|39:53,2,67.54050257491,2|0|8,1:2|1:2|0:2,2:0:0:0:
0,330,67596,6,0,P|49:294|135:307,1,135.08100514982,6|0,1:2|1:2,0:0:0:0:
195,347,67991,1,8,0:2:0:0:
195,347,68254,1,0,1:2:0:0:
269,299,68517,6,0,P|290:222|287:210,1,67.7970025749101,10|0,0:2|1:2,0:0:0:0:
359,160,68780,2,0,P|364:193|381:222,1,67.7970025749101,2|0,1:2|1:2,0:0:0:0:
454,81,69044,2,0,L|361:73,1,67.7970025749101,10|0,0:2|1:2,0:0:0:0:
291,165,69307,6,0,L|384:157,1,67.7970025749101,2|0,1:2|1:2,0:0:0:0:
210,110,69570,1,10,0:2:0:0:
210,110,69701,2,0,P|196:194|267:261,1,180.107999999971,6|0,1:2|1:2,0:0:0:0:
433,195,70096,5,8,0:2:0:0:
382,257,70228,1,0,1:2:0:0:
291,165,70359,1,0,1:2:0:0:
210,299,70491,1,0,1:2:0:0:
104,117,70622,1,10,0:2:0:0:
18,318,70754,1,0,1:2:0:0:
120,224,70886,6,0,L|213:205,1,90.3959999999857,14|0,2:2|2:0,2:0:0:0:
298,317,71149,1,2,1:2:0:0:
298,317,71280,2,0,L|198:297,1,90.3959999999857,10|0,2:2|2:0,2:0:0:0:
104,117,71544,1,10,2:2:0:0:
314,155,71807,5,0,2:0:0:0:
314,155,71872,1,0,2:0:0:0:
314,155,71938,2,0,P|298:243|299:333,1,180.107999999971,6|8,1:2|0:2,0:0:0:0:
392,344,72333,2,0,B|345:316|294:356|322:376|269:403|209:378,1,180.107999999971,2|0,1:2|1:2,0:0:0:0:
133,384,72728,2,0,P|141:314|43:313,1,180.107999999971,10|0,0:2|0:0,0:0:0:0:
0,232,73122,5,2,1:2:0:0:
0,232,73254,2,0,L|23:132,1,90.3959999999857,8|0,0:2|0:0,0:0:0:0:
51,62,73517,2,0,P|102:86|151:71,1,90.3959999999857,0|0,1:2|1:2,0:0:0:0:
170,168,73780,2,0,P|208:146|252:149,1,90.3959999999857,8|0,0:2|0:0,0:0:0:0:
342,115,74044,6,0,P|325:203|326:293,1,180.107999999971,2|8,1:2|0:2,0:0:0:0:
408,341,74438,2,0,P|336:307|319:409,1,180.107999999971,2|0,1:2|1:2,0:0:0:0:
205,384,74833,2,0,P|170:310|95:343,1,180.107999999971,10|0,0:2|0:0,0:0:0:0:
7,371,75228,5,2,1:2:0:0:
7,371,75359,2,0,P|14:317|3:269,1,90.3959999999857,0|0,2:0|0:0,2:0:0:0:
7,149,75622,1,2,1:2:0:0:
60,211,75754,1,2,1:2:0:0:
137,234,75886,1,10,0:2:0:0:
215,214,76017,1,0,0:0:0:0:
279,165,76149,6,0,P|341:135|325:220,1,180.107999999971,2|8,1:2|0:2,0:0:0:0:
201,293,76544,2,0,P|144:254|225:225,1,180.107999999971,2|0,1:2|1:2,0:0:0:0:
351,297,76938,2,0,P|345:365|280:309,1,180.107999999971,10|0,0:2|0:0,0:0:0:0:
246,250,77333,5,2,1:2:0:0:
246,250,77465,2,0,L|120:226,1,90.3959999999857,8|0,0:0|0:0,2:0:0:0:
22,163,77728,2,0,L|144:143,1,90,0|0,1:2|2:0,0:0:0:0:
204,100,77991,2,0,L|228:10,2,60,8|0|0,0:2|2:0|2:0,0:0:0:0:
262,184,78254,6,0,B|309:212|360:172|332:152|385:125|445:150,1,180.107999999971,6|8,1:2|0:2,0:0:0:0:
512,118,78649,2,0,P|441:158|481:229,1,180.107999999971,2|0,1:2|1:2,0:0:0:0:
512,333,79044,2,0,P|458:319|389:330,1,90.3959999999857,10|0,0:2|0:0,0:0:0:0:
180,305,79307,6,0,P|182:349|187:365,2,60,0|0|0,3:2|3:0|3:2,3:0:0:0:
227,259,79570,2,8,P|166:263|125:169,1,120,8|8,0:2|0:0,0:0:0:0:
144,105,79833,6,0,L|162:33,2,60.1499999999904,8|8|8,0:2|0:0|0:2,2:0:0:0:
57,137,80096,2,0,L|-9:87,2,60.1499999999904,8|8|8,0:2|0:0|0:0,2:0:0:0:
121,210,80359,6,0,B|168:238|219:198|191:178|244:151|304:176,1,180.107999999971,6|8,1:2|0:2,0:0:0:0:
410,259,80754,2,0,P|356:211|441:172,1,180.107999999971,2|0,1:2|1:2,0:0:0:0:
343,322,81149,2,0,P|311:299|287:162,1,180.107999999971,10|0,0:2|0:0,0:0:0:0:
378,67,81544,5,2,1:2:0:0:
378,67,81675,2,0,L|268:48,1,90.3959999999857,8|0,0:2|0:0,0:0:0:0:
212,11,81938,1,0,1:2:0:0:
146,71,82070,1,0,1:2:0:0:
205,147,82201,1,8,0:2:0:0:
130,207,82333,1,0,0:0:0:0:
185,280,82465,6,0,B|232:308|283:268|255:248|308:221|368:246,1,180.107999999971,2|8,1:2|0:2,0:0:0:0:
405,316,82859,2,0,P|372:260|451:164,1,180.107999999971,2|0,1:2|1:2,0:0:0:0:
336,71,83254,2,0,P|305:151|220:163,1,180.107999999971,10|0,0:2|0:0,0:0:0:0:
155,114,83649,5,2,1:2:0:0:
155,114,83780,2,0,L|136:4,1,90.3959999999857,8|0,0:0|0:0,0:0:0:0:
59,10,84044,1,2,1:2:0:0:
6,71,84175,1,2,1:2:0:0:
13,151,84307,1,10,0:2:0:0:
64,213,84438,1,0,0:0:0:0:
144,214,84570,6,0,P|194:215|242:251,2,90.0539999999856,6|0|8,1:2|2:0|0:2,0:0:0:0:
268,350,84965,2,0,P|228:278|299:239,1,180.107999999971,6|0,1:2|1:2,0:0:0:0:
405,93,85359,2,0,P|444:164|373:203,1,180.107999999971,12|0,0:0|0:0,0:0:0:0:
289,111,85754,5,2,1:2:0:0:
289,111,85886,2,0,L|176:96,1,90.3959999999857,12|0,0:0|0:0,0:0:0:0:
102,82,86149,2,0,L|99:33,2,45.1979999999928,0|0|0,1:2|1:0|1:2,2:0:0:0:
209,199,86412,2,0,P|171:174|127:175,1,90.3959999999857,12|0,0:2|1:2,0:0:0:0:
31,272,86675,6,0,L|18:183,2,63.0377980773825,14|0|0,0:2|1:2|1:2,2:0:0:0:
139,334,87070,6,0,L|152:242,2,72.0431999999885,10|0|0,0:2|1:2|1:2,2:0:0:0:
223,374,87465,5,10,0:2:0:0:
291,304,87596,1,0,1:2:0:0:
374,384,87728,1,0,1:2:0:0:
446,276,87859,2,0,L|500:266,5,40.6166387640317,10|2|2|2|2|2,0:2|0:0|0:0|0:0|0:0|0:0,2:0:0:0:
422,266,88254,5,10,0:2:0:0:
412,192,88386,1,8,0:2:0:0:
402,118,88517,1,10,0:2:0:0:
392,44,88649,1,8,0:2:0:0:
