osu file format v14

[General]
AudioFilename: audio.mp3
AudioLeadIn: 0
PreviewTime: 44192
Countdown: 0
SampleSet: Soft
StackLeniency: 0.7
Mode: 0
LetterboxInBreaks: 0
WidescreenStoryboard: 1

[Editor]
Bookmarks: 8762,24586,56540,66784
DistanceSpacing: 0.9
BeatDivisor: 4
GridSize: 4
TimelineZoom: 1.62

[Metadata]
Title:Button
TitleUnicode:Button
Artist:PENGUIN RESEARCH
ArtistUnicode:PENGUIN RESEARCH
Creator:OneRing
Version:Hell Yeah!!!
Source:RELife
Tags:opening, RELife
BeatmapID:1171888
BeatmapSetID:553452

[Difficulty]
HPDrainRate:6
CircleSize:4
OverallDifficulty:9
ApproachRate:9.5
SliderMultiplier:2
SliderTickRate:2

[Events]
//Background and Video events
0,0,"thumb-1920-720113.png",0,0
//Break Periods
//Storyboard Layer 0 (Background)
//Storyboard Layer 1 (Fail)
//Storyboard Layer 2 (Pass)
//Storyboard Layer 3 (Foreground)
//Storyboard Sound Samples

[TimingPoints]
-484,329.64032967033,4,2,1,60,1,0
505,-100,4,2,1,60,0,0
8745,-166.666666666667,4,2,1,40,0,0
23664,-166.666666666667,4,2,2,30,0,0
24568,-125,4,2,1,40,0,0
27205,-83.3333333333333,4,2,1,60,0,0
27535,-125,4,2,1,60,0,0
29268,-125,4,2,2,40,0,0
29845,-125,4,2,1,60,0,0
30917,-125,4,2,3,40,0,0
32483,-125,4,2,4,40,0,0
32565,-125,4,2,3,40,0,0
34378,-125,4,2,1,40,0,0
37754,-100,4,2,1,60,0,0
45652,329.67032967033,4,2,1,60,1,0
48854,-100,4,2,2,50,0,1
49019,-100,4,2,1,70,0,1
50172,-100,4,2,2,50,0,1
50502,-100,4,2,1,70,0,1
51491,-100,4,2,2,50,0,1
51821,-100,4,2,1,70,0,1
52892,-100,4,2,2,50,0,1
53140,-100,4,2,1,70,0,1
54211,-100,4,2,2,50,0,1
54458,-100,4,2,1,70,0,1
54705,-83.3333333333333,4,2,1,70,0,1
55035,-100,4,2,1,70,0,1
56219,329.63032967033,4,2,1,70,1,1
56870,-100,4,2,2,50,0,1
57035,-100,4,2,1,70,0,1
58024,-100,4,2,2,50,0,1
58353,-100,4,2,1,70,0,1
59507,-100,4,2,2,50,0,1
59672,-100,4,2,1,70,0,1
60661,-100,4,2,2,50,0,1
60991,-100,4,2,1,70,0,1
62144,-100,4,2,2,50,0,1
62309,-100,4,2,1,70,0,1
66595,-100,4,2,1,70,0,0
66677,-100,4,2,1,70,0,1
66759,329.58032967033,4,2,1,70,1,1
68591,-100,4,2,2,50,0,1
68921,-100,4,2,1,70,0,1
70075,-100,4,2,2,50,0,1
70239,-100,4,2,1,70,0,1
71228,-100,4,2,2,50,0,1
71558,-100,4,2,1,70,0,1
74031,-100,4,2,2,50,0,1
74195,-100,4,2,1,70,0,1
75267,-100,4,2,2,50,0,1
75514,-100,4,2,1,70,0,1
75761,-83.3333333333333,4,2,1,70,0,1
76091,-100,4,2,1,70,0,1
77326,326.086956521739,4,2,1,70,1,1
77822,-100,4,2,2,50,0,1
77987,-100,4,2,1,70,0,1
78481,-100,4,2,2,50,0,1
78646,-100,4,2,1,70,0,1
79140,-100,4,2,2,50,0,1
79305,-100,4,2,1,70,0,1
80459,-100,4,2,2,50,0,1
80624,-100,4,2,1,70,0,1
81118,-100,4,2,2,50,0,1
81283,-100,4,2,1,70,0,1
81700,-100,4,2,1,70,0,1
81751,329.58695652174,4,2,1,70,1,1
82590,329.58695652174,4,2,1,60,1,0
82598,-166.666666666667,4,2,1,60,0,0
83179,-166.666666666667,4,2,4,40,0,0
83838,-166.666666666667,4,2,1,40,0,0
84333,-166.666666666667,4,2,1,40,0,0
85157,-166.666666666667,4,2,1,20,0,0
85239,-166.666666666667,4,2,1,40,0,0
88124,-166.666666666667,4,2,1,20,0,0

[Colours]
Combo1 : 4,159,187
Combo2 : 0,170,105
Combo3 : 255,128,192
Combo4 : 128,0,255

[HitObjects]
212,300,504,5,8,0:0:0:0:
212,300,587,1,8,0:0:0:0:
212,300,669,1,8,0:0:0:0:
212,300,752,1,8,0:0:0:0:
212,300,834,6,0,P|256:304|332:260,1,100,4|0,1:2|0:0,0:0:0:0:
228,88,1164,1,8,0:0:0:0:
260,256,1329,1,0,0:0:0:0:
100,88,1493,2,0,P|152:72|212:86,1,100,0|0,1:0|0:0,0:0:0:0:
156,232,1823,1,8,0:0:0:0:
232,40,1988,1,0,0:0:0:0:
308,276,2153,5,0,1:0:0:0:
152,80,2317,1,0,0:0:0:0:
216,320,2482,1,8,0:0:0:0:
344,144,2647,1,0,0:0:0:0:
262,333,2812,1,0,1:0:0:0:
262,333,2894,1,0,1:0:0:0:
262,333,2977,1,0,1:0:0:0:
368,212,3142,1,8,0:0:0:0:
344,360,3306,1,0,0:0:0:0:
136,96,3471,6,0,B|172:40|180:108|239:122|239:122|284:128,1,150,0|0,1:0|0:0,0:0:0:0:
300,80,3801,2,0,B|284:104|284:104|264:208,1,100,8|0,0:0|0:0,0:0:0:0:
188,312,4130,1,0,1:0:0:0:
352,144,4295,1,0,0:0:0:0:
144,140,4460,1,8,0:0:0:0:
368,248,4625,1,0,0:0:0:0:
212,72,4790,5,12,0:0:0:0:
316,288,4955,1,0,0:0:0:0:
116,212,5119,1,8,0:0:0:0:
368,160,5284,1,0,0:0:0:0:
96,300,5449,1,0,1:0:0:0:
96,300,5531,1,0,1:0:0:0:
96,300,5614,1,0,1:0:0:0:
96,300,5696,1,0,1:0:0:0:
96,300,5779,2,0,P|71:263|78:206,1,100,8|0,0:0|0:0,0:0:0:0:
243,39,6108,6,0,P|264:83|250:133,1,100,4|0,0:0|0:0,0:0:0:0:
148,264,6438,1,0,1:0:0:0:
336,124,6603,1,0,1:0:0:0:
84,144,6768,1,0,1:0:0:0:
360,200,6932,1,0,1:0:0:0:
216,24,7097,1,0,1:0:0:0:
280,264,7262,1,0,1:0:0:0:
360,104,7427,5,8,1:2:0:0:
152,156,7592,1,8,1:2:0:0:
392,204,7757,1,8,1:2:0:0:
132,132,7921,1,8,1:2:0:0:
384,100,8086,1,8,1:2:0:0:
136,240,8251,1,8,1:2:0:0:
376,124,8416,1,8,1:2:0:0:
128,260,8581,1,8,1:2:0:0:
404,128,8745,6,0,P|412:72|376:16,2,119.999996337891,2|0|2,0:0|0:0|0:0,0:0:0:0:
108,64,9734,2,0,B|160:52|160:52|204:60,1,89.9999972534181
236,28,10064,2,0,B|216:72|224:104|224:104|220:148,1,119.999996337891,2|0,0:0|0:0,0:0:0:0:
400,300,10723,2,0,L|283:249,1,119.999996337891,2|0,0:0|0:0,0:0:0:0:
248,220,11383,6,0,P|281:212|319:227,1,59.9999981689454,2|0,0:0|0:0,0:0:0:0:
224,304,11712,1,0,0:0:0:0:
176,252,11877,2,0,P|172:192|184:128,1,119.999996337891,2|0,0:0|0:0,0:0:0:0:
240,68,12371,1,0,0:0:0:0:
272,160,12536,1,0,0:0:0:0:
324,92,12701,2,0,P|320:148|304:220,1,119.999996337891
228,292,13196,1,0,0:0:0:0:
140,228,13360,2,0,P|136:184|140:164,1,59.9999981689454
284,136,13690,2,0,P|288:166|283:196,1,59.9999981689454
244,240,14020,6,0,P|300:225|368:236,2,119.999996337891,2|0|2,0:0|0:0|0:0,0:0:0:0:
230,135,15009,2,0,L|216:40,1,89.9999972534181
260,68,15338,2,0,B|229:63|229:63|173:72|173:72|128:65,1,119.999996337891,2|0,0:0|0:0,0:0:0:0:
48,152,15833,2,0,B|92:140|92:140|128:144|128:144|176:136,1,119.999996337891,0|2,0:0|0:0,0:0:0:0:
344,192,16327,2,0,L|278:181,1,59.9999981689454
208,236,16657,6,0,L|223:364,2,119.999996337891,2|0|2,0:0|0:0|0:0,0:0:0:0:
356,288,17646,2,0,B|404:280|404:280|444:248,1,89.9999972534181
456,288,17975,2,0,B|440:232|440:232|448:188|448:188|448:148,1,119.999996337891,2|0,0:0|0:0,0:0:0:0:
392,84,18470,2,0,B|380:120|380:120|380:160|380:160|368:204,1,119.999996337891,0|2,0:0|0:0,0:0:0:0:
296,328,18964,2,0,B|276:292|276:292|272:260|272:260,1,59.9999981689454
272,188,19294,6,0,L|248:308,1,119.999996337891
88,56,19788,1,0,0:0:0:0:
88,56,19953,2,0,P|111:116|89:179,1,119.999996337891,2|0,0:0|0:0,0:0:0:0:
160,328,20448,1,0,0:0:0:0:
160,328,20612,2,0,P|200:278|266:265,1,119.999996337891,2|0,0:0|0:0,0:0:0:0:
432,296,21272,2,0,P|368:285|324:235,1,119.999996337891,2|0,0:0|0:0,0:0:0:0:
408,208,21931,6,0,L|432:136,1,59.9999981689454,2|0,0:0|0:0,0:0:0:0:
328,156,22261,1,0,0:0:0:0:
328,92,22426,2,0,P|300:144|288:212,1,119.999996337891,2|0,0:0|0:0,0:0:0:0:
256,296,22920,1,0,0:0:0:0:
224,200,23085,1,0,0:0:0:0:
132,348,23250,2,0,B|104:288|108:224,1,119.999996337891,2|0,0:0|0:0,0:0:0:0:
252,104,23744,5,8,0:0:0:0:
400,328,24074,1,8,0:0:0:0:
400,328,24239,2,0,B|412:280|412:280|400:252|384:232,1,89.9999972534181,10|0,0:0|0:0,0:0:0:0:
348,236,24568,6,0,P|413:196|417:114,2,160,4|0|0,0:0|1:0|1:0,0:0:0:0:
308,128,25392,1,0,0:0:0:0:
240,80,25557,2,0,P|252:124|280:164,1,80,0|0,1:0|0:0,0:0:0:0:
336,312,25887,1,2,0:0:0:0:
156,224,26052,1,0,0:0:0:0:
436,184,26216,1,0,1:0:0:0:
240,272,26381,1,0,0:0:0:0:
360,76,26546,1,0,0:0:0:0:
384,316,26711,1,0,0:0:0:0:
296,128,26876,1,0,0:0:0:0:
456,320,27040,1,0,0:0:0:0:
164,208,27205,6,0,B|120:156|120:120|104:72,1,119.999996337891,12|0,0:0|0:0,0:0:0:0:
12,156,27535,1,8,0:0:0:0:
236,92,27700,1,8,0:0:0:0:
56,68,27865,1,8,0:0:0:0:
280,52,28029,1,8,0:0:0:0:
160,224,28194,1,8,0:0:0:0:
132,28,28359,1,8,0:0:0:0:
368,92,28524,5,8,0:0:0:0:
92,164,28689,1,8,0:0:0:0:
380,192,28853,1,8,0:0:0:0:
64,216,29018,1,8,0:0:0:0:
408,168,29183,1,8,0:0:0:0:
48,240,29348,1,8,0:0:0:0:
424,144,29513,2,0,B|420:188|364:240,1,80,8|0,0:0|0:0,0:0:0:0:
116,320,29842,6,0,P|124:268|148:224,1,80
360,72,30172,2,0,P|360:108|340:156,1,80
200,288,30502,1,0,0:0:0:0:
280,100,30667,1,0,0:0:0:0:
192,304,30831,1,0,1:0:0:0:
288,92,30996,1,10,0:0:0:0:
396,312,31161,6,0,P|392:260|372:220,1,80
144,72,31491,2,0,P|144:116|160:152,1,80
284,284,31820,1,0,0:0:0:0:
236,88,31985,1,0,0:0:0:0:
236,88,32067,1,0,0:0:0:0:
236,88,32150,1,0,0:0:0:0:
140,208,32315,1,0,0:0:0:0:
348,336,32480,6,0,P|360:292|362:241,1,80,10|0,0:0|0:0,0:0:0:0:
352,232,32727,1,0,1:0:0:0:
336,204,32809,1,0,0:0:0:0:
256,288,32974,1,0,0:0:0:0:
432,184,33139,1,0,0:0:0:0:
220,88,33304,1,0,1:0:0:0:
384,248,33468,1,8,0:0:0:0:
280,36,33633,5,0,0:0:0:0:
456,240,33798,2,0,P|456:200|448:156,1,80,0|2,0:0|0:0,0:0:0:0:
288,40,34128,1,0,0:0:0:0:
436,152,34293,1,0,0:0:0:0:
144,80,34457,1,8,0:0:0:0:
212,276,34622,1,2,0:0:0:0:
348,92,34787,1,0,0:0:0:0:
204,284,34952,1,2,0:0:0:0:
404,36,35117,6,0,B|436:64|436:64|432:128|468:180,1,160,4|0,0:0|0:0,0:0:0:0:
288,328,35611,1,0,0:0:0:0:
248,292,35776,2,0,B|288:284|288:284|356:312|428:296,1,160,10|0,0:0|0:0,0:0:0:0:
188,84,36270,1,0,0:0:0:0:
224,48,36435,2,0,B|224:92|224:92|176:160|196:224,1,160
128,268,36930,1,0,0:0:0:0:
356,132,37094,1,8,0:0:0:0:
172,336,37259,1,0,0:0:0:0:
356,256,37424,1,8,0:0:0:0:
72,164,37589,1,8,0:0:0:0:
416,96,37754,6,0,B|384:80|384:80|312:68|212:76,1,200,4|0,0:0|0:0,0:0:0:0:
56,160,38248,1,0,0:0:0:0:
288,152,38413,1,0,1:0:0:0:
116,312,38578,1,0,1:0:0:0:
224,32,38743,1,10,0:0:0:0:
307,152,38908,1,0,0:0:0:0:
307,152,38990,1,0,0:0:0:0:
308,152,39072,6,0,P|314:206|312:256,1,100,2|0,1:2|0:0,0:0:0:0:
128,364,39402,2,0,P|116:316|116:240,1,100,8|0,0:0|0:0,0:0:0:0:
160,112,39732,1,0,1:0:0:0:
228,280,39896,1,0,0:0:0:0:
152,88,40061,1,0,0:0:0:0:
240,308,40226,1,0,0:0:0:0:
144,60,40391,6,0,P|120:112|48:128,1,100,4|0,0:0|0:0,0:0:0:0:
72,236,40721,1,8,0:0:0:0:
25,18,40885,1,0,0:0:0:0:
172,308,41050,2,0,P|178:256|179:209,1,100,0|0,1:0|0:0,0:0:0:0:
232,64,41380,1,0,0:0:0:0:
312,256,41545,1,0,0:0:0:0:
152,184,41709,5,0,1:0:0:0:
408,64,41874,1,0,1:0:0:0:
136,200,42039,1,8,0:0:0:0:
424,60,42204,1,0,0:0:0:0:
252,364,42369,2,0,P|204:373|152:352,1,100,2|0,1:2|0:0,0:0:0:0:
96,56,42698,2,0,P|144:56|188:84,1,100,8|0,0:0|0:0,0:0:0:0:
392,296,43028,5,0,1:0:0:0:
248,72,43193,1,8,0:0:0:0:
184,312,43358,1,8,0:0:0:0:
432,128,43523,1,8,0:0:0:0:
168,176,43688,1,8,0:0:0:0:
421,285,43853,1,8,0:0:0:0:
224,44,44017,1,8,0:0:0:0:
292,352,44182,1,8,0:0:0:0:
456,40,44347,1,8,0:0:0:0:
312,308,45652,6,0,B|272:316|272:316|216:284|160:304,1,150,4|0,0:0|0:0,0:0:0:0:
140,344,45981,2,0,L|116:220,1,100,8|0,0:0|0:0,0:0:0:0:
36,112,46311,1,0,1:0:0:0:
220,48,46476,1,0,1:0:0:0:
240,236,46641,2,0,P|284:256|336:316,1,100,8|0,0:0|0:0,0:0:0:0:
328,56,46970,5,0,1:0:0:0:
380,308,47135,1,0,1:0:0:0:
188,163,47300,1,8,0:0:0:0:
452,228,47465,1,0,0:0:0:0:
214,343,47630,1,0,1:0:0:0:
372,144,47794,1,0,0:0:0:0:
136,332,47959,1,0,0:0:0:0:
448,156,48124,1,0,0:0:0:0:
216,36,48289,6,0,B|208:84|140:200,1,150,2|0,1:2|0:0,0:0:0:0:
168,220,48619,2,0,P|126:205|94:152,1,100,8|0,0:0|0:0,0:0:0:0:
95,160,48866,1,8,0:0:0:0:
95,160,48948,1,8,0:0:0:0:
280,136,49113,1,0,0:0:0:0:
80,296,49278,1,8,0:0:0:0:
84,76,49443,1,0,0:0:0:0:
256,344,49608,6,0,P|308:348|367:337,1,100,4|0,0:0|0:0,0:0:0:0:
485,64,49937,2,0,P|432:60|374:71,1,100,10|0,0:0|0:0,0:0:0:0:
164,124,50267,1,12,0:0:0:0:
388,144,50432,1,8,0:0:0:0:
304,360,50597,2,0,P|324:322|314:256,1,100,8|0,0:0|0:0,0:0:0:0:
44,74,50926,6,0,B|68:128|68:128|60:176|72:218,1,150,4|0,1:2|0:0,0:0:0:0:
32,264,51256,2,0,P|84:256|153:261,1,100,8|0,0:0|0:0,0:0:0:0:
398,326,51586,1,8,0:0:0:0:
136,224,51750,1,8,0:0:0:0:
332,152,51915,1,8,0:0:0:0:
88,292,52080,1,0,0:0:0:0:
428,352,52245,6,0,P|436:296|437:239,1,100,2|0,0:0|0:0,0:0:0:0:
262,49,52575,1,8,0:0:0:0:
259,236,52739,2,0,P|309:235|353:212,1,100
428,112,53069,1,8,0:0:0:0:
288,344,53234,1,8,0:0:0:0:
88,292,53399,1,0,0:0:0:0:
88,292,53481,1,0,0:0:0:0:
88,292,53564,1,0,0:0:0:0:
160,108,53728,5,0,1:0:0:0:
280,268,53893,1,8,0:0:0:0:
48,180,54058,1,0,0:0:0:0:
172,352,54223,1,8,0:0:0:0:
312,124,54388,1,8,0:0:0:0:
52,308,54553,1,8,0:0:0:0:
240,88,54717,6,0,B|252:4|412:0|388:148,1,239.999992675781,4|0,0:0|0:0,0:0:0:0:
390,124,55130,1,0,0:0:0:0:
390,124,55212,1,0,0:0:0:0:
312,272,55377,1,0,0:0:0:0:
448,192,55542,1,0,1:0:0:0:
204,132,55706,1,8,0:0:0:0:
204,132,55789,1,8,0:0:0:0:
204,132,55871,1,8,0:0:0:0:
380,316,56036,1,8,0:0:0:0:
380,316,56119,1,8,0:0:0:0:
380,316,56201,6,0,B|320:336|260:296,1,100,4|0,0:0|0:0,0:0:0:0:
80,112,56548,6,0,B|136:84|184:108,1,100,4|0,0:0|0:0,0:0:0:0:
280,272,56878,1,0,0:0:0:0:
376,72,57043,1,8,0:0:0:0:
124,224,57207,1,8,0:0:0:0:
235,68,57372,5,2,0:0:0:0:
210,306,57537,1,2,1:2:0:0:
370,127,57702,1,2,1:2:0:0:
132,120,57867,1,8,0:0:0:0:
308,324,58031,1,2,0:0:0:0:
323,38,58196,1,8,0:0:0:0:
323,38,58279,1,8,0:0:0:0:
323,38,58361,1,8,0:0:0:0:
232,204,58526,1,8,0:0:0:0:
120,44,58691,1,0,0:0:0:0:
276,352,58856,6,0,P|324:340|356:256,1,100,4|0,1:2|0:0,0:0:0:0:
392,144,59185,1,8,0:0:0:0:
216,304,59350,1,0,0:0:0:0:
216,304,59432,1,0,0:0:0:0:
216,304,59515,1,0,0:0:0:0:
184,76,59680,1,8,0:0:0:0:
440,220,59844,1,10,0:0:0:0:
168,52,60009,1,2,1:2:0:0:
464,232,60174,6,0,P|432:176|400:136,1,100
376,300,60504,1,10,0:0:0:0:
436,68,60669,1,0,0:0:0:0:
216,176,60833,1,8,0:0:0:0:
476,272,60998,1,8,0:0:0:0:
248,76,61163,6,8,P|192:72|140:72,1,100,8|0,0:0|0:0,0:0:0:0:
40,208,61493,1,4,0:0:0:0:
316,132,61657,1,0,0:0:0:0:
212,336,61822,1,8,0:0:0:0:
328,116,61987,1,0,0:0:0:0:
80,328,62152,2,0,P|56:280|44:216,1,100
180,40,62481,1,8,0:0:0:0:
296,264,62646,1,0,0:0:0:0:
64,168,62811,1,2,1:2:0:0:
304,64,62976,1,0,1:0:0:0:
112,328,63141,6,0,B|116:280|96:220,1,100,8|0,0:0|0:0,0:0:0:0:
424,184,63470,2,0,B|397:156|388:91,1,100,2|0,1:2|0:0,0:0:0:0:
44,72,63800,2,0,P|100:68|154:56,1,100,8|0,0:0|0:0,0:0:0:0:
428,80,64130,5,2,1:2:0:0:
192,180,64294,1,0,1:0:0:0:
360,28,64459,1,8,0:0:0:0:
216,272,64624,1,0,0:0:0:0:
240,64,64789,1,0,0:0:0:0:
412,228,64954,1,0,1:0:0:0:
152,112,65119,1,8,0:0:0:0:
396,136,65283,1,0,0:0:0:0:
120,172,65448,5,4,0:0:0:0:
396,84,65613,1,0,0:0:0:0:
112,192,65778,1,0,0:0:0:0:
400,64,65943,1,8,0:0:0:0:
100,212,66107,1,10,0:0:0:0:
412,48,66272,1,8,0:0:0:0:
96,236,66437,1,10,0:0:0:0:
96,236,66519,1,8,0:0:0:0:
96,236,66602,1,8,0:0:0:0:
96,236,66684,1,8,0:0:0:0:
96,236,66759,6,0,B|76:196|132:104,1,100,4|0,0:0|0:0,0:0:0:0:
312,52,67088,6,0,B|316:108|292:152,1,100,4|0,0:0|0:0,0:0:0:0:
268,336,67418,2,0,P|317:325|355:287,1,100,0|0,1:0|1:0,0:0:0:0:
168,40,67747,2,0,P|124:64|96:116,1,100,8|0,0:0|0:0,0:0:0:0:
196,288,68077,5,0,1:0:0:0:
256,68,68242,1,0,1:0:0:0:
80,248,68406,1,8,0:0:0:0:
324,200,68571,1,0,0:0:0:0:
172,84,68736,1,8,0:0:0:0:
172,84,68818,1,8,0:0:0:0:
172,84,68901,1,8,0:0:0:0:
284,272,69066,1,8,0:0:0:0:
396,84,69230,1,0,0:0:0:0:
168,292,69395,6,0,P|216:328|284:352,1,100
408,236,69725,1,8,0:0:0:0:
164,136,69890,1,0,0:0:0:0:
288,312,70054,1,0,0:0:0:0:
204,56,70219,1,0,0:0:0:0:
364,160,70384,1,8,0:0:0:0:
152,296,70549,1,0,0:0:0:0:
408,144,70713,6,0,B|364:96|364:96|308:72,1,100
164,52,71043,1,10,0:0:0:0:
240,192,71208,1,0,0:0:0:0:
92,296,71373,1,12,0:0:0:0:
92,296,71455,1,8,0:0:0:0:
92,296,71537,1,8,0:0:0:0:
104,112,71702,1,8,0:0:0:0:
232,312,71867,1,0,0:0:0:0:
328,80,72032,6,0,B|380:84|400:112|372:204,1,150
328,228,72361,2,0,P|379:221|444:211,1,100,0|0,1:0|1:0,0:0:0:0:
200,80,72691,1,0,0:0:0:0:
396,148,72856,1,0,0:0:0:0:
156,156,73021,1,8,0:0:0:0:
356,48,73185,1,0,0:0:0:0:
208,264,73350,6,0,P|256:292|312:304,1,100
248,56,73680,1,8,0:0:0:0:
336,244,73844,1,0,0:0:0:0:
148,184,74009,1,0,0:0:0:0:
148,184,74092,1,8,0:0:0:0:
148,184,74174,1,8,0:0:0:0:
288,320,74339,1,8,0:0:0:0:
224,84,74504,1,0,0:0:0:0:
96,336,74668,6,0,P|84:272|48:200,1,100,2|0,1:2|0:0,0:0:0:0:
168,32,74998,1,8,0:0:0:0:
272,212,75163,1,0,0:0:0:0:
76,72,75328,1,8,0:0:0:0:
76,72,75410,1,8,0:0:0:0:
76,72,75492,1,8,0:0:0:0:
320,96,75657,1,8,0:0:0:0:
96,264,75822,6,0,B|152:236|152:236|204:284|276:300|368:160,1,299.999990844727
368,120,76316,2,0,P|372:168|380:232,1,100,8|0,0:0|0:0,0:0:0:0:
252,336,76646,1,2,0:0:0:0:
136,104,76811,1,8,0:0:0:0:
144,112,76893,1,8,0:0:0:0:
144,112,76975,1,10,0:0:0:0:
388,216,77140,1,8,0:0:0:0:
388,216,77223,1,10,0:0:0:0:
388,216,77305,6,10,B|312:244|312:244|248:304,1,150,10|0,0:0|0:0,0:0:0:0:
240,336,77652,2,0,L|224:228,1,100
262,108,77978,1,10,0:0:0:0:
64,216,78141,1,0,0:0:0:0:
284,296,78304,1,8,0:0:0:0:
192,32,78467,1,0,1:0:0:0:
192,280,78630,5,2,0:0:0:0:
424,124,78793,1,0,0:0:0:0:
224,36,78956,1,8,0:0:0:0:
404,276,79119,1,0,1:0:0:0:
168,128,79282,1,2,0:0:0:0:
348,348,79445,1,0,0:0:0:0:
352,48,79608,6,0,L|224:84,1,100,8|0,0:0|0:0,0:0:0:0:
184,332,79934,5,4,1:2:0:0:
360,136,80097,1,0,0:0:0:0:
84,136,80260,1,8,0:0:0:0:
320,296,80423,1,0,1:0:0:0:
440,44,80586,1,2,0:0:0:0:
196,152,80749,1,0,0:0:0:0:
448,28,80912,1,8,0:0:0:0:
188,172,81076,1,0,1:0:0:0:
424,200,81239,5,10,0:0:0:0:
72,88,81402,1,8,0:0:0:0:
72,88,81483,1,8,0:0:0:0:
72,88,81565,1,8,0:0:0:0:
328,152,81751,1,8,0:0:0:0:
328,152,81833,1,8,0:0:0:0:
328,152,81915,6,8,B|356:212|272:248|216:184|216:184|192:280|108:332,1,350,8|0,0:0|0:0,0:0:0:0:
119,324,82574,1,8,0:0:0:0:
320,208,83249,5,10,0:0:0:0:
156,48,83908,1,8,0:0:0:0:
156,48,84402,2,0,P|172:84|176:168,1,119.999996337891,0|0,1:0|0:0,0:0:0:0:
176,163,84897,1,0,1:0:0:0:
120,220,85226,6,0,L|200:224,1,59.9999981689454,4|0,0:0|0:0,0:0:0:0:
256,168,85556,1,0,0:0:0:0:
332,120,85721,2,0,B|348:160|348:160|376:184|376:184|392:224,2,119.999996337891
328,116,86545,1,2,0:0:0:0:
236,292,86874,5,0,0:0:0:0:
68,176,87204,1,0,0:0:0:0:
276,132,87533,1,0,0:0:0:0:
276,132,87698,2,0,B|224:44|284:88|284:88|344:40|276:136,1,179.999994506836
