osu file format v14

[General]
AudioFilename: audio.mp3
AudioLeadIn: 0
PreviewTime: 44192
Countdown: 0
SampleSet: Soft
StackLeniency: 0.7
Mode: 0
LetterboxInBreaks: 0
WidescreenStoryboard: 0

[Editor]
Bookmarks: 8762,24586,66784
DistanceSpacing: 1.3
BeatDivisor: 4
GridSize: 4
TimelineZoom: 2.3

[Metadata]
Title:Button
TitleUnicode:ボタン
Artist:PENGUIN RESEARCH
ArtistUnicode:PENGUIN RESEARCH
Creator:Flask
Version:Insane
Source:ReLIFE
Tags:リライフ Riraifu opening Lefia Karen Enjoy -_e_n_j_u_- enju Volta comico 夜宵草 生田鷹司 堀江晶太
BeatmapID:1021211
BeatmapSetID:477685

[Difficulty]
HPDrainRate:6
CircleSize:4
OverallDifficulty:7.5
ApproachRate:9
SliderMultiplier:1.7
SliderTickRate:1

[Events]
//Background and Video events
0,0,"bg.jpg",0,0
Video,0,"optc.flv"
//Break Periods
//Storyboard Layer 0 (Background)
//Storyboard Layer 1 (Fail)
//Storyboard Layer 2 (Pass)
//Storyboard Layer 3 (Foreground)
//Storyboard Sound Samples

[TimingPoints]
-478,329.67032967033,4,2,1,60,1,0
8752,-166.666666666667,4,2,1,40,0,0
23670,-166.666666666667,4,2,2,30,0,0
24576,-125,4,2,1,40,0,0
27214,-100,4,2,1,60,0,0
29274,-125,4,2,2,40,0,0
29851,-125,4,2,1,60,0,0
30923,-125,4,2,3,40,0,0
32489,-125,4,2,4,40,0,0
32571,-125,4,2,3,40,0,0
34384,-125,4,2,1,40,0,0
37763,-100,4,2,1,60,0,0
39659,-100,4,2,2,40,0,0
39824,-100,4,2,1,60,0,0
45647,329.67032967033,4,2,1,70,1,1
52261,329.67032967033,4,2,1,60,1,9
54239,-100,4,2,2,50,0,1
54486,-100,4,2,1,70,0,1
54733,-83.3333333333333,4,2,1,70,0,1
55063,-100,4,2,1,70,0,1
56032,329.67032967033,4,2,1,60,1,9
56196,329.67032967033,4,2,1,60,1,1
56546,329.67032967033,4,2,1,60,1,9
57535,329.67032967033,4,2,1,60,1,1
58111,-100,4,2,2,50,0,1
58441,-100,4,2,1,70,0,1
60749,-100,4,2,2,50,0,1
61078,-100,4,2,1,70,0,1
66683,-100,4,2,1,70,0,0
66765,-100,4,2,1,70,0,1
75831,-83.3333333333333,4,2,1,70,0,1
76161,-100,4,2,1,70,0,1
77892,-100,4,2,2,50,0,1
78056,-100,4,2,1,70,0,1
78551,-100,4,2,2,50,0,1
78716,-100,4,2,1,70,0,1
79210,-100,4,2,2,50,0,1
79375,-100,4,2,1,70,0,1
79932,329.67032967033,4,2,1,60,1,1
80508,-100,4,2,2,50,0,1
80673,-100,4,2,1,70,0,1
81168,-100,4,2,2,50,0,1
81333,-100,4,2,1,70,0,1
81890,329.67032967033,4,2,1,60,1,8
82549,329.67032967033,4,2,1,60,1,0
82549,-166.666666666667,4,2,1,60,0,0
83190,329.67032967033,4,2,4,40,1,8
83190,-166.666666666667,4,2,4,40,0,0
83889,329.67032967033,4,2,1,40,1,8
83889,-166.666666666667,4,2,1,40,0,0
84404,329.67032967033,4,2,1,40,1,8
84404,-166.666666666667,4,2,1,40,0,0
84880,329.67032967033,4,2,1,40,1,8
85209,329.67032967033,4,2,1,20,1,0
85209,-166.666666666667,4,2,1,20,0,0
85292,-166.666666666667,4,2,1,40,0,0
88176,-166.666666666667,4,2,1,20,0,0

[Colours]
Combo1 : 255,162,68
Combo2 : 130,200,250
Combo3 : 250,180,180
Combo4 : 255,255,162
Combo5 : 166,255,77

[HitObjects]
202,53,511,5,8,0:0:0:0:
233,51,593,1,8,0:0:0:0:
264,49,676,1,8,0:0:0:0:
295,48,758,1,8,0:0:0:0:
326,45,841,6,0,P|365:86|340:199,1,170,4|8,1:2|0:0,0:0:0:0:
190,173,1335,1,0,0:0:0:0:
247,314,1500,2,0,L|337:308,1,85,0|0,1:0|0:0,0:0:0:0:
130,269,1830,2,0,L|40:262,1,85,8|0,0:0|0:0,0:0:0:0:
38,109,2159,5,0,1:0:0:0:
142,174,2324,1,0,0:0:0:0:
125,20,2489,1,8,0:0:0:0:
46,205,2654,2,0,P|37:255|47:295,1,85,0|0,0:0|1:0,0:0:0:0:
57,309,2901,1,0,1:0:0:0:
72,329,2983,2,0,L|162:319,1,85,0|8,1:0|0:0,0:0:0:0:
264,211,3313,1,0,0:0:0:0:
360,358,3478,6,0,B|359:287|359:287|374:247|374:247|374:184,1,170,0|8,1:0|0:0,0:0:0:0:
473,141,3972,2,0,P|455:103|421:78,1,85,0|0,0:0|1:0,0:0:0:0:
215,126,4302,1,0,0:0:0:0:
317,86,4467,1,8,0:0:0:0:
230,21,4632,1,0,0:0:0:0:
146,213,4797,6,0,L|154:314,1,85,12|0,0:0|0:0,0:0:0:0:
27,157,5126,2,0,P|54:119|98:98,1,85,8|0,0:0|0:0,0:0:0:0:
273,221,5456,1,0,1:0:0:0:
303,226,5538,1,0,1:0:0:0:
333,231,5621,1,0,1:0:0:0:
363,237,5703,1,0,1:0:0:0:
393,244,5786,2,0,P|422:281|405:365,1,127.5,8|0,0:0|0:0,0:0:0:0:
383,374,6115,6,0,L|296:365,1,85,4|0,0:0|0:0,0:0:0:0:
168,234,6445,1,0,1:0:0:0:
155,371,6610,1,0,1:0:0:0:
168,234,6775,1,0,1:0:0:0:
301,268,6940,1,0,1:0:0:0:
85,297,7104,2,0,P|42:300|-6:317,1,85,0|0,1:0|1:0,0:0:0:0:
263,179,7434,6,0,P|281:140|288:96,1,85,8|8,1:2|1:2,0:0:0:0:
114,20,7764,2,0,P|128:63|157:104,1,85,8|8,1:2|1:2,0:0:0:0:
364,254,8093,1,8,1:2:0:0:
358,64,8258,1,8,1:2:0:0:
239,197,8423,1,8,1:2:0:0:
456,158,8588,1,8,1:2:0:0:
393,357,8753,6,0,L|281:350,2,101.999996887207,2|0|2,0:0|0:0|0:0,0:0:0:0:
470,237,9742,2,0,L|476:179,1,50.9999984436036,0|0,0:0|0:0,0:0:0:0:
447,120,10071,2,0,P|423:97|356:97,1,101.999996887207,2|0,0:0|0:0,0:0:0:0:
263,206,10731,2,0,P|221:228|165:222,1,101.999996887207,2|0,0:0|0:0,0:0:0:0:
57,132,11390,6,0,L|59:74,2,50.9999984436036,2|0|0,0:0|0:0|0:0,0:0:0:0:
23,195,11885,2,0,P|25:253|27:308,1,101.999996887207,2|0,0:0|0:0,0:0:0:0:
76,348,12379,2,0,P|105:352|146:341,1,50.9999984436036
177,298,12709,1,2,0:0:0:0:
264,184,13038,1,0,0:0:0:0:
138,115,13368,1,2,0:0:0:0:
71,241,13698,2,0,L|135:238,1,50.9999984436036
172,188,14027,6,0,P|194:235|171:293,2,101.999996887207,2|0|2,0:0|0:0|0:0,0:0:0:0:
218,53,15016,1,0,0:0:0:0:
348,111,15346,2,0,L|451:103,1,101.999996887207,2|0,0:0|0:0,0:0:0:0:
497,155,15841,2,0,P|512:204|500:254,1,101.999996887207
446,299,16335,2,0,L|343:291,1,101.999996887207,0|2,0:0|0:0,0:0:0:0:
164,269,16994,5,0,0:0:0:0:
248,382,17324,1,2,0:0:0:0:
280,208,17654,1,0,0:0:0:0:
99,219,17983,2,0,P|82:266|102:323,1,101.999996887207,2|0,0:0|0:0,0:0:0:0:
175,187,18478,2,0,P|142:148|83:137,1,101.999996887207
164,269,18972,2,0,P|213:260|252:214,1,101.999996887207,0|2,0:0|0:0,0:0:0:0:
343,95,19632,5,0,0:0:0:0:
167,72,19961,2,0,L|51:58,1,101.999996887207,2|0,0:0|0:0,0:0:0:0:
36,220,20621,2,0,L|152:234,1,101.999996887207,2|0,0:0|0:0,0:0:0:0:
275,325,21280,2,0,P|299:284|292:223,1,101.999996887207,2|0,0:0|0:0,0:0:0:0:
452,68,21940,2,0,L|457:9,2,50.9999984436036,2|0|0,0:0|0:0|0:0,0:0:0:0:
487,130,22434,2,0,P|439:128|375:124,2,101.999996887207,2|0|0,0:0|0:0|0:0,0:0:0:0:
468,199,23258,2,0,B|462:243|475:285|475:285|457:276,1,101.999996887207,2|0,0:0|0:0,0:0:0:0:
263,223,23753,5,8,0:0:0:0:
263,223,24082,1,8,0:0:0:0:
353,298,24247,6,0,P|349:335|322:369,1,76.4999976654053,10|0,0:0|0:0,0:0:0:0:
316,375,24577,6,0,L|173:367,1,136,4|0,0:0|1:0,0:0:0:0:
102,277,25071,1,0,0:0:0:0:
18,351,25236,2,0,L|10:269,1,68,0|0,1:0|0:0,0:0:0:0:
88,117,25566,2,0,L|97:186,1,68,0|0,1:0|0:0,0:0:0:0:
183,302,25896,5,2,0:0:0:0:
229,204,26060,1,0,0:0:0:0:
281,355,26225,1,0,1:0:0:0:
229,203,26390,2,0,P|235:169|254:141,1,68,0|0,0:0|1:0,0:0:0:0:
216,52,26720,1,0,0:0:0:0:
339,204,26885,2,0,L|407:196,1,68,0|0,1:0|0:0,0:0:0:0:
490,40,27214,6,0,P|430:2|328:20,1,170,12|8,0:0|0:0,0:0:0:0:
243,130,27709,1,8,0:0:0:0:
357,213,27874,2,0,L|374:124,1,85,8|8,0:0|0:0,0:0:0:0:
147,155,28203,2,0,L|50:165,1,85,8|8,0:0|0:0,0:0:0:0:
234,372,28533,5,8,0:0:0:0:
245,240,28698,1,8,0:0:0:0:
53,314,28863,2,0,P|94:298|145:301,1,85,8|0,0:0|0:0,0:0:0:0:
171,322,29110,2,0,L|224:324,1,42.5,8|8,0:0|0:0,0:0:0:0:
285,202,29357,1,8,0:0:0:0:
328,368,29522,2,0,B|370:377|403:366|403:366|423:370|447:358,1,102,8|0,0:0|0:0,0:0:0:0:
448,357,29852,5,4,1:2:0:0:
496,266,30016,1,2,0:0:0:0:
434,183,30181,1,0,1:0:0:0:
496,266,30346,1,2,0:0:0:0:
334,277,30511,1,0,1:0:0:0:
334,277,30841,5,0,1:0:0:0:
241,215,31005,1,10,0:0:0:0:
172,306,31170,2,0,L|98:301,2,68,0|8|0,1:0|0:0|1:0,0:0:0:0:
266,370,31665,1,2,0:0:0:0:
148,220,31830,2,0,P|137:187|140:148,1,68,2|0,1:2|0:0,0:0:0:0:
144,127,32077,1,8,0:0:0:0:
154,101,32159,1,8,0:0:0:0:
281,226,32324,1,0,0:0:0:0:
405,103,32489,6,0,B|378:60|378:60|288:45,1,136,10|0,0:0|1:0,0:0:0:0:
175,120,32983,2,0,L|170:207,1,68,0|8,0:0|0:0,0:0:0:0:
35,89,33313,2,0,L|112:49,1,68,0|0,0:0|1:0,0:0:0:0:
83,226,33643,2,0,L|10:178,1,68,8|0,0:0|1:0,0:0:0:0:
233,228,33972,5,8,0:0:0:0:
201,331,34137,1,0,0:0:0:0:
338,250,34302,1,2,0:0:0:0:
156,147,34467,1,8,0:0:0:0:
304,162,34632,1,2,0:0:0:0:
244,18,34797,1,0,0:0:0:0:
156,147,34961,1,2,0:0:0:0:
330,75,35126,6,0,P|381:115|388:188,1,136,4|0,0:0|0:0,0:0:0:0:
219,268,35621,1,0,0:0:0:0:
315,306,35786,2,0,L|319:224,1,68,10|0,0:0|0:0,0:0:0:0:
147,204,36115,2,0,P|130:237|130:277,1,68,0|0,0:0|0:0,0:0:0:0:
405,361,36445,1,2,0:0:0:0:
315,316,36610,2,0,L|225:322,1,68,8|0,0:0|0:0,0:0:0:0:
167,186,36940,1,0,0:0:0:0:
63,300,37104,2,0,L|69:382,1,68,8|0,0:0|0:0,0:0:0:0:
90,141,37434,5,8,0:0:0:0:
107,120,37516,1,8,0:0:0:0:
131,106,37599,1,8,0:0:0:0:
157,98,37681,1,8,0:0:0:0:
188,101,37764,2,0,P|272:107|319:34,1,170,4|8,0:0|0:0,0:0:0:0:
463,64,38258,1,0,0:0:0:0:
421,160,38423,2,0,L|326:170,2,85,0|0|10,1:0|1:0|0:0,0:0:0:0:
274,242,38918,1,0,0:0:0:0:
408,352,39082,6,0,P|405:313|374:271,1,85,2|0,1:2|0:0,0:0:0:0:
219,157,39412,2,0,P|189:191|178:240,1,85,8|0,0:0|0:0,0:0:0:0:
312,342,39742,2,0,L|306:385,2,42.5,8|0|0,0:0|0:0|0:0,0:0:0:0:
456,218,40071,2,0,L|451:122,1,85,8|0,0:0|0:0,0:0:0:0:
261,19,40401,6,0,P|233:86|295:155,1,170,4|8,0:0|0:0,0:0:0:0:
380,231,40896,1,0,0:0:0:0:
296,299,41060,2,0,L|196:292,1,85,0|0,1:0|0:0,0:0:0:0:
34,175,41390,1,8,0:0:0:0:
110,266,41555,2,0,P|110:308|101:349,1,85,0|0,0:0|1:0,0:0:0:0:
136,115,41885,5,0,1:0:0:0:
210,206,42049,2,0,L|308:213,1,85,8|0,0:0|0:0,0:0:0:0:
304,46,42379,2,0,L|206:39,1,85,2|0,1:2|0:0,0:0:0:0:
394,171,42709,2,0,P|405:129|394:77,1,85,8|0,0:0|0:0,0:0:0:0:
265,303,43038,5,0,1:0:0:0:
309,129,43203,1,8,0:0:0:0:
376,296,43368,1,8,0:0:0:0:
223,199,43533,1,8,0:0:0:0:
404,188,43698,1,8,0:0:0:0:
308,36,43863,1,8,0:0:0:0:
147,114,44027,1,8,0:0:0:0:
141,143,44110,1,8,0:0:0:0:
134,171,44192,1,8,0:0:0:0:
129,200,44275,1,8,0:0:0:0:
123,228,44357,5,10,0:0:0:0:
123,228,45647,6,0,P|182:170|268:197,1,170,4|8,0:0|0:0,0:0:0:0:
403,259,46140,1,0,0:0:0:0:
285,360,46306,2,0,L|199:369,1,85,0|0,1:0|1:0,0:0:0:0:
384,175,46635,2,0,L|409:289,1,85,8|0,0:0|0:0,0:0:0:0:
132,251,46964,5,0,1:0:0:0:
234,172,47129,1,0,1:0:0:0:
302,272,47294,1,8,0:0:0:0:
138,151,47460,2,0,P|130:110|138:52,1,85,0|0,0:0|1:0,0:0:0:0:
242,17,47789,1,0,1:0:0:0:
336,116,47954,2,0,L|441:106,1,85,8|0,0:0|0:0,0:0:0:0:
391,368,48283,6,0,B|398:303|398:303|380:271|380:271|388:203,2,170,2|8|0,1:2|0:0|1:0,0:0:0:0:
253,223,49107,1,0,0:0:0:0:
180,346,49273,2,0,P|135:355|83:357,1,85,8|0,0:0|0:0,0:0:0:0:
40,152,49602,6,0,L|32:63,1,85,4|0,0:0|0:0,0:0:0:0:
166,243,49932,2,0,L|158:158,1,85,10|0,0:0|0:0,0:0:0:0:
264,93,50262,2,0,L|256:4,1,85,4|0,1:2|0:0,0:0:0:0:
390,184,50592,2,0,L|382:95,1,85,10|0,0:0|0:0,0:0:0:0:
255,237,50921,6,0,P|208:298|234:384,1,170,4|8,1:2|0:0,0:0:0:0:
358,211,51415,1,0,0:0:0:0:
304,320,51580,2,0,P|349:317|394:314,1,85,0|0,1:0|1:0,0:0:0:0:
283,132,51910,2,0,P|237:127|194:114,1,85,8|0,0:0|0:0,0:0:0:0:
126,185,52261,5,2,0:0:0:0:
174,25,52426,1,0,0:0:0:0:
283,132,52591,1,8,0:0:0:0:
36,155,52756,2,0,P|62:116|98:97,1,85,0|0,0:0|1:0,0:0:0:0:
272,41,53085,1,0,1:0:0:0:
212,217,53250,2,0,L|205:317,1,85,8|0,0:0|0:0,0:0:0:0:
116,354,53580,6,0,P|199:350|303:352,1,170,4|8,1:2|0:0,0:0:0:0:
437,369,54074,1,0,0:0:0:0:
390,219,54239,1,8,0:0:0:0:
393,198,54322,1,8,0:0:0:0:
396,176,54404,1,8,0:0:0:0:
285,351,54569,1,8,0:0:0:0:
398,156,54734,6,0,P|361:83|252:95,1,203.999993774414,4|0,0:0|0:0,0:0:0:0:
163,264,55228,2,0,L|247:269,1,85,8|0,0:0|0:0,0:0:0:0:
82,185,55558,1,0,1:0:0:0:
123,352,55722,2,0,L|91:387,2,42.5,8|8|8,0:0|0:0|0:0,0:0:0:0:
305,349,56031,1,8,0:0:0:0:
305,349,56114,1,8,0:0:0:0:
305,349,56196,6,0,P|330:314|335:273,1,85,4|0,0:0|0:0,0:0:0:0:
148,94,56546,1,8,0:0:0:0:
70,194,56710,2,0,P|70:233|97:276,1,85,0|0,0:0|1:0,0:0:0:0:
257,158,57040,2,0,L|346:149,1,85,0|8,1:0|0:0,0:0:0:0:
489,217,57369,5,2,0:0:0:0:
406,78,57534,1,2,1:2:0:0:
334,233,57699,1,2,1:2:0:0:
487,127,57864,1,8,0:0:0:0:
419,277,58028,1,2,0:0:0:0:
326,140,58194,2,0,L|314:99,2,42.5,8|8|8,0:0|0:0|0:0,0:0:0:0:
333,337,58523,1,8,0:0:0:0:
413,176,58688,1,0,0:0:0:0:
242,191,58853,6,0,L|153:185,1,85,4|0,1:2|0:0,0:0:0:0:
55,274,59182,1,8,0:0:0:0:
175,370,59348,2,0,P|176:330|178:275,1,85,0|0,0:0|1:0,0:0:0:0:
104,96,59677,2,0,P|72:132|62:181,1,85,0|8,1:0|0:0,0:0:0:0:
287,249,60006,5,2,0:0:0:0:
179,174,60171,1,2,1:2:0:0:
84,275,60336,1,2,1:2:0:0:
200,357,60501,2,0,L|303:344,1,85,8|0,0:0|0:0,0:0:0:0:
434,270,60831,2,0,L|483:275,2,42.5,10|8|8,0:0|0:0|0:0,0:0:0:0:
326,181,61161,2,0,P|321:135|321:89,1,85,8|0,0:0|0:0,0:0:0:0:
249,26,61490,5,4,0:0:0:0:
412,89,61655,1,0,0:0:0:0:
239,177,61820,1,8,0:0:0:0:
349,221,61985,2,0,L|457:206,1,85,0|0,0:0|1:0,0:0:0:0:
192,93,62314,1,0,1:0:0:0:
111,237,62479,2,0,P|109:284|117:333,1,85,8|0,0:0|0:0,0:0:0:0:
322,130,62809,6,0,P|335:90|338:43,1,85,2|0,1:2|1:0,0:0:0:0:
127,144,63138,2,0,B|70:160|8:141|8:141|-2:170|-29:189,2,170,8|2|8,0:0|1:2|0:0,0:0:0:0:
247,214,63962,1,0,0:0:0:0:
127,144,64128,6,0,L|124:48,1,85,2|0,1:2|1:0,0:0:0:0:
247,214,64457,2,0,P|332:208|425:200,1,170,8|0,0:0|1:0,0:0:0:0:
224,107,64951,1,0,1:0:0:0:
170,306,65117,2,0,L|70:298,1,85,8|0,0:0|0:0,0:0:0:0:
22,80,65446,5,4,0:0:0:0:
99,170,65611,2,0,L|99:218,2,42.5,8|8|10,0:0|0:0|0:0,0:0:0:0:
194,60,65941,2,0,L|192:17,2,42.5,8|8|10,0:0|0:0|0:0,0:0:0:0:
285,195,66270,1,8,0:0:0:0:
306,208,66353,1,8,0:0:0:0:
330,216,66435,1,10,0:0:0:0:
354,220,66517,1,8,0:0:0:0:
379,220,66600,1,8,0:0:0:0:
404,217,66682,1,8,0:0:0:0:
427,206,66765,6,0,B|455:168|455:168|450:44,1,170,4|8,0:0|0:0,0:0:0:0:
343,128,67259,1,0,0:0:0:0:
416,301,67424,2,0,L|501:292,1,85,0|0,1:0|1:0,0:0:0:0:
265,369,67754,2,0,P|248:327|251:275,1,85,8|0,0:0|0:0,0:0:0:0:
422,149,68083,5,0,1:0:0:0:
339,236,68248,1,0,1:0:0:0:
275,68,68413,1,8,0:0:0:0:
422,149,68578,2,0,P|435:186|450:241,1,85,0|0,0:0|1:0,0:0:0:0:
200,334,68908,1,0,1:0:0:0:
322,372,69073,2,0,P|322:328|307:286,1,85,8|0,0:0|0:0,0:0:0:0:
155,212,69402,6,0,B|94:209|94:209|45:162|55:106,2,170,0|8|0,1:0|0:0|1:0,0:0:0:0:
252,131,70226,1,0,1:0:0:0:
344,212,70391,2,0,P|354:257|346:303,1,85,8|0,0:0|0:0,0:0:0:0:
175,368,70721,6,0,L|75:363,1,85,4|0,1:2|1:0,0:0:0:0:
96,243,71051,2,0,L|-4:238,1,85,10|0,0:0|0:0,0:0:0:0:
218,133,71381,2,0,L|118:128,1,85,4|0,1:2|0:0,0:0:0:0:
143,16,71710,2,0,L|43:11,1,85,10|0,0:0|0:0,0:0:0:0:
297,65,72040,6,0,P|325:139|279:218,1,170,4|8,0:0|0:0,0:0:0:0:
165,259,72534,1,0,0:0:0:0:
301,210,72699,2,0,L|398:202,1,85,0|0,1:0|1:0,0:0:0:0:
261,384,73029,2,0,P|243:349|244:294,1,85,8|0,0:0|0:0,0:0:0:0:
447,269,73358,5,0,1:0:0:0:
301,185,73523,1,0,1:0:0:0:
372,340,73688,1,8,0:0:0:0:
483,189,73853,2,0,L|484:102,1,85,0|0,0:0|1:0,0:0:0:0:
363,33,74182,1,0,1:0:0:0:
293,171,74348,2,0,P|339:174|383:158,1,85,8|0,0:0|0:0,0:0:0:0:
207,94,74677,6,0,B|165:83|121:100|121:100|78:89|33:106,1,170,2|8,1:2|0:0,0:0:0:0:
1,17,75171,1,0,0:0:0:0:
14,201,75337,2,0,L|111:186,1,85,0|0,1:0|1:0,0:0:0:0:
277,262,75666,1,8,0:0:0:0:
141,375,75831,6,0,P|64:351|134:286,1,203.999993774414,4|0,0:0|0:0,0:0:0:0:
362,325,76326,2,0,P|377:284|372:230,1,85,8|0,0:0|0:0,0:0:0:0:
195,150,76655,1,2,0:0:0:0:
278,272,76820,1,8,0:0:0:0:
278,272,76902,1,8,0:0:0:0:
278,272,76984,1,10,0:0:0:0:
399,172,77149,1,8,0:0:0:0:
283,49,77314,5,4,0:0:0:0:
195,150,77479,2,0,L|202:204,2,42.5,8|8|8,0:0|0:0|0:0,0:0:0:0:
125,44,77809,1,0,1:0:0:0:
294,144,77973,5,10,0:0:0:0:
135,258,78139,2,0,L|88:255,2,42.5,8|8|8,0:0|0:0|0:0,0:0:0:0:
194,174,78468,1,0,1:0:0:0:
208,346,78633,5,10,0:0:0:0:
356,249,78798,1,8,0:0:0:0:
356,249,78880,1,8,0:0:0:0:
356,249,78962,1,8,0:0:0:0:
256,255,79127,1,0,1:0:0:0:
411,342,79292,5,10,0:0:0:0:
301,166,79457,1,8,0:0:0:0:
301,166,79539,1,8,0:0:0:0:
301,166,79622,1,8,0:0:0:0:
208,346,79787,1,0,1:0:0:0:
94,223,79931,6,0,P|63:200|15:197,1,85,4|8,1:2|0:0,0:0:0:0:
17,196,80179,1,8,0:0:0:0:
17,196,80261,1,8,0:0:0:0:
74,58,80426,1,0,1:0:0:0:
216,107,80591,6,0,P|259:104|303:99,1,85,10|8,0:0|0:0,0:0:0:0:
300,99,80838,1,8,0:0:0:0:
300,99,80920,1,8,0:0:0:0:
405,32,81085,1,0,1:0:0:0:
368,219,81250,6,0,P|326:214|283:209,1,85,10|8,0:0|0:0,0:0:0:0:
283,209,81497,1,8,0:0:0:0:
283,209,81580,1,8,0:0:0:0:
205,331,81745,1,0,1:0:0:0:
123,186,81890,5,8,0:0:0:0:
123,186,81999,2,0,B|71:130|114:52|114:52|183:121|148:186,1,283.333333333333,8|4,0:0|0:0,0:0:0:0:
286,353,83190,5,10,0:0:0:0:
501,248,83889,1,8,0:0:0:0:
501,248,84404,2,0,P|513:199|499:147,1,101.999996887207,0|0,1:0|0:0,0:0:0:0:
445,82,84880,1,0,1:0:0:0:
445,82,85209,6,0,L|382:76,1,50.9999984436036,4|0,0:0|0:0,0:0:0:0:
307,27,85539,1,0,0:0:0:0:
255,113,85704,2,0,L|266:237,2,101.999996887207
350,275,86528,1,2,0:0:0:0:
350,275,86858,5,0,0:0:0:0:
225,349,87187,1,0,0:0:0:0:
136,233,87517,1,0,0:0:0:0:
136,233,87682,2,0,B|100:190|54:194|54:194|70:233|97:241,1,152.999995330811
