osu file format v14

[General]
AudioFilename: cola.mp3
AudioLeadIn: 0
PreviewTime: 35628
Countdown: 0
SampleSet: Soft
StackLeniency: 0.7
Mode: 0
LetterboxInBreaks: 0
WidescreenStoryboard: 1

[Editor]
Bookmarks: 748,5548,15148,24748,29548,34348,36748,46348,55948,58348,60598,70348,77548,79948,89548
DistanceSpacing: 1
BeatDivisor: 4
GridSize: 16
TimelineZoom: 2.2

[Metadata]
Title:Sangenshoku (TV Size)
TitleUnicode:三原色 (TV Size)
Artist:PELICAN FANCLUB
ArtistUnicode:PELICAN FANCLUB
Creator:hypercyte
Version:Normal
Source:Dr.STONE
Tags:ドクターストーン dr. stone pelicans hypercute logic agent anime japanese rock opening op 2 two dr doctor e=mc2
BeatmapID:2210428
BeatmapSetID:1047733

[Difficulty]
HPDrainRate:3.4
CircleSize:3
OverallDifficulty:4
ApproachRate:6
SliderMultiplier:1.04
SliderTickRate:1

[Events]
//Background and Video events
Video,183,"pelican fanclub.mp4"
0,0,"cola.jpg",0,0
//Break Periods
//Storyboard Layer 0 (Background)
//Storyboard Layer 1 (Fail)
//Storyboard Layer 2 (Pass)
//Storyboard Layer 3 (Foreground)
//Storyboard Layer 4 (Overlay)
//Storyboard Sound Samples

[TimingPoints]
378,300,4,2,4,44,1,0
378,-100,4,2,4,44,0,0
4428,-100,4,2,4,44,0,0
5103,-100,4,2,4,5,0,0
5178,-100,4,2,4,55,0,0
14478,-100,4,2,4,55,0,0
14778,-100,4,2,4,40,0,0
23178,-100,4,2,4,40,0,0
24378,-100,4,2,4,50,0,0
29178,-100,4,2,4,60,0,0
29403,-100,4,2,4,5,0,0
29478,-100,4,2,4,60,0,0
32703,-100,4,2,4,5,0,0
32778,-100,4,2,4,60,0,0
33978,-100,4,2,4,45,0,0
35778,-100,4,2,4,60,0,0
36003,-100,4,2,4,5,0,0
36078,-100,4,2,4,60,0,0
36303,-100,4,2,4,60,0,0
36378,-100,4,2,4,80,0,1
41178,-100,4,2,4,80,0,1
50703,-100,4,2,4,5,0,1
50778,-100,4,2,4,80,0,1
55578,-100,4,2,4,45,0,0
57528,-100,4,2,4,45,0,0
57978,-100,4,2,4,55,0,0
60228,-100,4,2,4,75,0,1
67803,-100,4,2,4,5,0,1
67878,-100,4,2,4,75,0,1
68403,-100,4,2,4,5,0,1
68478,-100,4,2,4,75,0,1
69978,-100,4,2,4,80,0,1
77178,-100,4,2,4,70,0,0
77403,-100,4,2,4,5,0,0
77478,-100,4,2,4,70,0,0
78003,-100,4,2,4,5,0,0
78078,-100,4,2,4,70,0,0
78378,-100,4,2,4,70,0,0
78603,-100,4,2,4,5,0,0
78678,-100,4,2,4,70,0,0
78978,-100,4,2,4,70,0,0
79278,-100,4,2,4,70,0,0
79578,-100,4,2,4,65,0,0
86778,-100,4,2,4,75,0,0
88878,-100,4,2,4,75,0,0
89178,-100,4,2,4,44,0,0

[Colours]
Combo1 : 116,116,116
Combo2 : 243,214,1
Combo3 : 232,163,19
Combo4 : 174,174,174

[HitObjects]
53,152,378,38,0,B|104:137|104:137|156:157,1,104,8|8,0:0|0:1,0:0:0:0:
201,169,828,2,0,P|238:119|219:70,1,104,8|8,0:0|0:0,0:0:0:0:
191,45,1278,1,8,0:1:0:0:
285,2,1578,6,0,L|400:14,1,104,8|8,0:0|0:1,0:0:0:0:
439,23,2028,2,0,L|428:136,1,104,8|8,0:0|0:0,0:0:0:0:
422,178,2478,1,8,0:1:0:0:
318,165,2778,38,0,B|273:157|273:157|246:161|246:161|211:155,1,104,8|8,0:0|0:1,0:0:0:0:
166,138,3228,2,0,L|54:160,1,104,8|8,0:0|0:0,0:0:0:0:
14,173,3678,1,8,0:1:0:0:
42,273,3978,6,0,L|153:277,1,104,8|8,0:0|0:1,0:0:0:0:
197,276,4428,1,8,0:0:0:0:
457,276,5178,5,12,0:0:0:0:
390,196,5478,2,0,L|271:189,1,104,10|0,0:1|0:0,0:0:0:0:
249,226,5928,1,10,0:2:0:0:
249,226,6078,2,0,L|137:240,1,104,10|8,0:1|0:0,0:0:0:0:
54,288,6678,2,0,P|36:241|62:177,1,104,10|8,0:1|0:0,0:0:0:0:
91,158,7128,1,10,0:0:0:0:
91,158,7278,1,10,0:1:0:0:
66,56,7578,5,8,0:0:0:0:
156,4,7878,2,0,L|264:20,1,104,10|0,0:1|0:0,0:0:0:0:
298,53,8328,2,0,L|352:48,2,52,10|10|2,0:0|0:1|0:0,0:0:0:0:
170,142,9078,2,0,P|155:202|185:250,1,104,10|0,0:1|0:0,0:0:0:0:
221,256,9528,1,10,0:0:0:0:
221,256,9678,1,10,0:1:0:0:
313,208,9978,37,12,0:0:0:0:
405,255,10278,2,0,B|422:305|422:305|399:372,1,104,10|0,0:1|0:0,0:0:0:0:
355,367,10728,1,10,0:0:0:0:
355,367,10878,2,0,L|248:353,1,104,10|8,0:1|0:0,0:0:0:0:
148,363,11478,2,0,L|41:377,1,104,10|8,0:1|0:0,0:0:0:0:
2,346,11928,1,10,0:0:0:0:
2,346,12078,1,10,0:1:0:0:
51,254,12378,5,8,0:0:0:0:
154,241,12678,2,0,L|135:129,1,104,10|0,0:1|0:0,0:0:0:0:
103,98,13128,2,0,L|113:33,1,52,10|10,0:0|0:1,0:0:0:0:
214,52,13578,2,0,P|244:15|256:5,2,52,8|8|8,0:0|0:0|0:1,0:0:0:0:
214,104,14028,2,0,L|241:224,1,104,8|8,0:1|0:1,0:0:0:0:
250,256,14478,1,8,0:2:0:0:
279,355,14778,6,0,B|327:334|327:334|368:331|368:331|443:297,2,156,14|10|8,0:0|0:0|0:1,0:0:0:0:
106,238,16278,1,8,0:1:0:0:
188,105,16728,5,10,0:0:0:0:
188,105,16878,2,0,L|304:113,1,104,8|10,0:1|0:0,0:0:0:0:
395,127,17478,1,8,0:1:0:0:
395,127,17628,2,0,P|420:184|365:258,1,156,8|8,0:0|0:1,0:0:0:0:
191,150,18678,1,10,0:1:0:0:
47,210,19128,37,10,0:0:0:0:
47,210,19278,2,0,L|27:86,1,104,8|8,0:1|0:0,0:0:0:0:
99,29,19878,1,8,0:1:0:0:
99,29,20028,2,0,L|269:45,1,156,8|8,0:0|0:1,0:0:0:0:
461,57,21078,1,8,0:1:0:0:
438,211,21528,5,10,0:2:0:0:
438,211,21678,2,0,P|445:286|452:325,1,104,8|8,0:1|0:0,0:0:0:0:
346,324,22278,1,8,0:1:0:0:
346,324,22428,2,0,P|258:304|214:348,1,156,10|8,0:0|0:1,0:0:0:0:
111,349,23178,5,10,0:1:0:0:
111,349,23328,1,10,0:0:0:0:
50,264,23628,1,10,0:1:0:0:
50,264,23778,1,10,0:0:0:0:
117,184,24078,2,0,L|187:191,1,52,10|8,0:0|0:0,0:0:0:0:
217,206,24378,22,0,L|330:188,1,104,14|8,0:0|0:0,0:0:0:0:
423,176,24978,1,10,0:1:0:0:
423,176,25128,2,0,P|437:150|406:82,1,104,8|8,0:0|0:0,0:0:0:0:
360,71,25578,2,0,B|325:71|325:71|294:84|294:84|250:82,1,104,10|8,0:1|0:1,0:0:0:0:
154,76,26178,2,0,P|127:130|144:183,1,104,10|0,0:1|0:0,0:0:0:0:
174,205,26628,5,8,0:0:0:0:
174,205,26778,2,0,P|187:258|158:310,1,104,10|10,0:1|0:0,0:0:0:0:
72,344,27378,1,10,0:1:0:0:
22,252,27678,1,2,0:0:0:0:
68,158,27978,1,10,0:1:0:0:
213,214,28428,1,4,0:3:0:0:
213,214,28578,2,0,L|270:202,2,52,8|12|2,0:1|0:0|0:0,0:0:0:0:
156,126,29178,6,0,P|150:92|205:38,1,104,14|10,0:1|0:0,0:0:0:0:
242,49,29628,1,8,0:1:0:0:
242,49,29778,2,0,L|359:45,1,104,2|10,0:0|0:1,0:0:0:0:
448,64,30378,6,0,P|457:108|429:166,1,104,14|2,0:1|0:0,0:0:0:0:
387,183,30828,1,10,0:0:0:0:
387,183,30978,1,10,0:1:0:0:
310,253,31278,2,0,L|245:244,1,52,10|2,0:1|0:0,0:0:0:0:
215,217,31578,38,0,B|168:232|168:232|151:251|151:251|115:264,1,104,14|10,0:1|0:0,0:0:0:0:
77,284,32028,2,0,P|62:348|102:372,1,104,8|8,0:1|0:0,0:0:0:0:
137,369,32478,1,10,0:1:0:0:
235,335,32778,5,10,0:3:0:0:
338,339,33078,1,8,0:3:0:0:
377,242,33378,1,8,0:3:0:0:
479,256,33678,1,8,0:3:0:0:
505,155,33978,6,0,L|478:2,1,156,10|2,0:2|0:0,0:0:0:0:
337,69,34878,2,0,B|291:64|291:64|227:88|227:88|173:86,1,156,2|2,0:0|0:0,0:0:0:0:
86,207,35778,37,12,0:1:0:0:
155,283,36078,21,8,0:3:0:0:
241,225,36378,6,0,B|253:203|281:190|286:200|308:192|325:168,1,104,14|8,0:0|0:1,0:0:0:0:
355,126,36828,1,0,0:0:0:0:
355,126,36978,2,0,P|354:93|298:45,1,104,8|10,0:0|0:1,0:0:0:0:
216,101,37578,6,0,B|194:88|181:60|191:55|183:33|159:16,1,104,10|8,0:0|0:1,0:0:0:0:
56,23,38178,2,0,P|35:62|36:80,1,52,10|10,0:0|0:0,0:0:0:0:
61,113,38478,2,0,P|74:149|66:183,1,52,10|2,0:1|0:0,0:0:0:0:
50,208,38778,37,8,0:0:0:0:
121,283,39078,1,8,0:1:0:0:
224,268,39378,1,8,0:0:0:0:
279,179,39678,1,8,0:1:0:0:
377,213,39978,6,0,B|427:223|427:223|476:188,1,104,8|8,0:0|0:1,0:0:0:0:
485,142,40428,1,0,0:0:0:0:
485,142,40578,2,0,L|477:33,1,104,8|10,0:0|0:1,0:0:0:0:
365,63,41178,38,0,B|331:53|331:53|304:34|304:34|259:18,1,104,14|8,0:0|0:1,0:0:0:0:
223,126,41778,2,0,L|164:139,1,52,8|8,0:0|0:0,0:0:0:0:
143,180,42078,2,0,L|84:167,1,52,10|0,0:1|0:0,0:0:0:0:
40,159,42378,6,0,B|22:122|22:122|29:83|29:83|13:46,1,104,10|8,0:0|0:1,0:0:0:0:
119,33,42978,2,0,P|177:52|193:91,1,104,10|10,0:0|0:1,0:0:0:0:
184,139,43428,37,2,0:0:0:0:
184,139,43578,2,0,P|177:190|220:233,1,104,10|8,0:0|0:1,0:0:0:0:
305,190,44178,1,8,0:0:0:0:
390,249,44478,1,8,0:1:0:0:
325,330,44778,6,0,B|278:324|278:324|251:333|251:333|203:326,1,104,8|8,0:0|0:1,0:0:0:0:
128,372,45378,2,0,P|116:319|68:294,1,104,8|8,0:1|0:1,0:0:0:0:
43,196,45978,38,0,B|55:174|83:161|88:171|110:163|127:139,1,104,14|8,0:2|0:1,0:0:0:0:
164,103,46428,1,0,0:0:0:0:
164,103,46578,2,0,P|221:122|236:175,1,104,8|10,0:0|0:1,0:0:0:0:
331,115,47178,6,0,B|343:93|371:80|376:90|398:82|415:58,1,104,10|8,0:0|0:1,0:0:0:0:
497,121,47778,2,0,P|491:166|478:189,1,52,10|10,0:0|0:0,0:0:0:0:
450,207,48078,1,10,0:1:0:0:
353,244,48378,38,0,P|302:228|229:220,2,104,8|8|8,0:0|0:1|0:0,0:0:0:0:
402,335,49278,1,8,0:1:0:0:
303,367,49578,1,8,0:0:0:0:
206,329,49878,2,0,L|84:341,1,104,8|8,0:1|0:0,0:0:0:0:
6,377,50478,1,10,0:1:0:0:
0,270,50778,5,12,0:0:0:0:
0,166,51078,2,0,L|-2:55,1,104,8|10,0:1|0:0,0:0:0:0:
101,76,51678,37,10,0:1:0:0:
101,76,51828,2,0,P|141:96|154:97,1,52,2|8,0:0|0:0,0:0:0:0:
195,115,52128,2,0,P|252:92|313:87,1,104,2|2,0:0|0:0,0:0:0:0:
371,164,52728,1,8,0:0:0:0:
371,164,52878,2,0,P|379:197|371:230,1,52,10|2,0:1|0:0,0:0:0:0:
336,248,53178,6,0,B|293:227|293:227|277:202|277:202|249:190,1,104,12|10,0:1|0:0,0:0:0:0:
200,191,53628,2,0,B|184:145|184:145|190:116|190:116|179:88,1,104,10|10,0:1|0:0,0:0:0:0:
163,43,54078,1,2,0:0:0:0:
59,47,54378,38,0,P|33:89|41:156,1,104,10|0,0:0|0:0,0:0:0:0:
70,180,54828,2,0,P|93:246|75:295,1,104,10|2,0:0|0:0,0:0:0:0:
52,317,55278,1,10,0:1:0:0:
383,158,57528,5,8,0:0:0:0:
383,158,57678,1,8,0:1:0:0:
484,136,57978,38,0,B|503:90|503:90|475:40,1,104,8|8,0:1|0:0,0:0:0:0:
432,14,58428,1,8,0:1:0:0:
432,14,58578,2,0,L|311:32,1,104,8|12,0:1|0:1,0:0:0:0:
305,130,59178,38,0,L|239:126,1,52,8|8,0:1|0:1,0:0:0:0:
200,131,59478,2,0,L|150:174,1,52,8|8,0:1|0:1,0:0:0:0:
121,199,59778,2,0,L|55:195,1,52,8|8,0:1|0:1,0:0:0:0:
8,110,60228,6,0,B|20:88|48:75|53:85|75:77|92:53,1,104,14|8,0:0|0:0,0:0:0:0:
127,14,60678,1,10,0:1:0:0:
213,72,60978,2,0,L|317:50,1,104,10|8,0:0|0:1,0:0:0:0:
366,56,61428,6,0,P|399:120|381:154,2,104,2|10|2,0:0|0:0|0:0,0:0:0:0:
211,80,62478,37,8,0:1:0:0:
211,80,62628,2,0,B|170:56|170:56|160:36|160:36|126:16,2,104,14|8|0,0:0|0:0|0:0,0:0:0:0:
237,124,63378,2,0,P|237:186|200:228,1,104,10|8,0:0|0:1,0:0:0:0:
161,222,63828,2,0,L|45:218,2,104,2|2|2,0:0|0:0|0:0,0:0:0:0:
261,247,64728,1,8,0:0:0:0:
261,247,64878,2,0,L|328:254,1,52,8|0,0:1|0:0,0:0:0:0:
364,253,65178,5,14,0:0:0:0:
421,166,65478,1,10,0:1:0:0:
375,72,65778,2,0,L|258:84,1,104,10|8,0:0|0:1,0:0:0:0:
193,150,66378,37,10,0:0:0:0:
107,209,66678,1,10,0:1:0:0:
18,154,66978,2,0,P|6:94|36:51,1,104,10|10,0:0|0:1,0:0:0:0:
76,43,67428,5,0,0:0:0:0:
76,43,67578,2,0,L|195:29,1,104,10|8,0:0|0:1,0:0:0:0:
282,43,68178,2,0,P|317:106|307:140,1,104,10|8,0:0|0:1,0:0:0:0:
257,223,68778,38,0,B|213:220|213:220|183:230|183:230|142:228,1,104,10|8,0:0|0:1,0:0:0:0:
102,224,69228,1,10,0:0:0:0:
102,224,69378,2,0,P|61:260|73:316,1,104,10|10,0:0|0:1,0:0:0:0:
140,376,69978,6,0,B|174:360|174:360|196:332|196:332|224:315,1,104,12|8,0:2|0:1,0:0:0:0:
274,315,70428,1,0,0:0:0:0:
274,315,70578,2,0,P|313:337|377:342,1,104,10|10,0:0|0:1,0:0:0:0:
390,240,71178,38,0,B|356:224|356:224|334:196|334:196|306:179,1,104,10|8,0:0|0:1,0:0:0:0:
255,181,71628,2,0,L|153:233,1,104,2|10,0:0|0:0,0:0:0:0:
114,249,72078,1,10,0:1:0:0:
61,159,72378,5,8,0:0:0:0:
107,65,72678,1,8,0:1:0:0:
210,57,72978,1,8,0:0:0:0:
272,140,73278,1,8,0:1:0:0:
374,125,73578,1,8,0:0:0:0:
438,43,73878,38,0,P|483:53|512:107,1,104,8|8,0:1|0:0,0:0:0:0:
509,152,74328,1,8,0:0:0:0:
509,152,74478,1,10,0:1:0:0:
440,230,74778,6,0,B|428:208|400:195|395:205|373:197|356:173,1,104,12|8,0:0|0:1,0:0:0:0:
253,151,75378,2,0,P|196:160|184:170,1,52,8|8,0:0|0:0,0:0:0:0:
150,155,75678,2,0,P|116:201|114:217,1,52,10|0,0:1|0:0,0:0:0:0:
88,237,75978,38,0,B|76:215|48:202|43:212|21:204|4:180,1,104,10|8,0:0|0:1,0:0:0:0:
14,76,76578,1,10,0:1:0:0:
115,51,76878,1,10,0:3:0:0:
203,106,77178,6,0,L|310:84,1,104,14|14,0:0|0:0,0:0:0:0:
408,96,77778,2,0,P|442:144|432:189,1,104,14|14,0:0|0:0,0:0:0:0:
363,262,78378,38,0,L|311:252,1,52,14|0,0:0|0:0,0:0:0:0:
260,242,78678,2,0,L|208:252,1,52,12|0,0:0|0:0,0:0:0:0:
162,275,78978,2,0,L|41:260,1,104,10|8,0:1|0:1,0:0:0:0:
104,168,79578,22,0,P|130:112|114:61,2,104,14|10|2,0:0|0:1|0:0,0:0:0:0:
57,201,80328,1,8,0:0:0:0:
57,201,80478,1,8,0:1:0:0:
129,275,80778,2,0,P|205:298|237:324,2,104,10|10|2,0:0|0:1|0:0,0:0:0:0:
57,201,81678,1,8,0:1:0:0:
98,105,81978,6,0,P|142:79|241:131,1,156,10|2,0:0|0:0,0:0:0:0:
291,210,82728,1,10,0:0:0:0:
291,210,82878,2,0,L|417:185,1,104,10|8,0:1|0:0,0:0:0:0:
451,103,83478,1,10,0:1:0:0:
369,37,83778,1,2,0:0:0:0:
278,88,84078,1,10,0:1:0:0:
181,50,84378,38,0,L|69:69,2,104,12|10|2,0:0|0:1|0:0,0:0:0:0:
279,82,85278,1,10,0:1:0:0:
244,179,85578,1,8,0:0:0:0:
325,244,85878,1,10,0:1:0:0:
414,191,86178,2,0,B|467:177|467:177|517:201,1,104,10|8,0:0|0:1,0:0:0:0:
510,302,86778,22,0,L|449:311,1,52,14|0,0:1|0:0,0:0:0:0:
415,338,87078,1,12,0:0:0:0:
415,338,87228,2,0,L|297:330,1,104,8|8,0:1|0:0,0:0:0:0:
259,327,87678,1,12,0:1:0:0:
183,255,87978,5,14,0:0:0:0:
183,255,88128,2,0,L|69:276,1,104,10|10,0:1|0:0,0:0:0:0:
28,271,88578,2,0,P|18:242|17:217,1,52,8|10,0:1|0:1,0:0:0:0:
41,174,88878,2,0,P|55:136|-3:109,1,104,6|0,0:3|0:0,0:0:0:0:
