osu file format v14

[General]
AudioFilename: cola.mp3
AudioLeadIn: 0
PreviewTime: 35628
Countdown: 0
SampleSet: Soft
StackLeniency: 0.4
Mode: 0
LetterboxInBreaks: 0
WidescreenStoryboard: 1

[Editor]
Bookmarks: 748,5548,15148,24748,29548,34348,36748,38824,46348,46924,55948,58348,60598,70348,77548,79948,89548
DistanceSpacing: 1.6
BeatDivisor: 4
GridSize: 32
TimelineZoom: 2.2

[Metadata]
Title:Sangenshoku (TV Size)
TitleUnicode:三原色 (TV Size)
Artist:PELICAN FANCLUB
ArtistUnicode:PELICAN FANCLUB
Creator:hypercyte
Version:Logic's Extra
Source:Dr.STONE
Tags:ドクターストーン dr. stone pelicans hypercute logic agent anime japanese rock opening op 2 two dr doctor e=mc2
BeatmapID:2191153
BeatmapSetID:1047733

[Difficulty]
HPDrainRate:5.5
CircleSize:4
OverallDifficulty:8
ApproachRate:9
SliderMultiplier:1.8
SliderTickRate:1

[Events]
//Background and Video events
0,0,"bruno bucciarati.jpg",0,0
Video,183,"pelican fanclub.mp4"
//Break Periods
//Storyboard Layer 0 (Background)
//Storyboard Layer 1 (Fail)
//Storyboard Layer 2 (Pass)
//Storyboard Layer 3 (Foreground)
//Storyboard Layer 4 (Overlay)
//Storyboard Sound Samples

[TimingPoints]
378,300,4,2,4,44,1,0
378,-142.857142857143,4,2,4,44,0,0
4578,-200,4,2,4,44,0,0
5178,-100,4,2,4,55,0,0
14778,-125,4,2,4,40,0,0
24378,-111.111111111111,4,2,4,50,0,0
29178,-99.9999999999999,4,2,4,60,0,0
33978,-142.857142857143,4,2,4,45,0,0
35778,-142.857142857143,4,2,4,60,0,0
36078,-166.666666666667,4,2,4,60,0,0
36378,-90.9090909090909,4,2,4,80,0,1
55578,-90.9090909090909,4,2,4,45,0,0
57978,-111.111111111111,4,2,4,55,0,0
60228,-90.9090909090908,4,2,4,75,0,1
69978,-90.9090909090908,4,2,4,80,0,1
77178,-90.9090909090908,4,2,4,70,0,0
79578,-90.9090909090908,4,2,4,65,0,0
86778,-90.9090909090908,4,2,4,75,0,0

[Colours]
Combo1 : 178,130,154
Combo2 : 113,33,27
Combo3 : 220,141,121
Combo4 : 150,124,45

[HitObjects]
397,283,378,6,0,P|410:312|416:343,1,62.9999980773926,8|0,0:0|0:0,0:0:0:0:
459,220,678,1,8,0:1:0:0:
343,173,828,2,0,P|319:224|309:280,1,94.499997116089,8|0,0:0|0:0,0:0:0:0:
311,270,1128,1,8,0:0:0:0:
244,179,1278,1,8,0:1:0:0:
45,348,1578,6,0,L|108:355,1,62.9999980773926,8|0,0:0|0:0,0:0:0:0:
179,296,1878,1,8,0:1:0:0:
96,169,2028,2,0,L|86:263,1,94.499997116089,8|0,0:0|0:0,0:0:0:0:
86,272,2328,1,8,0:0:0:0:
171,214,2478,1,8,0:1:0:0:
342,173,2778,6,0,P|378:158|404:161,1,62.9999980773926,8|0,0:0|0:0,0:0:0:0:
464,97,3078,1,8,0:1:0:0:
475,274,3228,2,0,P|481:227|490:181,1,94.499997116089,8|0,0:0|0:0,0:0:0:0:
493,172,3528,1,8,0:0:0:0:
395,237,3678,1,8,0:1:0:0:
276,30,3978,6,0,L|265:93,1,62.9999980773926,8|8,0:0|0:0,0:0:0:0:
187,50,4278,1,8,0:1:0:0:
195,205,4428,1,8,0:0:0:0:
195,205,4578,2,0,P|268:196|337:195,1,135,0|0,0:0|0:0,0:0:0:0:
441,65,5178,6,0,P|423:115|415:165,1,90,12|0,0:0|0:0,0:0:0:0:
512,308,5478,2,0,P|487:268|381:285,1,135,10|0,0:1|0:0,0:0:0:0:
394,270,5778,1,0,0:0:0:0:
338,112,5928,1,10,0:2:0:0:
497,156,6078,1,10,0:1:0:0:
329,194,6228,1,0,0:0:0:0:
347,30,6378,6,0,P|302:18|247:9,1,90,8|0,0:0|0:0,0:0:0:0:
120,40,6678,2,0,P|137:105|147:171,1,135,10|0,0:1|0:0,0:0:0:0:
146,185,6978,1,8,0:0:0:0:
41,119,7128,1,10,0:0:0:0:
230,122,7278,1,10,0:1:0:0:
56,203,7428,1,0,0:0:0:0:
205,302,7578,6,0,P|249:281|293:286,1,90,8|0,0:0|0:0,0:0:0:0:
427,242,7878,2,0,P|382:291|380:357,1,135,10|0,0:1|0:0,0:0:0:0:
390,367,8178,1,0,0:0:0:0:
329,206,8328,1,10,0:0:0:0:
491,305,8478,1,10,0:1:0:0:
288,284,8628,1,2,0:0:0:0:
512,224,8778,6,0,L|493:134,1,90,8|8,0:0|0:0,0:0:0:0:
363,39,9078,1,10,0:1:0:0:
329,206,9228,1,2,0:0:0:0:
329,206,9303,1,2,0:0:0:0:
329,206,9378,2,0,L|419:187,1,90,2|10,0:0|0:0,0:0:0:0:
491,305,9678,2,0,L|401:286,1,90,10|0,0:1|0:0,0:0:0:0:
221,260,9978,6,0,P|246:296|251:343,1,90,12|0,0:0|0:0,0:0:0:0:
15,355,10278,2,0,L|155:329,1,135,10|0,0:1|0:0,0:0:0:0:
161,328,10578,1,0,0:0:0:0:
329,364,10728,1,10,0:0:0:0:
329,206,10878,1,10,0:1:0:0:
251,340,11028,1,0,0:0:0:0:
164,129,11178,6,0,P|152:174|143:229,1,90,8|8,0:0|0:0,0:0:0:0:
26,71,11478,2,0,P|45:143|59:231,1,135,10|0,0:1|0:0,0:0:0:0:
55,215,11778,1,8,0:0:0:0:
107,59,11928,1,10,0:0:0:0:
235,176,12078,1,10,0:1:0:0:
168,3,12228,1,0,0:0:0:0:
295,107,12378,6,0,P|320:143|325:187,1,90,8|0,0:0|0:0,0:0:0:0:
251,340,12678,2,0,L|413:314,1,135,10|0,0:1|0:0,0:0:0:0:
397,316,12978,1,0,0:0:0:0:
259,254,13128,1,10,0:0:0:0:
443,245,13278,1,10,0:1:0:0:
235,176,13428,1,2,0:0:0:0:
398,64,13578,5,8,0:0:0:0:
474,92,13728,1,8,0:0:0:0:
412,143,13878,1,8,0:1:0:0:
276,21,14028,1,8,0:1:0:0:
276,21,14103,1,8,0:1:0:0:
276,21,14178,1,8,0:1:0:0:
235,176,14328,1,8,0:1:0:0:
48,90,14478,2,0,P|95:83|160:76,1,90,8|0,0:2|0:0,0:0:0:0:
141,188,14778,6,0,P|130:228|124:273,1,72,14|0,0:0|0:0,0:0:0:0:
203,296,15078,1,8,0:1:0:0:
21,229,15228,2,0,P|40:301|51:382,1,144,10|0,0:0|0:0,0:0:0:0:
133,349,15678,1,8,0:1:0:0:
141,188,15978,5,8,0:0:0:0:
141,188,16128,1,8,0:0:0:0:
203,296,16278,1,8,0:1:0:0:
224,148,16578,1,8,0:0:0:0:
224,148,16728,1,8,0:0:0:0:
286,256,16878,1,8,0:1:0:0:
133,94,17178,6,0,P|98:86|63:81,1,72,10|0,0:0|0:0,0:0:0:0:
194,31,17478,1,8,0:1:0:0:
294,109,17628,2,0,P|374:91|456:80,1,144,10|0,0:0|0:0,0:0:0:0:
500,141,18078,1,8,0:1:0:0:
375,8,18378,5,8,0:0:0:0:
375,8,18528,1,8,0:0:0:0:
353,186,18678,1,8,0:1:0:0:
276,0,18978,1,8,0:0:0:0:
276,0,19128,1,8,0:0:0:0:
254,178,19278,1,8,0:1:0:0:
507,207,19578,6,0,P|513:173|499:140,1,72,10|0,0:0|0:0,0:0:0:0:
419,107,19878,1,8,0:1:0:0:
350,301,20028,2,0,P|396:270|482:298,1,144,10|0,0:0|0:0,0:0:0:0:
418,356,20478,1,8,0:1:0:0:
353,186,20778,5,8,0:0:0:0:
353,186,20928,1,8,0:0:0:0:
264,273,21078,1,8,0:1:0:0:
292,115,21378,1,8,0:0:0:0:
292,115,21528,1,8,0:2:0:0:
204,203,21678,1,8,0:1:0:0:
58,9,21978,6,0,P|63:51|63:81,1,72,10|0,0:0|0:0,0:0:0:0:
147,59,22278,1,8,0:1:0:0:
278,0,22428,2,0,P|268:84|268:144,1,144,10|2,0:0|0:0,0:0:0:0:
351,120,22878,1,8,0:1:0:0:
362,132,23178,5,10,0:1:0:0:
169,241,23328,1,10,0:0:0:0:
460,172,23628,5,10,0:1:0:0:
267,281,23778,2,0,P|257:324|251:373,1,72,10|0,0:0|0:0,0:0:0:0:
368,232,24078,2,0,P|378:275|384:324,1,72,10|8,0:0|0:0,0:0:0:0:
460,172,24378,6,0,P|431:124|471:44,1,121.499996292114,14|0,0:0|0:0,0:0:0:0:
455,55,24678,1,8,0:0:0:0:
339,116,24828,2,0,P|300:107|259:103,1,80.9999975280763,0|10,0:0|0:1,0:0:0:0:
210,28,25128,1,8,0:0:0:0:
90,85,25278,2,0,P|80:123|76:164,1,80.9999975280763,0|8,0:0|0:0,0:0:0:0:
166,205,25578,5,10,0:1:0:0:
175,201,25653,1,8,0:1:0:0:
185,198,25728,1,8,0:1:0:0:
194,195,25803,1,8,0:1:0:0:
204,192,25878,1,8,0:1:0:0:
267,254,26028,1,8,0:0:0:0:
313,178,26178,2,0,P|352:157|403:172,1,80.9999975280763,10|8,0:1|0:0,0:0:0:0:
392,252,26478,2,0,P|431:256|466:236,1,80.9999975280763,0|8,0:0|0:0,0:0:0:0:
412,382,26778,6,0,P|360:336|264:371,1,161.999995056153,10|10,0:1|0:0,0:0:0:0:
267,254,27228,1,0,0:0:0:0:
102,332,27378,2,0,P|141:322|181:318,1,80.9999975280763,10|8,0:1|0:1,0:0:0:0:
106,224,27678,1,2,0:0:0:0:
283,167,27828,1,8,0:1:0:0:
283,167,27903,1,8,0:1:0:0:
283,167,27978,5,10,0:1:0:0:
267,254,28128,1,4,0:3:0:0:
367,138,28278,1,4,0:3:0:0:
351,225,28428,1,4,0:3:0:0:
299,80,28578,5,8,0:1:0:0:
383,51,28728,1,12,0:0:0:0:
451,109,28878,2,0,P|491:100|536:92,1,80.9999975280763,2|8,0:0|0:0,0:0:0:0:
380,263,29178,6,0,P|340:211|358:148,1,135,14|0,0:1|0:0,0:0:0:0:
367,138,29478,1,10,0:0:0:0:
484,232,29628,2,0,P|469:283|459:329,1,90,8|2,0:1|0:0,0:0:0:0:
380,263,29928,1,8,0:0:0:0:
255,366,30078,2,0,P|203:351|157:341,1,90,10|0,0:1|0:0,0:0:0:0:
11,206,30378,5,14,0:1:0:0:
36,197,30528,1,10,0:0:0:0:
95,117,30678,1,2,0:0:0:0:
96,279,30828,1,10,0:1:0:0:
188,148,30978,1,2,0:1:0:0:
188,246,31128,1,0,0:0:0:0:
281,117,31278,5,10,0:1:0:0:
282,280,31428,1,2,0:0:0:0:
374,148,31578,2,0,P|426:133|472:123,1,90,14|2,0:1|0:0,0:0:0:0:
374,246,31878,2,0,P|417:256|460:268,1,90,10|8,0:0|0:1,0:0:0:0:
280,109,32178,2,0,P|281:198|281:288,1,180,2|10,0:0|0:1,0:0:0:0:
186,187,32628,1,2,0:0:0:0:
374,148,32778,5,10,0:3:0:0:
374,148,32928,1,4,0:3:0:0:
460,268,33078,5,8,0:3:0:0:
460,268,33228,1,4,0:3:0:0:
456,110,33378,5,8,0:3:0:0:
378,306,33528,1,4,0:3:0:0:
383,58,33678,5,8,0:3:0:0:
460,268,33828,1,4,0:3:0:0:
189,189,33978,5,10,0:2:0:0:
189,189,34128,2,0,L|204:263,1,62.9999980773926,0|0,0:0|0:0,0:0:0:0:
122,301,34428,1,2,0:0:0:0:
126,319,34578,2,0,L|141:393,1,62.9999980773926,0|0,0:0|0:0,0:0:0:0:
9,202,34878,1,2,0:0:0:0:
17,238,35028,2,0,L|29:299,1,62.9999980773926,0|0,0:0|0:0,0:0:0:0:
90,166,35328,1,2,0:0:0:0:
90,166,35478,1,0,0:0:0:0:
172,103,35628,5,2,0:0:0:0:
144,87,35778,1,14,0:1:0:0:
238,16,35928,1,2,0:0:0:0:
300,169,36078,2,0,P|334:148|374:146,1,80.9999975280763,8|0,0:3|0:0,0:0:0:0:
441,78,36378,6,0,P|423:128|412:181,1,99.0000030212403,14|0,0:0|0:0,0:0:0:0:
340,40,36678,1,8,0:1:0:0:
327,270,36828,1,8,0:0:0:0:
327,270,36903,1,8,0:0:0:0:
327,270,36978,2,0,P|277:253|224:242,1,99.0000030212403,8|8,0:0|0:0,0:0:0:0:
245,67,37278,2,0,P|295:50|348:39,1,99.0000030212403,10|0,0:1|0:0,0:0:0:0:
82,34,37578,6,0,P|133:86|120:178,1,148.50000453186,10|0,0:0|0:0,0:0:0:0:
120,167,37878,1,8,0:1:0:0:
234,154,38028,1,2,0:0:0:0:
43,215,38178,1,10,0:0:0:0:
231,243,38328,1,10,0:0:0:0:
45,120,38478,1,10,0:1:0:0:
237,65,38628,1,2,0:0:0:0:
131,157,38778,6,0,P|131:211|130:261,1,99.0000030212403,8|0,0:0|0:0,0:0:0:0:
309,296,39078,2,0,P|324:251|313:197,1,99.0000030212403,8|0,0:1|0:0,0:0:0:0:
231,243,39303,1,2,0:0:0:0:
243,243,39378,1,10,0:0:0:0:
387,349,39528,1,8,0:0:0:0:
186,344,39678,2,0,P|132:339|82:335,1,99.0000030212403,8|0,0:1|0:0,0:0:0:0:
35,157,39978,5,8,0:0:0:0:
131,157,40128,1,0,0:0:0:0:
83,241,40278,1,8,0:1:0:0:
83,73,40428,1,8,0:0:0:0:
83,73,40503,1,8,0:0:0:0:
83,73,40578,2,0,P|129:65|184:58,1,99.0000030212403,8|8,0:0|0:0,0:0:0:0:
422,22,40878,2,0,B|385:67|385:67|396:185,1,148.50000453186,10|0,0:1|0:0,0:0:0:0:
492,234,41178,6,0,B|482:135,1,99.0000030212403,14|0,0:0|0:0,0:0:0:0:
406,303,41478,1,8,0:1:0:0:
294,166,41628,1,8,0:0:0:0:
294,166,41703,1,8,0:0:0:0:
294,166,41778,2,0,P|351:160|393:156,1,99.0000030212403,8|8,0:0|0:0,0:0:0:0:
126,49,42078,2,0,P|175:53|224:58,1,99.0000030212403,10|0,0:1|0:0,0:0:0:0:
0,217,42378,6,0,P|95:206|191:197,1,148.50000453186,10|0,0:0|0:0,0:0:0:0:
162,200,42678,1,8,0:1:0:0:
101,308,42828,1,0,0:0:0:0:
48,128,42978,2,0,P|43:79|38:30,1,99.0000030212403,10|8,0:0|0:0,0:0:0:0:
225,59,43278,1,10,0:1:0:0:
137,94,43428,1,2,0:0:0:0:
313,24,43578,6,0,P|320:79|325:128,1,99.0000030212403,10|0,0:0|0:0,0:0:0:0:
453,112,43803,1,2,0:0:0:0:
439,113,43878,2,0,P|431:168|427:217,1,99.0000030212403,10|0,0:1|0:0,0:0:0:0:
199,266,44178,2,0,P|254:258|303:254,1,99.0000030212403,8|8,0:0|0:0,0:0:0:0:
386,377,44403,1,2,0:0:0:0:
386,365,44478,2,0,P|330:357|282:353,1,99.0000030212403,10|0,0:1|0:0,0:0:0:0:
344,168,44778,5,8,0:0:0:0:
468,311,44928,1,8,0:0:0:0:
468,311,45003,1,8,0:0:0:0:
468,311,45078,1,8,0:1:0:0:
287,353,45228,1,10,0:1:0:0:
287,353,45303,1,10,0:1:0:0:
287,353,45378,2,0,L|237:346,3,49.5000015106202,10|8|8|8,0:1|0:1|0:1|0:1,0:0:0:0:
96,274,45678,2,0,L|175:264,1,49.5000015106202,8|8,0:1|0:1,0:0:0:0:
200,78,45828,1,8,0:1:0:0:
200,78,45903,1,8,0:1:0:0:
200,78,45978,6,0,L|212:177,1,99.0000030212403,14|0,0:2|0:0,0:0:0:0:
308,52,46278,1,8,0:1:0:0:
426,187,46428,1,8,0:0:0:0:
426,187,46503,1,8,0:0:0:0:
426,187,46578,2,0,L|327:175,1,99.0000030212403,8|8,0:0|0:0,0:0:0:0:
202,331,46878,2,0,L|301:319,1,99.0000030212403,10|0,0:1|0:0,0:0:0:0:
512,240,47178,6,0,P|466:282|485:389,1,148.50000453186,10|0,0:0|0:0,0:0:0:0:
477,372,47478,1,8,0:1:0:0:
426,187,47628,1,2,0:0:0:0:
300,319,47778,1,10,0:0:0:0:
239,146,47928,1,10,0:0:0:0:
363,253,48078,1,10,0:1:0:0:
152,241,48228,1,0,0:0:0:0:
337,165,48378,6,0,L|236:146,1,99.0000030212403,8|0,0:0|0:0,0:0:0:0:
55,260,48678,2,0,L|156:241,1,99.0000030212403,8|0,0:1|0:0,0:0:0:0:
247,244,48903,1,2,0:0:0:0:
247,232,48978,1,10,0:0:0:0:
123,155,49128,1,8,0:0:0:0:
97,367,49278,2,0,L|-4:348,1,99.0000030212403,8|0,0:1|0:0,0:0:0:0:
247,244,49578,6,0,P|226:293|233:344,1,99.0000030212403,8|0,0:0|0:0,0:0:0:0:
470,329,49878,2,0,P|474:280|454:236,1,99.0000030212403,8|0,0:1|0:0,0:0:0:0:
299,163,50178,2,0,P|347:171|394:155,1,99.0000030212403,8|8,0:0|0:0,0:0:0:0:
428,36,50478,2,0,P|335:8|248:50,1,198.000006042481,10|12,0:1|0:0,0:0:0:0:
394,154,50928,5,0,0:0:0:0:
394,154,51078,2,0,L|503:138,1,99.0000030212403,8|0,0:1|0:0,0:0:0:0:
470,329,51378,2,0,L|372:314,1,99.0000030212403,10|8,0:0|0:0,0:0:0:0:
169,227,51678,1,10,0:1:0:0:
169,227,51828,6,0,L|278:211,1,99.0000030212403,2|8,0:0|0:0,0:0:0:0:
24,145,52128,2,0,L|133:129,1,99.0000030212403,2|8,0:0|0:1,0:0:0:0:
86,343,52428,2,0,L|250:318,1,148.50000453186,2|0,0:0|0:0,0:0:0:0:
247,320,52728,1,8,0:0:0:0:
72,236,52878,1,10,0:1:0:0:
121,129,53028,1,2,0:0:0:0:
288,116,53178,6,0,P|273:172|265:230,1,99.0000030212403,12|0,0:1|0:0,0:0:0:0:
187,49,53478,1,10,0:0:0:0:
376,23,53628,6,0,P|391:79|399:137,1,99.0000030212403,10|0,0:1|0:0,0:0:0:0:
495,0,53928,1,10,0:0:0:0:
490,167,54078,1,8,0:1:0:0:
490,167,54228,1,2,0:0:0:0:
306,105,54378,5,10,0:0:0:0:
331,302,54528,2,0,P|387:287|445:279,1,99.0000030212403,2|0,0:0|0:0,0:0:0:0:
220,201,54828,1,10,0:0:0:0:
74,251,54978,2,0,P|59:307|51:365,1,99.0000030212403,8|2,0:1|0:0,0:0:0:0:
225,384,55278,2,0,P|216:335|203:287,1,99.0000030212403,10|0,0:1|0:0,0:0:0:0:
220,201,55578,5,2,0:0:0:0:
288,143,55728,1,0,0:0:0:0:
372,172,55878,1,2,0:0:0:0:
356,85,56028,5,0,0:0:0:0:
439,114,56178,1,2,0:0:0:0:
455,201,56328,1,0,0:0:0:0:
388,259,56478,1,2,0:0:0:0:
305,230,56628,1,0,0:0:0:0:
372,172,56778,5,2,0:0:0:0:
288,143,56928,1,0,0:0:0:0:
220,201,57078,1,2,0:0:0:0:
203,113,57228,5,2,0:0:0:0:
135,171,57378,1,0,0:0:0:0:
152,259,57528,1,10,0:0:0:0:
118,83,57678,1,8,0:1:0:0:
288,143,57828,1,8,0:0:0:0:
152,259,57978,6,0,L|62:248,1,80.9999975280763,8|8,0:1|0:0,0:0:0:0:
135,171,58278,1,8,0:0:0:0:
305,230,58428,1,8,0:1:0:0:
244,376,58578,2,0,L|233:286,1,80.9999975280763,8|8,0:1|0:0,0:0:0:0:
403,178,58878,2,0,L|393:258,1,80.9999975280763,12|0,0:1|0:0,0:0:0:0:
288,143,59178,5,8,0:1:0:0:
475,108,59328,1,8,0:1:0:0:
305,230,59478,5,8,0:1:0:0:
492,195,59628,1,8,0:1:0:0:
322,317,59778,5,8,0:1:0:0:
509,282,59928,1,8,0:1:0:0:
357,28,60228,6,0,P|379:116|394:184,1,148.50000453186,14|0,0:0|0:0,0:0:0:0:
391,187,60528,1,8,0:0:0:0:
461,22,60678,1,10,0:1:0:0:
280,110,60828,1,0,0:0:0:0:
279,110,60978,2,0,P|232:97|183:86,1,99.0000030212403,10|8,0:0|0:0,0:0:0:0:
0,130,61278,1,8,0:1:0:0:
106,0,61428,6,0,P|85:49|91:95,1,99.0000030212403,2|8,0:0|0:0,0:0:0:0:
198,179,61728,2,0,P|202:130|182:85,1,99.0000030212403,10|8,0:0|0:1,0:0:0:0:
98,287,62028,2,0,P|170:273|244:264,1,148.50000453186,2|0,0:0|0:0,0:0:0:0:
258,269,62328,1,8,0:0:0:0:
109,194,62478,1,8,0:1:0:0:
319,200,62628,6,0,P|349:256|307:346,1,148.50000453186,14|0,0:0|0:0,0:0:0:0:
309,336,62928,1,8,0:0:0:0:
198,179,63078,1,8,0:1:0:0:
380,104,63228,1,0,0:0:0:0:
380,104,63378,2,0,P|428:94|477:86,1,99.0000030212403,10|8,0:0|0:0,0:0:0:0:
318,0,63678,1,8,0:1:0:0:
198,179,63828,6,0,P|190:130|175:82,1,99.0000030212403,2|8,0:0|0:0,0:0:0:0:
61,199,64128,2,0,P|46:246|38:310,1,99.0000030212403,2|8,0:0|0:1,0:0:0:0:
168,367,64428,2,0,P|215:324|312:339,1,148.50000453186,2|0,0:0|0:0,0:0:0:0:
306,338,64728,1,8,0:0:0:0:
436,254,64878,2,0,P|421:301|413:365,1,99.0000030212403,8|0,0:1|0:0,0:0:0:0:
498,184,65178,6,0,P|454:163|406:167,1,99.0000030212403,14|0,0:0|0:0,0:0:0:0:
403,74,65478,2,0,P|356:90|324:127,1,99.0000030212403,10|0,0:1|0:0,0:0:0:0:
256,63,65778,2,0,P|234:107|238:155,1,99.0000030212403,10|8,0:0|0:0,0:0:0:0:
436,254,66078,1,8,0:1:0:0:
436,254,66228,1,0,0:0:0:0:
267,366,66378,6,0,L|243:269,1,99.0000030212403,10|0,0:0|0:0,0:0:0:0:
141,179,66678,2,0,L|237:155,1,99.0000030212403,10|0,0:1|0:0,0:0:0:0:
300,30,66978,2,0,L|323:126,1,99.0000030212403,10|8,0:0|0:0,0:0:0:0:
106,82,67278,1,10,0:1:0:0:
106,82,67428,1,0,0:0:0:0:
124,270,67578,6,0,P|64:229|54:149,1,148.50000453186,10|0,0:0|0:0,0:0:0:0:
59,145,67878,1,8,0:1:0:0:
141,179,68028,1,0,0:0:0:0:
162,365,68178,6,0,P|234:348|307:333,1,148.50000453186,10|0,0:0|0:0,0:0:0:0:
321,331,68478,1,8,0:1:0:0:
269,258,68628,1,0,0:0:0:0:
420,147,68778,6,0,P|369:135|317:125,1,99.0000030212403,10|0,0:0|0:0,0:0:0:0:
462,71,69078,1,8,0:1:0:0:
507,146,69228,1,10,0:0:0:0:
375,222,69378,1,10,0:0:0:0:
420,147,69528,1,8,0:0:0:0:
507,298,69678,1,10,0:1:0:0:
462,223,69828,1,0,0:0:0:0:
420,300,69978,6,0,P|371:309|323:320,1,99.0000030212403,12|0,0:2|0:0,0:0:0:0:
207,188,70278,1,8,0:1:0:0:
247,375,70428,1,2,0:0:0:0:
67,252,70578,2,0,P|115:261|163:272,1,99.0000030212403,10|8,0:0|0:0,0:0:0:0:
304,168,70878,2,0,P|255:177|207:188,1,99.0000030212403,10|0,0:1|0:0,0:0:0:0:
67,84,71178,6,0,P|115:93|163:104,1,99.0000030212403,10|0,0:0|0:0,0:0:0:0:
304,0,71478,1,8,0:1:0:0:
249,77,71628,1,2,0:0:0:0:
399,10,71778,1,10,0:0:0:0:
399,10,71928,1,10,0:0:0:0:
344,87,72078,1,10,0:1:0:0:
494,20,72228,1,2,0:0:0:0:
433,195,72378,6,0,P|435:146|439:97,1,99.0000030212403,10|0,0:0|0:0,0:0:0:0:
292,173,72603,1,2,0:0:0:0:
292,185,72678,2,0,P|295:234|297:283,1,99.0000030212403,10|0,0:1|0:0,0:0:0:0:
503,305,72978,2,0,P|453:301|404:299,1,99.0000030212403,10|8,0:0|0:0,0:0:0:0:
279,380,73203,1,2,0:0:0:0:
267,380,73278,2,0,P|218:371|169:365,1,99.0000030212403,10|0,0:1|0:0,0:0:0:0:
157,165,73578,6,0,P|184:205|180:253,1,99.0000030212403,8|0,0:0|0:0,0:0:0:0:
47,155,73878,1,8,0:1:0:0:
96,311,74028,1,0,0:0:0:0:
296,285,74178,2,0,P|346:281|395:279,1,99.0000030212403,8|8,0:0|0:0,0:0:0:0:
351,141,74478,2,0,P|301:137|252:135,1,99.0000030212403,10|0,0:1|0:0,0:0:0:0:
486,90,74778,6,0,P|482:140|480:189,1,99.0000030212403,12|0,0:0|0:0,0:0:0:0:
386,51,75078,1,8,0:1:0:0:
402,251,75228,1,0,0:0:0:0:
252,135,75378,2,0,P|225:95|229:47,1,99.0000030212403,8|8,0:0|0:0,0:0:0:0:
463,1,75678,2,0,P|490:41|486:89,1,99.0000030212403,10|0,0:1|0:0,0:0:0:0:
342,200,75978,6,0,P|382:173|430:177,1,99.0000030212403,10|0,0:0|0:0,0:0:0:0:
359,64,76278,1,8,0:1:0:0:
402,251,76428,1,2,0:0:0:0:
252,134,76578,1,10,0:1:0:0:
485,89,76728,1,2,0:0:0:0:
342,200,76878,1,10,0:3:0:0:
430,177,77028,1,2,0:0:0:0:
376,373,77178,6,0,P|325:321|254:331,1,148.50000453186,14|0,0:0|0:0,0:0:0:0:
206,209,77478,6,0,P|211:276|215:361,1,148.50000453186,14|0,0:0|0:0,0:0:0:0:
44,224,77778,6,0,P|94:172|165:182,1,148.50000453186,14|0,0:0|0:0,0:0:0:0:
214,60,78078,6,0,P|209:127|205:212,1,148.50000453186,14|0,0:0|0:0,0:0:0:0:
12,0,78378,6,0,P|19:99|25:225,1,198.000006042481,14|12,0:0|0:0,0:0:0:0:
214,357,78978,6,0,P|250:316|347:329,1,148.50000453186,10|0,0:1|0:0,0:0:0:0:
348,331,79278,1,8,0:1:0:0:
205,208,79428,1,2,0:0:0:0:
339,68,79578,6,0,P|329:123|324:169,1,99.0000030212403,14|0,0:0|0:0,0:0:0:0:
456,157,79878,2,0,P|466:212|471:258,1,99.0000030212403,10|0,0:1|0:0,0:0:0:0:
360,268,80178,2,0,P|350:323|345:369,1,99.0000030212403,2|8,0:0|0:0,0:0:0:0:
234,248,80478,1,8,0:1:0:0:
234,248,80628,1,0,0:0:0:0:
456,157,80778,6,0,P|450:107|441:59,1,99.0000030212403,10|0,0:0|0:0,0:0:0:0:
319,170,81078,2,0,P|324:120|333:72,1,99.0000030212403,10|0,0:1|0:0,0:0:0:0:
197,156,81378,2,0,P|191:106|182:58,1,99.0000030212403,2|8,0:0|0:0,0:0:0:0:
234,248,81678,1,8,0:1:0:0:
234,248,81828,1,0,0:0:0:0:
49,342,81978,5,10,0:0:0:0:
139,380,82128,2,0,P|187:370|236:365,1,99.0000030212403,2|8,0:0|0:1,0:0:0:0:
234,248,82428,2,0,P|283:253|331:262,1,99.0000030212403,2|0,0:0|0:0,0:0:0:0:
430,273,82728,1,10,0:0:0:0:
397,366,82878,2,0,P|445:356|494:351,1,99.0000030212403,10|0,0:1|0:0,0:0:0:0:
498,205,83178,5,8,0:0:0:0:
498,205,83328,1,8,0:0:0:0:
391,84,83478,2,0,P|381:132|376:181,1,99.0000030212403,10|0,0:1|0:0,0:0:0:0:
162,195,83778,2,0,P|171:243|176:292,1,99.0000030212403,2|8,0:0|0:0,0:0:0:0:
299,0,84078,2,0,P|280:102|270:205,1,198.000006042481,10|12,0:1|0:0,0:0:0:0:
179,91,84528,5,0,0:0:0:0:
71,75,84678,2,0,P|61:123|56:172,1,99.0000030212403,10|0,0:1|0:0,0:0:0:0:
162,195,84978,2,0,P|171:243|176:292,1,99.0000030212403,2|8,0:0|0:0,0:0:0:0:
270,195,85278,1,10,0:1:0:0:
352,365,85428,6,0,P|394:302|490:314,1,148.50000453186,2|0,0:0|0:0,0:0:0:0:
475,301,85728,1,2,0:0:0:0:
465,110,85878,2,0,P|455:158|450:207,1,99.0000030212403,10|0,0:1|0:0,0:0:0:0:
331,21,86178,2,0,P|345:93|353:167,1,148.50000453186,10|0,0:0|0:0,0:0:0:0:
350,182,86478,1,8,0:1:0:0:
238,76,86628,1,0,0:0:0:0:
204,270,86778,6,0,P|134:197|61:238,1,198.000006042481,14|12,0:1|0:0,0:0:0:0:
176,369,87228,2,0,P|250:353|324:343,1,148.50000453186,8|0,0:1|0:0,0:0:0:0:
336,344,87528,1,8,0:0:0:0:
461,157,87678,1,12,0:1:0:0:
456,356,87828,1,2,0:0:0:0:
308,221,87978,5,14,0:0:0:0:
495,260,88128,1,10,0:1:0:0:
361,113,88278,1,0,0:0:0:0:
361,113,88428,1,10,0:0:0:0:
327,346,88578,1,8,0:1:0:0:
327,346,88728,1,10,0:1:0:0:
194,173,88878,5,6,0:3:0:0:
