osu file format v14

[General]
AudioFilename: cola.mp3
AudioLeadIn: 0
PreviewTime: 35628
Countdown: 0
SampleSet: Soft
StackLeniency: 0.7
Mode: 0
LetterboxInBreaks: 0
WidescreenStoryboard: 1

[Editor]
Bookmarks: 748,5548,15148,24748,29548,34348,36748,46348,55948,58348,60598,70348,77548,79948,89548
DistanceSpacing: 1.2
BeatDivisor: 4
GridSize: 16
TimelineZoom: 2.2

[Metadata]
Title:Sangenshoku (TV Size)
TitleUnicode:三原色 (TV Size)
Artist:PELICAN FANCLUB
ArtistUnicode:PELICAN FANCLUB
Creator:hypercyte
Version:Insane
Source:Dr.STONE
Tags:ドクターストーン dr. stone pelicans hypercute logic agent anime japanese rock opening op 2 two dr doctor e=mc2
BeatmapID:2198418
BeatmapSetID:1047733

[Difficulty]
HPDrainRate:5.4
CircleSize:4
OverallDifficulty:7.4
ApproachRate:9
SliderMultiplier:1.54
SliderTickRate:1

[Events]
//Background and Video events
Video,183,"pelican fanclub.mp4"
0,0,"cola.jpg",0,0
//Break Periods
//Storyboard Layer 0 (Background)
//Storyboard Layer 1 (Fail)
//Storyboard Layer 2 (Pass)
//Storyboard Layer 3 (Foreground)
//Storyboard Layer 4 (Overlay)
//Storyboard Sound Samples

[TimingPoints]
378,300,4,2,4,44,1,0
378,-153.846153846154,4,2,4,44,0,0
4428,-285.714285714287,4,2,4,44,0,0
5103,-285.714285714287,4,2,4,5,0,0
5178,-100,4,2,4,55,0,0
14478,-133.333333333333,4,2,4,55,0,0
14778,-133.333333333333,4,2,4,40,0,0
24378,-166.666666666667,4,2,4,50,0,0
29178,-111.111111111111,4,2,4,60,0,0
29403,-111.111111111111,4,2,4,5,0,0
29478,-111.111111111111,4,2,4,60,0,0
32703,-111.111111111111,4,2,4,5,0,0
32778,-111.111111111111,4,2,4,60,0,0
33978,-200,4,2,4,45,0,0
35778,-100,4,2,4,60,0,0
36003,-100,4,2,4,5,0,0
36078,-250,4,2,4,60,0,0
36303,-250,4,2,4,60,0,0
36378,-100,4,2,4,80,0,1
41103,-100,4,2,4,5,0,1
41178,-100,4,2,4,80,0,1
50703,-100,4,2,4,5,0,1
50778,-100,4,2,4,80,0,1
55578,-153.846153846154,4,2,4,45,0,0
57528,-133.333333333333,4,2,4,45,0,0
57978,-133.333333333333,4,2,4,55,0,0
60228,-100,4,2,4,75,0,1
67803,-100,4,2,4,5,0,1
67878,-100,4,2,4,75,0,1
68403,-100,4,2,4,5,0,1
68478,-100,4,2,4,75,0,1
69978,-100,4,2,4,80,0,1
77178,-111.111111111111,4,2,4,70,0,0
77403,-111.111111111111,4,2,4,5,0,0
77478,-111.111111111111,4,2,4,70,0,0
78003,-111.111111111111,4,2,4,5,0,0
78078,-111.111111111111,4,2,4,70,0,0
78378,-133.333333333333,4,2,4,70,0,0
78603,-133.333333333333,4,2,4,5,0,0
78678,-117.647058823529,4,2,4,70,0,0
78978,-105.263157894737,4,2,4,70,0,0
79278,-95.2380952380952,4,2,4,70,0,0
79578,-125,4,2,4,65,0,0
86778,-100,4,2,4,75,0,0
88878,-200,4,2,4,75,0,0
89178,-200,4,2,4,44,0,0

[Colours]
Combo1 : 116,116,116
Combo2 : 243,214,1
Combo3 : 232,163,19
Combo4 : 174,174,174

[HitObjects]
133,225,378,37,8,0:0:0:0:
133,225,528,2,0,P|175:224|200:216,1,50.0499977088929,0|8,0:0|0:1,0:0:0:0:
267,255,828,2,0,P|300:216|361:203,1,100.099995417786,8|8,0:0|0:0,0:0:0:0:
419,246,1278,1,8,0:1:0:0:
498,115,1578,5,8,0:0:0:0:
498,115,1728,2,0,L|489:47,1,50.0499977088929,0|8,0:0|0:1,0:0:0:0:
394,111,2028,2,0,L|304:57,1,100.099995417786,8|8,0:0|0:0,0:0:0:0:
244,117,2478,1,8,0:1:0:0:
46,49,2778,37,8,0:0:0:0:
46,49,2928,2,0,P|45:85|32:109,1,50.0499977088929,0|8,0:0|0:1,0:0:0:0:
109,176,3228,2,0,P|64:180|36:235,1,100.099995417786,8|8,0:0|0:0,0:0:0:0:
84,292,3678,1,8,0:1:0:0:
205,325,3978,5,8,0:0:0:0:
205,325,4128,2,0,L|156:336,1,50.0499977088929,8|8,0:0|0:1,0:0:0:0:
248,227,4428,38,0,B|282:223|305:256|294:266|318:293|349:292,1,121.274996298981,8|0,0:0|0:0,0:0:0:0:
357,291,5178,22,0,P|383:254|375:215,1,77,12|0,0:0|0:0,0:0:0:0:
217,133,5478,2,0,B|169:141|169:141|110:173|110:173|63:174,1,154,10|0,0:1|0:0,0:0:0:0:
239,145,5928,1,10,0:2:0:0:
239,145,6078,2,0,L|326:131,1,77,10|0,0:1|0:0,0:0:0:0:
429,82,6378,6,0,L|399:170,1,77,8|0,0:0|0:0,0:0:0:0:
452,329,6678,2,0,L|334:209,1,154,10|8,0:1|0:0,0:0:0:0:
443,342,7128,1,10,0:0:0:0:
443,342,7278,2,0,L|339:341,1,77,10|0,0:1|0:0,0:0:0:0:
142,288,7578,38,0,P|177:321|177:355,1,77,8|0,0:0|0:0,0:0:0:0:
42,199,7878,2,0,P|51:149|141:101,1,154,10|0,0:1|0:0,0:0:0:0:
45,214,8328,1,10,0:0:0:0:
45,214,8478,2,0,P|86:185|127:188,1,77,10|2,0:1|0:0,0:0:0:0:
277,129,8778,6,0,B|314:146|314:146|380:136,1,77,8|8,0:0|0:0,0:0:0:0:
465,25,9078,2,0,B|433:28|427:63|427:63|462:154,1,154,10|0,0:1|0:0,0:0:0:0:
475,19,9528,1,10,0:0:0:0:
475,19,9678,1,10,0:1:0:0:
475,19,9978,38,0,B|432:8|432:8|384:22,1,77,12|0,0:0|0:0,0:0:0:0:
271,98,10278,2,0,P|302:135|232:216,1,154,10|0,0:1|0:0,0:0:0:0:
258,93,10728,1,10,0:0:0:0:
258,93,10878,2,0,P|225:118|179:118,1,77,10|0,0:1|0:0,0:0:0:0:
9,144,11178,6,0,P|59:164|70:198,1,77,8|8,0:0|0:0,0:0:0:0:
140,351,11478,2,0,L|163:189,1,154,10|8,0:1|0:0,0:0:0:0:
130,363,11928,1,10,0:0:0:0:
130,363,12078,2,0,L|111:272,1,77,10|0,0:1|0:0,0:0:0:0:
258,134,12378,38,0,L|246:228,1,77,8|0,0:0|0:0,0:0:0:0:
330,352,12678,2,0,P|370:302|465:346,1,154,10|0,0:1|0:0,0:0:0:0:
321,365,13128,1,10,0:0:0:0:
321,365,13278,2,0,P|313:301|337:274,1,77,10|2,0:1|0:0,0:0:0:0:
353,183,13578,6,0,L|365:105,2,77,8|8|8,0:0|0:0|0:1,0:0:0:0:
343,266,14028,1,8,0:1:0:0:
343,266,14103,1,8,0:1:0:0:
343,266,14178,2,0,L|324:177,1,77,8|8,0:1|0:1,0:0:0:0:
174,240,14478,2,0,P|155:210|126:197,1,57.7500022029878,8|0,0:2|0:0,0:0:0:0:
24,179,14778,6,0,L|139:162,1,115.500004405976,14|8,0:0|0:1,0:0:0:0:
208,96,15228,2,0,L|338:117,1,115.500004405976,10|0,0:0|0:0,0:0:0:0:
422,80,15678,1,8,0:1:0:0:
422,80,15828,6,0,P|429:130|415:154,1,57.7500022029878,2|0,0:0|0:0,0:0:0:0:
477,203,16128,2,0,P|446:243|419:250,1,57.7500022029878,2|8,0:0|0:1,0:0:0:0:
408,324,16428,2,0,P|358:331|334:317,1,57.7500022029878,2|0,0:0|0:0,0:0:0:0:
302,258,16728,1,10,0:0:0:0:
302,258,16878,1,8,0:1:0:0:
80,344,17178,38,0,L|64:265,2,57.7500022029878,10|0|8,0:0|0:0|0:1,0:0:0:0:
91,264,17628,2,0,L|101:139,1,115.500004405976,8|0,0:0|0:0,0:0:0:0:
110,50,18078,5,8,0:1:0:0:
110,50,18228,2,0,P|170:22|225:62,1,115.500004405976,2|2,0:0|0:0,0:0:0:0:
234,118,18678,1,10,0:1:0:0:
157,193,18828,2,0,P|143:224|135:258,1,57.7500022029878,2|0,0:0|0:0,0:0:0:0:
180,317,19128,1,10,0:0:0:0:
180,317,19278,1,8,0:1:0:0:
309,218,19578,38,0,P|393:219|426:248,1,115.500004405976,8|8,0:0|0:1,0:0:0:0:
512,184,20028,2,0,P|520:232|497:320,1,115.500004405976,8|0,0:0|0:0,0:0:0:0:
433,339,20478,5,8,0:1:0:0:
433,339,20628,2,0,L|300:322,1,115.500004405976,2|2,0:0|0:0,0:0:0:0:
245,266,21078,1,8,0:1:0:0:
245,266,21228,2,0,L|178:280,2,57.7500022029878,2|2|10,0:0|0:0|0:2,0:0:0:0:
325,243,21678,1,8,0:1:0:0:
99,157,21978,37,8,0:0:0:0:
99,157,22128,2,0,L|92:230,1,57.7500022029878,0|8,0:0|0:1,0:0:0:0:
168,106,22428,2,0,L|173:48,1,57.7500022029878,10|0,0:0|0:0,0:0:0:0:
88,160,22728,2,0,L|76:284,1,115.500004405976,2|0,0:0|0:0,0:0:0:0:
264,202,23178,21,10,0:1:0:0:
287,280,23328,2,0,L|305:355,1,57.7500022029878,10|0,0:0|0:0,0:0:0:0:
466,207,23628,5,10,0:1:0:0:
443,285,23778,2,0,L|425:360,1,57.7500022029878,10|0,0:0|0:0,0:0:0:0:
473,189,24078,2,0,L|454:106,1,57.7500022029878,10|8,0:0|0:0,0:0:0:0:
286,80,24378,6,0,P|337:93|354:142,1,92.3999971801759,14|8,0:0|0:0,0:0:0:0:
168,302,24978,1,10,0:1:0:0:
168,302,25128,2,0,L|182:202,1,92.3999971801759,8|8,0:0|0:0,0:0:0:0:
281,124,25578,5,10,0:1:0:0:
281,124,25653,1,8,0:1:0:0:
281,124,25728,1,8,0:1:0:0:
281,124,25803,1,8,0:1:0:0:
281,124,25878,2,0,L|272:187,1,46.1999985900879,8|8,0:1|0:0,0:0:0:0:
354,282,26178,1,10,0:1:0:0:
354,282,26328,2,0,L|368:186,1,92.3999971801759,8|8,0:0|0:0,0:0:0:0:
389,50,26778,38,0,L|450:26,1,46.1999985900879,10|0,0:1|0:0,0:0:0:0:
332,113,27078,2,0,L|289:129,1,46.1999985900879,10|0,0:0|0:0,0:0:0:0:
177,169,27378,1,8,0:1:0:0:
177,169,27528,2,0,L|187:124,1,46.1999985900879,8|2,0:0|0:0,0:0:0:0:
135,283,27828,5,8,0:1:0:0:
135,283,27903,1,8,0:1:0:0:
135,283,27978,2,0,L|148:347,2,46.1999985900879,10|4|4,0:1|0:3|0:3,0:0:0:0:
108,185,28428,1,4,0:3:0:0:
108,185,28578,1,8,0:1:0:0:
172,122,28728,1,12,0:0:0:0:
277,171,28878,2,0,L|335:169,1,46.1999985900879,2|8,0:0|0:0,0:0:0:0:
416,34,29178,6,0,P|438:109|467:123,1,103.949996827698,14|0,0:1|0:0,0:0:0:0:
474,128,29478,2,0,P|482:165|461:201,1,69.2999978851319,10|8,0:0|0:1,0:0:0:0:
335,288,29778,1,2,0:0:0:0:
253,248,29928,1,8,0:0:0:0:
172,288,30078,1,10,0:1:0:0:
98,254,30228,1,0,0:0:0:0:
7,340,30378,6,0,L|21:242,1,69.2999978851319,14|10,0:1|0:0,0:0:0:0:
91,150,30678,2,0,L|77:52,1,69.2999978851319,2|10,0:0|0:0,0:0:0:0:
283,187,30978,2,0,P|258:222|252:252,2,69.2999978851319,10|0|10,0:1|0:0|0:1,0:0:0:0:
396,183,31428,1,2,0:0:0:0:
227,80,31578,38,0,P|282:122|282:189,1,138.599995770264,14|10,0:1|0:0,0:0:0:0:
205,259,32028,2,0,L|126:248,1,69.2999978851319,8|0,0:1|0:0,0:0:0:0:
58,241,32328,1,8,0:0:0:0:
228,277,32478,2,0,L|349:261,1,103.949996827698,10|0,0:1|0:0,0:0:0:0:
355,260,32778,5,10,0:3:0:0:
439,281,32928,1,4,0:3:0:0:
504,188,33078,1,8,0:3:0:0:
420,167,33228,1,4,0:3:0:0:
240,261,33378,2,0,L|144:247,1,69.2999978851319,8|4,0:3|0:3,0:0:0:0:
84,163,33678,2,0,L|180:149,1,69.2999978851319,8|4,0:3|0:3,0:0:0:0:
213,97,33978,6,0,L|261:102,1,38.5,10|0,0:2|0:0,0:0:0:0:
314,54,34428,6,0,L|344:91,1,38.5,2|0,0:0|0:0,0:0:0:0:
422,97,34878,38,0,L|417:144,1,38.5,2|0,0:0|0:0,0:0:0:0:
408,215,35328,5,2,0:0:0:0:
408,215,35478,1,0,0:0:0:0:
212,96,35778,22,0,P|236:146|204:190,1,115.5,12|0,0:1|0:0,0:0:0:0:
187,193,36078,6,0,L|132:192,1,46.2,8|0,0:3|0:0,0:0:0:0:
53,207,36378,22,0,B|108:188|109:148|90:138|104:102|138:89,1,154,14|8,0:0|0:1,0:0:0:0:
214,111,36828,1,0,0:0:0:0:
90,35,36978,2,0,P|105:73|142:90,1,77,8|8,0:0|0:0,0:0:0:0:
239,24,37278,2,0,P|222:61|236:99,1,77,10|0,0:1|0:0,0:0:0:0:
445,192,37578,6,0,B|390:173|389:133|408:123|394:87|360:74,1,154,10|8,0:0|0:1,0:0:0:0:
248,214,38028,1,2,0:0:0:0:
182,140,38178,2,0,L|270:128,1,77,10|10,0:0|0:0,0:0:0:0:
376,216,38478,1,10,0:1:0:0:
376,216,38628,1,2,0:0:0:0:
190,346,38778,38,0,B|226:324|233:278|213:277|210:236|246:213,1,154,8|8,0:0|0:1,0:0:0:0:
376,216,39228,1,0,0:0:0:0:
217,144,39378,2,0,P|238:187|274:199,1,77,8|8,0:0|0:0,0:0:0:0:
364,125,39678,2,0,P|348:170|365:204,1,77,8|0,0:1|0:0,0:0:0:0:
197,122,39978,6,0,B|158:133|158:133|121:199|121:199|85:210,1,154,8|8,0:0|0:1,0:0:0:0:
3,234,40428,1,0,0:0:0:0:
146,286,40578,2,0,P|145:340|129:366,1,77,8|8,0:0|0:0,0:0:0:0:
9,203,40878,2,0,L|124:175,1,115.5,10|0,0:1|0:0,0:0:0:0:
141,183,41178,38,0,B|182:162|187:118|169:114|174:74|207:54,1,154,14|8,0:0|0:1,0:0:0:0:
305,64,41628,1,0,0:0:0:0:
267,195,41778,2,0,P|305:170|352:173,1,77,8|8,0:0|0:0,0:0:0:0:
198,269,42078,2,0,P|241:278|273:313,1,77,10|0,0:1|0:0,0:0:0:0:
394,381,42378,6,0,B|426:373|437:331|437:331|434:306|434:306|449:269|484:263,1,154,10|8,0:0|0:1,0:0:0:0:
491,258,42978,2,0,P|497:209|468:184,1,77,10|8,0:0|0:0,0:0:0:0:
398,181,43278,1,10,0:1:0:0:
264,277,43428,1,2,0:0:0:0:
221,200,43578,38,0,B|258:185|258:185|299:196,1,77,10|0,0:0|0:0,0:0:0:0:
398,181,43878,2,0,L|380:267,1,77,8|0,0:1|0:0,0:0:0:0:
138,294,44178,2,0,L|60:283,1,77,8|8,0:0|0:0,0:0:0:0:
21,176,44478,2,0,P|10:218|-23:242,1,77,8|0,0:1|0:0,0:0:0:0:
69,58,44778,6,0,B|116:68|116:68|155:123|155:123|200:126,1,154,8|8,0:0|0:1,0:0:0:0:
269,77,45228,1,0,0:0:0:0:
354,97,45378,2,0,P|370:127|366:173,1,77,8|8,0:1|0:1,0:0:0:0:
253,279,45678,1,8,0:1:0:0:
180,236,45828,37,8,0:1:0:0:
180,236,45903,1,8,0:1:0:0:
180,236,45978,2,0,B|129:234|113:198|122:177|112:144|76:138,1,154,14|8,0:2|0:1,0:0:0:0:
18,199,46428,1,0,0:0:0:0:
35,66,46578,2,0,P|49:101|84:117,1,77,8|8,0:0|0:0,0:0:0:0:
209,64,46878,2,0,P|194:98|207:133,1,77,10|0,0:1|0:0,0:0:0:0:
358,280,47178,6,0,B|361:240|395:221|413:229|450:208|447:160,1,154,10|8,0:0|0:1,0:0:0:0:
388,95,47628,1,2,0:0:0:0:
265,163,47778,1,10,0:0:0:0:
172,115,47928,1,10,0:0:0:0:
59,213,48078,2,0,L|150:198,1,77,10|0,0:1|0:0,0:0:0:0:
359,220,48378,38,0,P|393:271|339:362,2,154,8|8|8,0:0|0:1|0:0,0:0:0:0:
270,246,49128,1,8,0:0:0:0:
376,183,49278,2,0,P|326:146|320:114,1,77,8|0,0:1|0:0,0:0:0:0:
255,15,49578,6,0,L|240:112,1,77,8|0,0:0|0:0,0:0:0:0:
134,186,49878,2,0,L|122:109,1,77,8|0,0:1|0:0,0:0:0:0:
150,272,50178,1,8,0:0:0:0:
150,272,50328,1,8,0:0:0:0:
253,187,50478,2,0,P|311:203|321:266,1,115.5,10|0,0:1|0:0,0:0:0:0:
317,267,50778,38,0,B|298:222|298:222|320:159|320:159|306:112,1,154,12|8,0:0|0:1,0:0:0:0:
273,30,51228,1,0,0:0:0:0:
428,160,51378,2,0,L|445:73,1,77,10|8,0:0|0:0,0:0:0:0:
464,4,51678,1,10,0:1:0:0:
412,186,51828,6,0,L|436:282,1,77,2|8,0:0|0:0,0:0:0:0:
328,116,52128,2,0,L|277:200,1,77,2|8,0:0|0:1,0:0:0:0:
325,17,52428,2,0,L|229:40,1,77,2|8,0:0|0:0,0:0:0:0:
148,65,52728,1,8,0:0:0:0:
197,149,52878,1,10,0:1:0:0:
142,51,53028,1,2,0:0:0:0:
82,244,53178,38,0,B|126:243|147:206|132:191|152:152|189:146,1,154,12|10,0:1|0:0,0:0:0:0:
43,140,53628,2,0,B|74:170|115:159|115:137|157:124|187:146,1,154,10|10,0:1|0:0,0:0:0:0:
350,86,54078,2,0,P|325:124|325:162,1,77,0|2,0:0|0:0,0:0:0:0:
435,289,54378,5,10,0:0:0:0:
473,198,54528,2,0,L|388:215,1,77,2|0,0:0|0:0,0:0:0:0:
282,320,54828,2,0,L|120:307,1,154,10|2,0:0|0:0,0:0:0:0:
31,233,55278,2,0,L|118:214,1,77,10|0,0:1|0:0,0:0:0:0:
185,200,55578,6,0,P|200:169|197:144,1,50.0499977088929,0|0,0:0|0:0,0:0:0:0:
218,130,55878,2,0,P|206:97|186:81,1,50.0499977088929,0|0,0:0|0:0,0:0:0:0:
198,55,56178,2,0,P|167:39|141:42,1,50.0499977088929,0|0,0:0|0:0,0:0:0:0:
334,100,56478,6,0,L|397:84,1,50.0499977088929,2|0,0:0|0:0,0:0:0:0:
463,177,56778,2,0,L|400:161,1,50.0499977088929,2|0,0:0|0:0,0:0:0:0:
341,261,57078,2,0,L|404:245,2,50.0499977088929,2|0|2,0:0|0:0|0:0,0:0:0:0:
137,305,57528,5,8,0:0:0:0:
137,216,57678,2,0,P|154:258|152:287,1,57.7500022029878,8|8,0:1|0:0,0:0:0:0:
39,143,57978,6,0,L|121:122,2,57.7500022029878,8|8|8,0:1|0:0|0:0,0:0:0:0:
151,56,58428,1,8,0:1:0:0:
151,56,58578,2,0,L|223:99,1,57.7500022029878,8|8,0:1|0:0,0:0:0:0:
369,41,58878,2,0,L|390:122,1,57.7500022029878,12|0,0:1|0:0,0:0:0:0:
423,223,59178,5,8,0:1:0:0:
423,223,59328,5,8,0:1:0:0:
423,223,59478,37,8,0:1:0:0:
423,223,59628,5,8,0:1:0:0:
423,223,59778,37,8,0:1:0:0:
423,223,59928,5,8,0:1:0:0:
423,223,60228,6,0,B|368:223|356:182|371:164|344:125|305:124,1,154,14|8,0:0|0:0,0:0:0:0:
173,249,60678,2,0,P|224:220|266:223,1,77,10|0,0:1|0:0,0:0:0:0:
286,342,60978,2,0,P|301:285|333:257,1,77,10|8,0:0|0:0,0:0:0:0:
409,260,61278,1,8,0:1:0:0:
314,87,61428,6,0,L|301:176,1,77,2|8,0:0|0:0,0:0:0:0:
383,246,61728,2,0,L|394:169,1,77,10|8,0:0|0:1,0:0:0:0:
297,79,62028,2,0,L|284:168,1,77,2|8,0:0|0:0,0:0:0:0:
220,312,62328,1,8,0:0:0:0:
165,240,62478,1,8,0:1:0:0:
2,303,62628,38,0,B|44:286|50:247|31:232|50:192|87:183,1,154,14|8,0:0|0:0,0:0:0:0:
107,41,63078,2,0,P|133:77|170:87,1,77,8|0,0:1|0:0,0:0:0:0:
258,180,63378,2,0,P|342:144|411:126,1,154,10|8,0:0|0:1,0:0:0:0:
438,277,63828,6,0,P|405:244|368:237,1,77,2|8,0:0|0:0,0:0:0:0:
327,313,64128,2,0,P|280:313|249:334,1,77,2|8,0:0|0:1,0:0:0:0:
158,268,64428,2,0,P|108:252|84:156,1,154,2|8,0:0|0:0,0:0:0:0:
164,282,64878,2,0,P|156:333|127:354,1,77,8|0,0:1|0:0,0:0:0:0:
239,104,65178,38,0,L|314:142,1,77,14|0,0:0|0:0,0:0:0:0:
449,135,65478,2,0,L|378:180,1,77,10|0,0:1|0:0,0:0:0:0:
319,309,65778,2,0,L|314:225,1,77,10|8,0:0|0:0,0:0:0:0:
370,79,66078,1,8,0:1:0:0:
210,188,66228,1,0,0:0:0:0:
165,112,66378,6,0,P|214:98|250:110,1,77,10|0,0:0|0:0,0:0:0:0:
168,264,66678,2,0,P|131:228|123:191,1,77,10|0,0:1|0:0,0:0:0:0:
299,186,66978,2,0,P|286:235|258:260,1,77,10|8,0:0|0:0,0:0:0:0:
127,185,67278,1,10,0:1:0:0:
40,233,67428,1,0,0:0:0:0:
28,56,67578,38,0,L|148:71,1,115.5,10|0,0:0|0:0,0:0:0:0:
159,81,67878,2,0,L|251:63,1,77,8|0,0:1|0:0,0:0:0:0:
404,102,68178,2,0,P|432:146|380:202,1,115.5,10|0,0:0|0:0,0:0:0:0:
387,197,68478,2,0,P|373:241|388:273,1,77,8|0,0:1|0:0,0:0:0:0:
281,364,68778,6,0,P|223:324|118:331,1,154,10|8,0:0|0:1,0:0:0:0:
57,363,69228,1,10,0:0:0:0:
172,284,69378,2,0,P|138:260|125:218,1,77,10|8,0:0|0:0,0:0:0:0:
40,193,69678,2,0,P|32:151|53:113,1,77,10|0,0:1|0:0,0:0:0:0:
261,147,69978,38,0,B|300:146|322:97|303:85|318:45|356:37,1,154,12|8,0:2|0:1,0:0:0:0:
437,76,70428,1,0,0:0:0:0:
387,189,70578,2,0,L|469:173,1,77,10|8,0:0|0:0,0:0:0:0:
310,251,70878,2,0,L|373:294,1,77,10|0,0:1|0:0,0:0:0:0:
132,324,71178,6,0,B|171:300|171:300|181:229|181:229|216:209,1,154,10|8,0:0|0:1,0:0:0:0:
75,113,71628,2,0,P|110:152|135:159,1,77,2|10,0:0|0:0,0:0:0:0:
279,93,71928,1,10,0:0:0:0:
348,157,72078,1,10,0:1:0:0:
427,118,72228,1,2,0:0:0:0:
319,173,72378,38,0,L|180:240,2,154,8|8|8,0:0|0:1|0:0,0:0:0:0:
175,264,73128,1,8,0:0:0:0:
86,224,73278,2,0,P|77:180|90:148,1,77,8|0,0:1|0:0,0:0:0:0:
331,247,73578,6,0,B|361:230|368:195|368:195|362:162|362:162|369:133|397:116,1,154,8|8,0:0|0:1,0:0:0:0:
482,137,74028,1,0,0:0:0:0:
382,21,74178,2,0,P|377:77|354:103,1,77,8|8,0:0|0:0,0:0:0:0:
149,115,74478,2,0,L|224:133,1,77,10|0,0:1|0:0,0:0:0:0:
330,312,74778,38,0,B|363:269|363:269|368:208|368:208|392:176,1,154,12|8,0:0|0:1,0:0:0:0:
474,167,75228,1,0,0:0:0:0:
512,251,75378,1,8,0:0:0:0:
512,251,75528,1,8,0:0:0:0:
321,300,75678,2,0,P|284:325|269:372,1,77,10|0,0:1|0:0,0:0:0:0:
205,242,75978,6,0,B|166:234|144:206|156:173|137:144|96:135,1,154,10|8,0:0|0:1,0:0:0:0:
30,188,76428,1,2,0:0:0:0:
120,15,76578,2,0,B|154:33|154:33|191:26,1,77,10|2,0:1|0:0,0:0:0:0:
363,64,76878,2,0,B|329:82|329:82|291:75,1,77,10|2,0:3|0:0,0:0:0:0:
325,224,77178,38,0,P|361:176|413:185,1,103.949996827698,14|0,0:0|0:0,0:0:0:0:
314,245,77478,2,0,L|223:234,1,69.2999978851319,14|0,0:0|0:0,0:0:0:0:
140,170,77778,6,0,P|85:169|74:217,1,103.949996827698,14|0,0:0|0:0,0:0:0:0:
168,173,78078,2,0,P|189:134|183:102,1,69.2999978851319,14|0,0:0|0:0,0:0:0:0:
383,118,78378,38,0,L|462:68,1,86.6250033044816,14|0,0:0|0:0,0:0:0:0:
355,116,78678,2,0,L|280:95,1,65.4500012483597,12|0,0:0|0:0,0:0:0:0:
186,62,78978,5,10,0:1:0:0:
186,62,79128,1,0,0:0:0:0:
130,230,79278,2,0,P|205:205|247:249,1,121.274996298981,8|0,0:1|0:0,0:0:0:0:
243,242,79578,6,0,P|290:259|359:208,2,123.2,14|10|2,0:0|0:1|0:0,0:0:0:0:
246,148,80328,1,8,0:0:0:0:
246,148,80478,2,0,P|254:110|244:84,1,61.6,8|0,0:1|0:0,0:0:0:0:
121,37,80778,6,0,B|76:50|76:50|49:88|49:88|10:99,2,123.2,10|10|2,0:0|0:1|0:0,0:0:0:0:
206,49,81528,1,8,0:0:0:0:
206,49,81678,2,0,L|271:60,1,61.6,8|0,0:1|0:0,0:0:0:0:
445,119,81978,37,10,0:0:0:0:
425,43,82128,2,0,P|383:39|355:64,1,61.6,2|8,0:0|0:1,0:0:0:0:
286,150,82428,2,0,P|317:211|283:273,1,123.2,2|10,0:0|0:0,0:0:0:0:
213,321,82878,2,0,P|157:284|137:286,1,61.6,10|0,0:1|0:0,0:0:0:0:
70,312,83178,5,8,0:0:0:0:
70,312,83328,1,8,0:0:0:0:
177,162,83478,2,0,L|165:287,2,123.2,10|2|10,0:1|0:0|0:1,0:0:0:0:
172,132,84378,38,0,B|225:123|225:123|255:103|255:103|305:101,1,123.2,12|10,0:0|0:1,0:0:0:0:
357,159,84828,1,0,0:0:0:0:
467,73,84978,2,0,P|443:116|441:153,1,61.6,2|8,0:0|0:0,0:0:0:0:
288,259,85278,2,0,L|359:241,1,61.6,10|0,0:1|0:0,0:0:0:0:
435,217,85578,5,8,0:0:0:0:
435,217,85728,1,0,0:0:0:0:
270,272,85878,2,0,L|180:262,1,61.6,10|0,0:1|0:0,0:0:0:0:
65,194,86178,2,0,L|86:273,1,61.6,10|8,0:0|0:0,0:0:0:0:
115,343,86478,1,8,0:1:0:0:
333,75,86778,6,0,L|318:157,1,77,14|0,0:1|0:0,0:0:0:0:
156,83,87078,1,12,0:0:0:0:
173,166,87228,2,0,L|186:241,1,77,8|0,0:1|0:0,0:0:0:0:
362,330,87528,1,8,0:0:0:0:
429,279,87678,1,12,0:1:0:0:
350,245,87828,1,2,0:0:0:0:
247,348,87978,5,14,0:0:0:0:
173,307,88128,2,0,P|155:267|168:227,1,77,10|0,0:1|0:0,0:0:0:0:
270,126,88428,1,10,0:0:0:0:
270,126,88578,2,0,L|355:113,1,77,8|10,0:1|0:1,0:0:0:0:
406,57,88878,22,0,P|385:27|345:39,1,77,6|0,0:3|0:0,0:0:0:0:
