osu file format v14

[General]
AudioFilename: cola.mp3
AudioLeadIn: 0
PreviewTime: 35628
Countdown: 0
SampleSet: Soft
StackLeniency: 0.7
Mode: 0
LetterboxInBreaks: 0
WidescreenStoryboard: 1

[Editor]
Bookmarks: 748,5548,15148,24748,29548,34348,36748,46348,55948,58348,60598,70348,77548,79948,89548
DistanceSpacing: 1.5
BeatDivisor: 4
GridSize: 16
TimelineZoom: 2.2

[Metadata]
Title:Sangenshoku (TV Size)
TitleUnicode:三原色 (TV Size)
Artist:PELICAN FANCLUB
ArtistUnicode:PELICAN FANCLUB
Creator:hypercyte
Version:Hard
Source:Dr.STONE
Tags:ドクターストーン dr. stone pelicans hypercute logic agent anime japanese rock opening op 2 two dr doctor e=mc2
BeatmapID:2206568
BeatmapSetID:1047733

[Difficulty]
HPDrainRate:4.4
CircleSize:3.8
OverallDifficulty:6.4
ApproachRate:7.8
SliderMultiplier:1.44
SliderTickRate:1

[Events]
//Background and Video events
Video,183,"pelican fanclub.mp4"
0,0,"cola.jpg",0,0
//Break Periods
//Storyboard Layer 0 (Background)
//Storyboard Layer 1 (Fail)
//Storyboard Layer 2 (Pass)
//Storyboard Layer 3 (Foreground)
//Storyboard Layer 4 (Overlay)
//Storyboard Sound Samples

[TimingPoints]
378,300,4,2,4,44,1,0
378,-119.047619047619,4,2,4,44,0,0
4428,-156.25,4,2,4,44,0,0
5103,-106.382978723404,4,2,4,5,0,0
5178,-106.382978723404,4,2,4,55,0,0
14478,-106.382978723404,4,2,4,55,0,0
14778,-119.047619047619,4,2,4,40,0,0
23178,-106.382978723404,4,2,4,40,0,0
24378,-119.047619047619,4,2,4,50,0,0
29178,-106.382978723404,4,2,4,60,0,0
29403,-106.382978723404,4,2,4,5,0,0
29478,-106.382978723404,4,2,4,60,0,0
32703,-106.382978723404,4,2,4,5,0,0
32778,-106.382978723404,4,2,4,60,0,0
33978,-156.25,4,2,4,45,0,0
35778,-106.382978723404,4,2,4,60,0,0
36003,-106.382978723404,4,2,4,5,0,0
36078,-119.047619047619,4,2,4,60,0,0
36303,-106.382978723404,4,2,4,60,0,0
36378,-96.153846153846,4,2,4,80,0,1
41178,-96.153846153846,4,2,4,80,0,1
50703,-106.382978723404,4,2,4,5,0,1
50778,-106.382978723404,4,2,4,80,0,1
55578,-156.25,4,2,4,45,0,0
57528,-106.382978723404,4,2,4,45,0,0
57978,-106.382978723404,4,2,4,55,0,0
60228,-96.153846153846,4,2,4,75,0,1
67803,-96.153846153846,4,2,4,5,0,1
67878,-96.153846153846,4,2,4,75,0,1
68403,-96.153846153846,4,2,4,5,0,1
68478,-96.153846153846,4,2,4,75,0,1
69978,-96.153846153846,4,2,4,80,0,1
77178,-106.382978723404,4,2,4,70,0,0
77403,-106.382978723404,4,2,4,5,0,0
77478,-106.382978723404,4,2,4,70,0,0
78003,-106.382978723404,4,2,4,5,0,0
78078,-106.382978723404,4,2,4,70,0,0
78378,-106.382978723404,4,2,4,70,0,0
78603,-106.382978723404,4,2,4,5,0,0
78678,-106.382978723404,4,2,4,70,0,0
78978,-106.382978723404,4,2,4,70,0,0
79278,-106.382978723404,4,2,4,70,0,0
79578,-119.047619047619,4,2,4,65,0,0
86778,-106.382978723404,4,2,4,75,0,0
88878,-135.135135135135,4,2,4,75,0,0
89178,-106.382978723404,4,2,4,44,0,0

[Colours]
Combo1 : 116,116,116
Combo2 : 243,214,1
Combo3 : 232,163,19
Combo4 : 174,174,174

[HitObjects]
312,150,378,38,0,L|385:143,2,60.4799981542969,8|0|8,0:0|0:0|0:1,0:0:0:0:
234,184,828,2,0,L|102:170,1,120.959996308594,8|8,0:0|0:0,0:0:0:0:
29,160,1278,1,8,0:1:0:0:
117,304,1578,6,0,P|108:344|90:367,2,60.4799981542969,8|0|8,0:0|0:0|0:1,0:0:0:0:
187,256,2028,2,0,P|198:204|260:172,1,120.959996308594,8|8,0:0|0:0,0:0:0:0:
332,204,2478,1,8,0:1:0:0:
418,58,2778,38,0,B|449:68|449:68|485:65,2,60.4799981542969,8|0|8,0:0|0:0|0:1,0:0:0:0:
342,20,3228,2,0,B|280:9|280:9|221:36,1,120.959996308594,8|8,0:0|0:0,0:0:0:0:
154,76,3678,1,8,0:1:0:0:
98,235,3978,6,0,L|107:311,1,60.4799981542969,8|8,0:0|0:0,0:0:0:0:
174,344,4278,1,8,0:1:0:0:
247,295,4428,2,0,B|301:282|310:231|282:217|297:162|346:151,1,184.32,8|0,0:0|0:0,0:0:0:0:
391,56,5178,6,0,B|421:72|421:72|483:70,1,67.6799989672852,12|0,0:0|0:0,0:0:0:0:
291,16,5478,2,0,P|241:5|202:85,1,135.35999793457,10|0,0:1|0:0,0:0:0:0:
233,155,5928,1,10,0:2:0:0:
154,208,6078,2,0,L|248:184,1,67.6799989672852,10|0,0:1|0:0,0:0:0:0:
334,239,6378,6,0,P|347:198|367:182,1,67.6799989672852,8|0,0:0|0:0,0:0:0:0:
390,313,6678,2,0,P|381:355|289:356,1,135.35999793457,10|8,0:1|0:0,0:0:0:0:
225,308,7128,1,10,0:0:0:0:
225,308,7278,2,0,P|160:304|136:316,1,67.6799989672852,10|0,0:1|0:0,0:0:0:0:
84,363,7578,37,8,0:0:0:0:
84,363,7878,2,0,L|71:209,1,135.35999793457,10|0,0:1|0:0,0:0:0:0:
132,154,8328,1,10,0:0:0:0:
132,153,8478,2,0,L|139:68,1,67.6799989672852,10|2,0:1|0:0,0:0:0:0:
52,44,8778,6,0,L|117:-11,1,67.6799989672852,8|8,0:0|0:0,0:0:0:0:
215,27,9078,2,0,L|373:40,1,135.35999793457,10|0,0:1|0:0,0:0:0:0:
458,38,9528,1,10,0:0:0:0:
458,38,9678,1,10,0:1:0:0:
505,218,9978,38,0,B|475:203|475:203|426:213,1,67.6799989672852,12|0,0:0|0:0,0:0:0:0:
353,171,10278,2,0,P|321:228|252:229,1,135.35999793457,10|0,0:1|0:0,0:0:0:0:
188,166,10728,1,10,0:0:0:0:
104,211,10878,2,0,L|187:200,1,67.6799989672852,10|0,0:1|0:0,0:0:0:0:
15,174,11178,6,0,P|2:136|17:90,1,67.6799989672852,8|8,0:0|0:0,0:0:0:0:
69,30,11478,2,0,B|112:39|112:39|146:78|146:78|199:85,1,135.35999793457,10|8,0:1|0:0,0:0:0:0:
282,52,11928,1,10,0:0:0:0:
282,52,12078,2,0,P|293:95|284:122,1,67.6799989672852,10|0,0:1|0:0,0:0:0:0:
221,195,12378,37,8,0:0:0:0:
221,195,12678,2,0,P|253:250|338:242,1,135.35999793457,10|0,0:1|0:0,0:0:0:0:
387,178,13128,1,10,0:0:0:0:
387,178,13278,2,0,L|379:109,1,67.6799989672852,10|2,0:1|0:0,0:0:0:0:
345,22,13578,6,0,P|405:20|422:28,2,67.6799989672852,8|8|8,0:0|0:0|0:1,0:0:0:0:
265,82,14028,1,8,0:1:0:0:
265,82,14103,1,8,0:1:0:0:
265,82,14178,2,0,L|182:69,1,67.6799989672852,8|8,0:1|0:1,0:0:0:0:
99,54,14478,1,8,0:2:0:0:
99,54,14778,6,0,P|63:86|77:164,1,120.959996308594,14|8,0:0|0:1,0:0:0:0:
148,207,15228,2,0,L|283:186,1,120.959996308594,10|0,0:0|0:0,0:0:0:0:
356,226,15678,1,8,0:1:0:0:
356,226,15828,2,0,P|375:274|370:302,1,60.4799981542969,2|0,0:0|0:0,0:0:0:0:
280,308,16128,2,0,P|259:355|236:371,1,60.4799981542969,2|8,0:0|0:1,0:0:0:0:
168,313,16428,2,0,P|111:337|67:298,1,120.959996308594,2|10,0:0|0:0,0:0:0:0:
87,208,16878,1,8,0:1:0:0:
87,208,17178,6,0,P|89:145|42:110,1,120.959996308594,10|8,0:0|0:1,0:0:0:0:
127,65,17628,2,0,L|267:41,1,120.959996308594,8|0,0:0|0:0,0:0:0:0:
340,69,18078,1,8,0:1:0:0:
340,69,18228,2,0,P|367:113|344:189,1,120.959996308594,2|2,0:0|0:0,0:0:0:0:
264,215,18678,1,10,0:1:0:0:
264,215,18828,2,0,P|251:257|255:282,1,60.4799981542969,2|0,0:0|0:0,0:0:0:0:
324,337,19128,2,0,L|387:327,1,60.4799981542969,10|8,0:0|0:1,0:0:0:0:
195,374,19578,38,0,B|141:365|141:365|122:339|122:339|70:329,1,120.959996308594,8|8,0:0|0:1,0:0:0:0:
0,290,20028,2,0,P|-7:240|38:181,1,120.959996308594,8|0,0:0|0:0,0:0:0:0:
127,169,20478,1,8,0:1:0:0:
127,169,20628,2,0,L|256:185,1,120.959996308594,2|2,0:0|0:0,0:0:0:0:
343,193,21078,1,8,0:1:0:0:
343,193,21228,2,0,P|352:156|341:130,2,60.4799981542969,2|2|10,0:0|0:0|0:2,0:0:0:0:
287,272,21678,1,8,0:1:0:0:
415,362,21978,5,8,0:0:0:0:
415,362,22128,2,0,L|496:346,1,60.4799981542969,0|8,0:0|0:1,0:0:0:0:
494,253,22428,2,0,P|486:211|454:182,1,60.4799981542969,10|0,0:0|0:0,0:0:0:0:
487,101,22728,2,0,L|350:124,1,120.959996308594,2|0,0:0|0:0,0:0:0:0:
293,183,23178,5,10,0:1:0:0:
207,143,23328,2,0,L|278:151,1,67.6799989672852,10|0,0:0|0:0,0:0:0:0:
370,236,23628,5,10,0:1:0:0:
455,194,23778,2,0,L|384:200,1,67.6799989672852,10|0,0:0|0:0,0:0:0:0:
284,272,24078,2,0,L|212:259,1,67.6799989672852,10|8,0:0|0:0,0:0:0:0:
119,206,24378,6,0,P|60:231|58:304,1,120.959996308594,14|8,0:0|0:0,0:0:0:0:
216,359,24978,1,10,0:1:0:0:
219,364,25128,2,0,L|358:344,1,120.959996308594,8|8,0:0|0:0,0:0:0:0:
416,288,25578,6,0,L|469:294,4,30.2399990771485,10|8|8|8|8,0:1|0:1|0:1|0:1|0:1,0:0:0:0:
346,220,26028,1,8,0:0:0:0:
346,220,26178,2,0,P|336:177|401:110,1,120.959996308594,10|0,0:1|0:0,0:0:0:0:
222,136,26778,38,0,L|83:120,1,120.959996308594,10|10,0:1|0:0,0:0:0:0:
8,148,27228,1,0,0:0:0:0:
8,148,27378,2,0,P|-19:204|10:264,1,120.959996308594,10|2,0:1|0:0,0:0:0:0:
92,288,27828,5,8,0:1:0:0:
92,288,27903,1,8,0:1:0:0:
92,288,27978,2,0,L|159:270,1,60.4799981542969,10|4,0:1|0:3,0:0:0:0:
292,365,28428,1,4,0:3:0:0:
292,365,28578,2,0,L|363:371,2,60.4799981542969,8|12|2,0:1|0:0|0:0,0:0:0:0:
381,214,29178,6,0,P|365:173|381:127,1,67.6799989672852,14|0,0:1|0:0,0:0:0:0:
435,83,29478,2,0,L|506:95,1,67.6799989672852,10|8,0:0|0:1,0:0:0:0:
374,20,29778,1,2,0:0:0:0:
374,20,29928,1,8,0:0:0:0:
290,65,30078,2,0,P|254:61|221:39,1,67.6799989672852,10|0,0:1|0:0,0:0:0:0:
136,17,30378,6,0,L|63:33,1,67.6799989672852,14|10,0:1|0:0,0:0:0:0:
9,104,30678,2,0,P|5:142|26:186,2,67.6799989672852,2|10|10,0:0|0:0|0:1,0:0:0:0:
100,130,31128,2,0,L|176:137,1,67.6799989672852,0|10,0:0|0:1,0:0:0:0:
156,318,31578,38,0,B|91:290|91:290|19:314,1,135.35999793457,14|10,0:1|0:0,0:0:0:0:
5,218,32028,2,0,P|16:135|40:78,1,135.35999793457,8|8,0:1|0:0,0:0:0:0:
128,71,32478,2,0,P|174:53|213:46,1,67.6799989672852,10|0,0:1|0:0,0:0:0:0:
273,98,32778,5,10,0:3:0:0:
273,98,32928,1,4,0:3:0:0:
362,66,33078,2,0,L|374:0,1,67.6799989672852,8|4,0:3|0:3,0:0:0:0:
446,125,33378,38,0,L|432:201,1,67.6799989672852,8|4,0:3|0:3,0:0:0:0:
365,256,33678,2,0,L|379:332,1,67.6799989672852,8|4,0:3|0:3,0:0:0:0:
283,343,33978,22,0,L|225:327,1,46.08,10|0,0:2|0:0,0:0:0:0:
122,300,34428,6,0,L|92:247,1,46.08,2|0,0:0|0:0,0:0:0:0:
18,171,34878,38,0,L|33:113,1,46.08,2|0,0:0|0:0,0:0:0:0:
62,13,35328,5,2,0:0:0:0:
62,13,35478,1,0,0:0:0:0:
125,141,35778,22,0,P|183:150|229:112,1,101.519998450928,12|0,0:1|0:0,0:0:0:0:
237,88,36078,22,0,P|273:81|306:89,1,60.4799981542969,8|0,0:3|0:0,0:0:0:0:
357,184,36378,6,0,B|397:182|421:146|405:125|424:94|467:89,1,149.759999085937,14|8,0:0|0:1,0:0:0:0:
507,184,36828,1,0,0:0:0:0:
507,184,36978,2,0,P|513:226|500:263,1,74.8799995429687,8|8,0:0|0:0,0:0:0:0:
422,322,37278,1,10,0:1:0:0:
241,215,37578,6,0,B|201:213|177:177|193:156|174:125|131:120,1,149.759999085937,10|8,0:0|0:1,0:0:0:0:
42,169,38028,1,2,0:0:0:0:
42,169,38178,2,0,P|26:209|32:245,2,74.8799995429687,10|10|10,0:0|0:0|0:1,0:0:0:0:
126,105,38628,1,2,0:0:0:0:
211,170,38778,38,0,P|262:139|283:53,1,149.759999085937,8|8,0:0|0:1,0:0:0:0:
186,13,39228,1,0,0:0:0:0:
186,13,39378,2,0,P|178:63|193:92,1,74.8799995429687,8|8,0:0|0:0,0:0:0:0:
277,136,39678,1,8,0:1:0:0:
189,326,39978,6,0,B|149:324|125:288|141:267|122:236|79:231,1,149.759999085937,8|8,0:0|0:1,0:0:0:0:
0,167,40428,1,0,0:0:0:0:
0,167,40578,2,0,P|40:149|60:110,1,74.8799995429687,8|8,0:0|0:0,0:0:0:0:
60,18,40878,1,10,0:1:0:0:
262,73,41178,38,0,B|308:61|308:61|345:21|345:21|404:5,1,149.759999085937,14|8,0:0|0:1,0:0:0:0:
479,66,41628,1,0,0:0:0:0:
479,66,41778,2,0,P|483:110|463:145,1,74.8799995429687,8|8,0:0|0:0,0:0:0:0:
508,227,42078,2,0,P|479:260|447:273,1,74.8799995429687,10|0,0:1|0:0,0:0:0:0:
330,274,42378,6,0,B|282:247|282:247|256:206|256:206|212:180,1,149.759999085937,10|8,0:0|0:1,0:0:0:0:
25,95,42978,2,0,P|1:119|0:168,1,74.8799995429687,10|8,0:0|0:0,0:0:0:0:
54,227,43278,2,0,P|78:251|79:300,1,74.8799995429687,10|2,0:1|0:0,0:0:0:0:
20,356,43578,38,0,P|97:330|171:342,2,149.759999085937,10|8|8,0:0|0:1|0:0,0:0:0:0:
10,266,44328,1,8,0:0:0:0:
10,266,44478,2,0,L|5:186,1,74.8799995429687,8|0,0:1|0:0,0:0:0:0:
85,149,44778,6,0,B|142:149|142:149|180:159|180:159|238:160,1,149.759999085937,8|8,0:0|0:1,0:0:0:0:
318,207,45228,1,0,0:0:0:0:
318,207,45378,2,0,L|393:204,1,74.8799995429687,8|8,0:1|0:1,0:0:0:0:
490,201,45678,1,8,0:1:0:0:
323,99,45978,38,0,B|275:90|267:48|281:32|262:4|213:-3,1,149.759999085937,14|8,0:2|0:1,0:0:0:0:
130,28,46428,1,0,0:0:0:0:
130,28,46578,2,0,P|119:95|131:119,1,74.8799995429687,8|8,0:0|0:0,0:0:0:0:
193,152,46878,1,10,0:1:0:0:
131,336,47178,6,0,B|179:327|187:285|173:269|192:241|241:234,1,149.759999085937,10|8,0:0|0:1,0:0:0:0:
302,170,47628,1,2,0:0:0:0:
302,170,47778,2,0,P|377:179|377:179,1,74.8799995429687,10|10,0:0|0:0,0:0:0:0:
472,192,48078,1,10,0:1:0:0:
410,376,48378,38,0,P|353:320|282:334,2,149.759999085937,8|8|8,0:0|0:1|0:0,0:0:0:0:
456,290,49128,1,8,0:0:0:0:
456,290,49278,2,0,L|470:205,1,74.8799995429687,8|0,0:1|0:0,0:0:0:0:
479,119,49578,6,0,P|450:89|409:81,1,74.8799995429687,8|0,0:0|0:0,0:0:0:0:
322,99,49878,2,0,L|173:30,2,149.759999085937,8|8|10,0:1|0:0|0:1,0:0:0:0:
360,281,50778,38,0,B|312:261|312:261|290:224|290:224|240:202,1,135.35999793457,12|8,0:0|0:1,0:0:0:0:
159,195,51228,1,0,0:0:0:0:
159,195,51378,2,0,P|142:233|148:270,1,67.6799989672852,10|8,0:0|0:0,0:0:0:0:
214,322,51678,1,10,0:1:0:0:
296,275,51828,6,0,L|386:281,1,67.6799989672852,2|8,0:0|0:0,0:0:0:0:
440,235,52128,2,0,P|456:198|452:165,1,67.6799989672852,2|8,0:0|0:1,0:0:0:0:
398,102,52428,2,0,L|252:124,1,135.35999793457
258,209,52878,2,0,P|254:257|232:288,1,67.6799989672852,10|2,0:1|0:0,0:0:0:0:
155,331,53178,38,0,B|109:324|100:294|115:278|87:247|35:256,1,135.35999793457,12|10,0:1|0:0,0:0:0:0:
105,175,53628,2,0,B|77:137|92:109|114:109|116:67|73:37,1,135.35999793457,10|10,0:1|0:0,0:0:0:0:
182,56,54078,2,0,P|231:53|248:41,1,67.6799989672852,0|2,0:0|0:0,0:0:0:0:
331,3,54378,5,10,0:0:0:0:
331,3,54528,2,0,P|393:15|413:92,1,135.35999793457,2|0,0:0|0:0,0:0:0:0:
416,165,54978,2,0,L|345:196,1,67.6799989672852,8|2,0:1|0:0,0:0:0:0:
278,232,55278,1,10,0:1:0:0:
278,232,55578,6,0,P|269:273|272:290,1,46.08
332,331,55878,2,0,L|377:326,1,46.08
262,379,56178,2,0,L|216:383,1,46.08
133,332,56478,6,0,L|86:323,1,46.08,2|0,0:0|0:0,0:0:0:0:
44,236,56778,2,0,L|0:246,2,46.08,2|0|2,0:0|0:0|0:0,0:0:0:0:
117,172,57228,2,0,L|112:116,1,46.08,0|2,0:0|0:0,0:0:0:0:
194,76,57528,5,8,0:0:0:0:
194,76,57678,1,8,0:1:0:0:
384,147,57978,6,0,P|437:139|460:117,2,67.6799989672852,8|8|8,0:1|0:0|0:0,0:0:0:0:
304,209,58428,1,8,0:1:0:0:
304,209,58578,2,0,P|324:248|324:285,1,67.6799989672852,8|8,0:1|0:0,0:0:0:0:
249,334,58878,1,12,0:1:0:0:
42,373,59178,6,0,L|42:305,1,67.6799989672852,8|8,0:1|0:1,0:0:0:0:
41,223,59478,2,0,L|41:155,1,67.6799989672852,8|8,0:1|0:1,0:0:0:0:
42,73,59778,2,0,L|42:5,1,67.6799989672852,8|8,0:1|0:1,0:0:0:0:
201,191,60228,22,0,B|241:189|265:153|249:132|268:101|311:96,1,149.759999085937,14|8,0:0|0:0,0:0:0:0:
415,146,60678,2,0,P|453:133|470:105,1,74.8799995429687,10|0,0:1|0:0,0:0:0:0:
363,230,60978,2,0,L|377:319,2,74.8799995429687,10|8|8,0:0|0:0|0:1,0:0:0:0:
285,301,61428,6,0,L|211:280,1,74.8799995429687,2|8,0:0|0:0,0:0:0:0:
195,176,61728,2,0,L|127:213,1,74.8799995429687,10|8,0:0|0:1,0:0:0:0:
54,137,62028,2,0,L|33:209,1,74.8799995429687,2|8,0:0|0:0,0:0:0:0:
206,88,62478,1,8,0:1:0:0:
206,88,62628,38,0,B|255:71|255:71|290:24|290:24|330:11,1,149.759999085937,14|8,0:0|0:0,0:0:0:0:
419,61,63078,2,0,P|425:97|402:138,1,74.8799995429687,8|0,0:1|0:0,0:0:0:0:
451,226,63378,2,0,L|291:207,1,149.759999085937,10|8,0:0|0:1,0:0:0:0:
226,271,63828,6,0,L|151:288,1,74.8799995429687,2|8,0:0|0:0,0:0:0:0:
100,195,64128,2,0,L|173:178,1,74.8799995429687,2|8,0:0|0:1,0:0:0:0:
185,73,64428,2,0,L|111:89,1,74.8799995429687,2|8,0:0|0:0,0:0:0:0:
50,3,64728,1,8,0:0:0:0:
50,3,64878,1,8,0:1:0:0:
57,212,65178,38,0,P|62:255|41:284,1,74.8799995429687,14|0,0:0|0:0,0:0:0:0:
121,353,65478,2,0,P|155:327|191:330,1,74.8799995429687,10|0,0:1|0:0,0:0:0:0:
214,227,65778,2,0,P|174:209|159:177,1,74.8799995429687,10|8,0:0|0:0,0:0:0:0:
80,113,66078,1,8,0:1:0:0:
292,85,66378,6,0,L|373:77,1,74.8799995429687,10|0,0:0|0:0,0:0:0:0:
472,77,66678,2,0,L|438:151,1,74.8799995429687,10|0,0:1|0:0,0:0:0:0:
390,237,66978,2,0,L|342:170,1,74.8799995429687,10|8,0:0|0:0,0:0:0:0:
292,85,67278,1,10,0:1:0:0:
292,85,67428,1,0,0:0:0:0:
195,44,67578,38,0,P|131:44|104:67,1,74.8799995429687,10|0,0:0|0:0,0:0:0:0:
56,128,67878,2,0,L|74:217,1,74.8799995429687,8|0,0:1|0:0,0:0:0:0:
171,170,68178,6,0,P|207:162|242:174,1,74.8799995429687,10|0,0:0|0:0,0:0:0:0:
309,254,68478,2,0,L|294:327,1,74.8799995429687,8|0,0:1|0:0,0:0:0:0:
190,345,68778,38,0,P|153:337|118:349,1,74.8799995429687,10|0,0:0|0:0,0:0:0:0:
17,378,69078,2,0,L|10:272,1,74.8799995429687,8|10,0:1|0:0,0:0:0:0:
60,209,69378,6,0,L|67:103,1,74.8799995429687,10|8,0:0|0:0,0:0:0:0:
10,43,69678,1,10,0:1:0:0:
197,135,69978,38,0,B|237:133|261:97|245:76|264:45|307:40,1,149.759999085937,12|8,0:2|0:1,0:0:0:0:
400,78,70428,1,0,0:0:0:0:
400,78,70578,2,0,L|493:65,1,74.8799995429687,10|8,0:0|0:0,0:0:0:0:
512,155,70878,1,10,0:1:0:0:
350,266,71178,6,0,B|310:264|286:228|302:207|283:176|240:171,1,149.759999085937,10|8,0:0|0:1,0:0:0:0:
139,173,71628,2,0,P|113:209|111:245,1,74.8799995429687,2|10,0:0|0:0,0:0:0:0:
162,329,71928,2,0,L|252:314,2,74.8799995429687,10|10|2,0:0|0:1|0:0,0:0:0:0:
58,307,72378,38,0,P|7:301|12:385,2,149.759999085937,8|8|8,0:0|0:1|0:0,0:0:0:0:
150,334,73128,1,8,0:0:0:0:
150,334,73278,2,0,L|241:317,1,74.8799995429687,8|0,0:1|0:0,0:0:0:0:
328,354,73578,6,0,B|369:325|369:325|394:257|394:257|429:241,1,149.759999085937,8|8,0:0|0:1,0:0:0:0:
504,186,74028,1,0,0:0:0:0:
504,186,74178,2,0,P|508:141|497:107,1,74.8799995429687,8|8,0:0|0:0,0:0:0:0:
425,38,74478,1,10,0:1:0:0:
229,98,74778,38,0,B|186:87|186:87|139:28|139:28|84:15,1,149.759999085937,12|8,0:0|0:1,0:0:0:0:
21,77,75228,1,0,0:0:0:0:
21,77,75378,2,0,P|11:116|28:162,1,74.8799995429687,8|8,0:0|0:0,0:0:0:0:
109,229,75678,2,0,L|197:209,1,74.8799995429687,10|0,0:1|0:0,0:0:0:0:
270,269,75978,6,0,B|313:258|313:258|360:199|360:199|389:192,1,149.759999085937,10|8,0:0|0:1,0:0:0:0:
484,147,76428,1,2,0:0:0:0:
484,147,76578,2,0,P|491:104|472:75,1,74.8799995429687,10|2,0:1|0:0,0:0:0:0:
378,40,76878,2,0,L|289:50,1,74.8799995429687,10|2,0:3|0:0,0:0:0:0:
198,31,77178,38,0,B|167:63|167:63|193:158,1,135.35999793457,14|14,0:0|0:0,0:0:0:0:
356,243,77778,2,0,L|342:316,1,67.6799989672852,14|0,0:0|0:0,0:0:0:0:
250,330,78078,2,0,L|262:263,1,67.6799989672852,14|0,0:0|0:0,0:0:0:0:
288,147,78378,6,0,P|349:144|377:94,1,101.519998450928,14|0,0:0|0:0,0:0:0:0:
366,68,78678,2,0,P|395:29|428:25,1,67.6799989672852,12|0,0:0|0:0,0:0:0:0:
505,97,78978,2,0,B|516:145|516:145|489:236,1,135.35999793457,10|8,0:1|0:1,0:0:0:0:
426,297,79428,5,2,0:0:0:0:
426,297,79578,2,0,L|302:281,2,120.959996308594,14|10|2,0:0|0:1|0:0,0:0:0:0:
489,226,80328,1,8,0:0:0:0:
489,226,80478,2,0,P|500:179|488:147,1,60.4799981542969,8|0,0:1|0:0,0:0:0:0:
409,121,80778,6,0,P|345:74|367:27,2,120.959996308594,10|10|2,0:0|0:1|0:0,0:0:0:0:
471,47,81528,1,8,0:0:0:0:
471,47,81678,2,0,L|462:-20,1,60.4799981542969,8|0,0:1|0:0,0:0:0:0:
508,129,81978,37,10,0:0:0:0:
508,129,82128,2,0,L|487:265,1,120.959996308594,2|2,0:0|0:0,0:0:0:0:
312,326,82728,1,10,0:0:0:0:
312,326,82878,2,0,L|233:316,1,60.4799981542969,10|0,0:1|0:0,0:0:0:0:
176,257,83178,6,0,L|115:264,1,60.4799981542969,8|8,0:0|0:0,0:0:0:0:
257,180,83478,2,0,P|257:112|208:86,2,120.959996308594,10|2|10,0:1|0:0|0:1,0:0:0:0:
362,343,84378,38,0,B|394:320|394:320|405:265|405:265|436:230,1,120.959996308594,12|10,0:0|0:1,0:0:0:0:
499,187,84828,1,0,0:0:0:0:
499,187,84978,2,0,P|509:146|497:110,1,60.4799981542969,2|8,0:0|0:0,0:0:0:0:
436,49,85278,2,0,B|407:62|407:62|362:61,1,60.4799981542969,10|0,0:1|0:0,0:0:0:0:
282,42,85578,5,8,0:0:0:0:
151,149,85878,2,0,P|142:196|153:222,1,60.4799981542969,10|0,0:1|0:0,0:0:0:0:
227,265,86178,2,0,B|259:263|278:234|265:217|280:193|315:189,1,120.959996308594,10|8,0:0|0:1,0:0:0:0:
490,65,86778,6,0,L|475:156,1,67.6799989672852,14|0,0:1|0:0,0:0:0:0:
399,25,87078,1,12,0:0:0:0:
399,25,87228,2,0,L|332:36,1,67.6799989672852,8|0,0:1|0:0,0:0:0:0:
240,80,87528,2,0,L|173:68,2,67.6799989672852,8|12|2,0:0|0:1|0:0,0:0:0:0:
313,149,87978,5,14,0:0:0:0:
313,149,88128,2,0,P|325:226|278:274,1,135.35999793457,10|10,0:1|0:0,0:0:0:0:
197,305,88578,2,0,L|105:291,1,67.6799989672852,8|10,0:1|0:1,0:0:0:0:
37,254,88878,2,0,P|27:220|86:205,1,106.560002601563,6|0,0:3|0:0,0:0:0:0:
