osu file format v14

[General]
AudioFilename: audio.mp3
AudioLeadIn: 0
PreviewTime: 45106
Countdown: 0
SampleSet: Soft
StackLeniency: 0.7
Mode: 0
LetterboxInBreaks: 0
WidescreenStoryboard: 1

[Editor]
DistanceSpacing: 1.2
BeatDivisor: 4
GridSize: 32
TimelineZoom: 1.6

[Metadata]
Title:Sangenshoku
TitleUnicode:三原色
Artist:PELICAN FANCLUB
ArtistUnicode:PELICAN FANCLUB
Creator:Smoke
Version:Hard
Source:Dr.STONE
Tags:ドクターストーン primary colors dr. stone anime japanese rock j-rock male vocals opening op 2 two dr doctor ishigami senkuu 石神千空
BeatmapID:2312865
BeatmapSetID:1106627

[Difficulty]
HPDrainRate:5.2
CircleSize:3.6
OverallDifficulty:6.5
ApproachRate:7.5
SliderMultiplier:1.2
SliderTickRate:1

[Events]
//Background and Video events
0,0,"senku bg.jpg",0,0
//Break Periods
2,110929,127904
//Storyboard Layer 0 (Background)
//Storyboard Layer 1 (Fail)
//Storyboard Layer 2 (Pass)
//Storyboard Layer 3 (Foreground)
//Storyboard Layer 4 (Overlay)
//Storyboard Sound Samples

[TimingPoints]
329,300,4,2,1,55,1,0
329,-125,4,2,1,55,0,0
4379,-200,4,2,1,55,0,0
5054,-200,4,2,1,5,0,0
5129,-100,4,2,1,75,0,0
7454,-100,4,2,1,5,0,0
7529,-100,4,2,1,75,0,0
9854,-100,4,2,1,5,0,0
9929,-100,4,2,1,75,0,0
12254,-100,4,2,1,5,0,0
12329,-100,4,2,1,75,0,0
14654,-100,4,2,1,5,0,0
14729,-125,4,2,1,60,0,0
24329,-117.647058823529,4,2,1,65,0,0
33929,-125,4,2,1,60,0,0
38729,-105.263157894737,4,2,1,70,0,0
42329,-100,4,2,1,75,0,0
43529,-142.857142857143,4,2,1,40,0,0
45329,-100,4,2,1,70,0,0
45629,-125,4,2,1,75,0,0
45854,-125,4,2,1,5,0,0
45929,-86.9565217391304,4,2,1,80,0,1
47054,-86.9565217391304,4,2,1,5,0,1
47129,-86.9565217391304,4,2,1,80,0,1
48554,-86.9565217391304,4,2,1,5,0,1
48629,-86.9565217391304,4,2,1,80,0,1
48854,-86.9565217391304,4,2,1,5,0,1
48929,-86.9565217391304,4,2,1,80,0,1
49154,-86.9565217391304,4,2,1,5,0,1
49229,-86.9565217391304,4,2,1,80,0,1
49454,-86.9565217391304,4,2,1,5,0,1
49529,-86.9565217391304,4,2,1,80,0,1
50654,-86.9565217391304,4,2,1,5,0,1
50729,-86.9565217391304,4,2,1,80,0,1
51854,-86.9565217391304,4,2,1,5,0,1
51929,-86.9565217391304,4,2,1,80,0,1
53354,-86.9565217391304,4,2,1,5,0,1
53429,-86.9565217391304,4,2,1,80,0,1
53654,-86.9565217391304,4,2,1,5,0,1
53729,-86.9565217391304,4,2,1,80,0,1
53954,-86.9565217391304,4,2,1,5,0,1
54029,-86.9565217391304,4,2,1,80,0,1
54254,-86.9565217391304,4,2,1,5,0,1
54329,-86.9565217391304,4,2,1,80,0,1
56654,-86.9565217391304,4,2,1,5,0,1
56729,-86.9565217391304,4,2,1,80,0,1
57854,-86.9565217391304,4,2,1,5,0,1
57929,-86.9565217391304,4,2,1,80,0,1
58154,-86.9565217391304,4,2,1,5,0,1
58229,-86.9565217391304,4,2,1,80,0,1
58454,-86.9565217391304,4,2,1,5,0,1
58529,-86.9565217391304,4,2,1,80,0,1
58754,-86.9565217391304,4,2,1,5,0,1
58829,-86.9565217391304,4,2,1,80,0,1
59054,-86.9565217391304,4,2,1,5,0,1
59129,-86.9565217391304,4,2,1,80,0,1
60254,-86.9565217391304,4,2,1,5,0,1
60329,-86.9565217391304,4,2,1,80,0,1
62954,-86.9565217391304,4,2,1,5,0,1
63029,-86.9565217391304,4,2,1,80,0,1
65054,-86.9565217391304,4,2,1,5,0,1
65129,-100,4,2,1,75,0,0
67454,-100,4,2,1,5,0,0
67529,-100,4,2,1,75,0,0
69929,-125,4,2,1,60,0,0
79454,-125,4,2,1,5,0,0
79529,-142.857142857143,4,2,1,50,0,0
83729,-142.857142857143,4,2,1,60,0,0
84329,-105.263157894737,4,2,1,70,0,0
84554,-105.263157894737,4,2,1,5,0,0
84629,-105.263157894737,4,2,1,70,0,0
87929,294.117647058824,4,2,1,55,1,0
87929,-100,4,2,1,75,0,0
89105,300,4,2,1,55,1,0
89105,-99.9999999999999,4,2,1,70,0,0
90905,-99.9999999999999,4,2,1,75,0,0
91529,300,4,2,1,55,1,0
91529,-86.9565217391304,4,2,1,80,0,1
92654,-86.9565217391304,4,2,1,5,0,1
92729,-86.9565217391304,4,2,1,80,0,1
94154,-86.9565217391304,4,2,1,5,0,1
94229,-86.9565217391304,4,2,1,80,0,1
94454,-86.9565217391304,4,2,1,5,0,1
94529,-86.9565217391304,4,2,1,80,0,1
94754,-86.9565217391304,4,2,1,5,0,1
94829,-86.9565217391304,4,2,1,80,0,1
95054,-86.9565217391304,4,2,1,5,0,1
95129,-86.9565217391304,4,2,1,80,0,1
96254,-86.9565217391304,4,2,1,5,0,1
96329,-86.9565217391304,4,2,1,80,0,1
97454,-86.9565217391304,4,2,1,5,0,1
97529,-86.9565217391304,4,2,1,80,0,1
98954,-86.9565217391304,4,2,1,5,0,1
99029,-86.9565217391304,4,2,1,80,0,1
99254,-86.9565217391304,4,2,1,5,0,1
99329,-86.9565217391304,4,2,1,80,0,1
99554,-86.9565217391304,4,2,1,5,0,1
99629,-86.9565217391304,4,2,1,80,0,1
99854,-86.9565217391304,4,2,1,5,0,1
99929,-86.9565217391304,4,2,1,80,0,1
102254,-86.9565217391304,4,2,1,5,0,1
102329,-86.9565217391304,4,2,1,80,0,1
103454,-86.9565217391304,4,2,1,5,0,1
103529,-86.9565217391304,4,2,1,80,0,1
103754,-86.9565217391304,4,2,1,5,0,1
103829,-86.9565217391304,4,2,1,80,0,1
104054,-86.9565217391304,4,2,1,5,0,1
104129,-86.9565217391304,4,2,1,80,0,1
104354,-86.9565217391304,4,2,1,5,0,1
104429,-86.9565217391304,4,2,1,80,0,1
104654,-86.9565217391304,4,2,1,5,0,1
104729,-86.9565217391304,4,2,1,80,0,1
105854,-86.9565217391304,4,2,1,5,0,1
105929,-86.9565217391304,4,2,1,80,0,1
108554,-86.9565217391304,4,2,1,5,0,1
108629,-86.9565217391304,4,2,1,80,0,1
110729,-142.857142857143,4,2,1,60,0,0
128729,-99.9999999999999,4,2,1,70,0,0
129929,-111.111111111111,4,2,1,65,0,0
130154,-111.111111111111,4,2,1,5,0,0
130229,-111.111111111111,4,2,1,65,0,0
130454,-111.111111111111,4,2,1,5,0,0
130529,-111.111111111111,4,2,1,65,0,0
131354,-111.111111111111,4,2,1,5,0,0
131429,-111.111111111111,4,2,1,65,0,0
132554,-111.111111111111,4,2,1,5,0,0
132629,-111.111111111111,4,2,1,65,0,0
132854,-111.111111111111,4,2,1,5,0,0
132929,-111.111111111111,4,2,1,65,0,0
134954,-111.111111111111,4,2,1,5,0,0
135029,-111.111111111111,4,2,1,65,0,0
135254,-111.111111111111,4,2,1,5,0,0
135329,-111.111111111111,4,2,1,65,0,0
136154,-111.111111111111,4,2,1,5,0,0
136229,-111.111111111111,4,2,1,65,0,0
137354,-111.111111111111,4,2,1,5,0,0
137429,-111.111111111111,4,2,1,65,0,0
137654,-111.111111111111,4,2,1,5,0,0
137729,-111.111111111111,4,2,1,65,0,0
139529,-99.9999999999999,4,2,1,70,0,0
139754,-99.9999999999999,4,2,1,5,0,0
139829,-99.9999999999999,4,2,1,70,0,0
140054,-99.9999999999999,4,2,1,5,0,0
140129,-99.9999999999999,4,2,1,70,0,0
140954,-99.9999999999999,4,2,1,5,0,0
141029,-99.9999999999999,4,2,1,70,0,0
141254,-99.9999999999999,4,2,1,5,0,0
141329,-99.9999999999999,4,2,1,70,0,0
142154,-99.9999999999999,4,2,1,5,0,0
142229,-99.9999999999999,4,2,1,70,0,0
144554,-99.9999999999999,4,2,1,5,0,0
144629,-99.9999999999999,4,2,1,70,0,0
144854,-99.9999999999999,4,2,1,5,0,0
144929,-99.9999999999999,4,2,1,70,0,0
145754,-99.9999999999999,4,2,1,5,0,0
145829,-99.9999999999999,4,2,1,70,0,0
146654,-99.9999999999999,4,2,1,5,0,0
146729,307.692307692308,4,2,1,55,1,0
146729,-125,4,2,1,60,0,0
148575,300,4,2,1,55,1,0
148575,-125,4,2,1,60,0,0
148875,-99.9999999999999,4,2,1,85,0,0
149100,-99.9999999999999,4,2,1,5,0,0
149175,285.714285714286,4,2,1,55,1,0
149175,-125,4,2,1,40,0,0
149460,295.566502463054,4,2,1,55,1,0
149460,-125,4,2,1,60,0,0
149757,285.714285714286,4,2,1,55,1,0
149757,-125,4,2,1,60,0,0
150042,300,4,2,1,55,1,0
150042,-125,4,2,1,60,0,0
150342,314.13612565445,4,2,1,55,1,0
150342,-125,4,2,1,60,0,0
150656,288.461538461538,4,2,1,55,1,0
150656,-125,4,2,1,60,0,0
151088,-117.647058823529,4,2,1,60,0,0
151521,300,4,2,1,55,1,0
151521,-111.111111111111,4,2,1,70,0,0
152421,304.568527918782,4,2,1,55,1,0
152421,-111.111111111111,4,2,1,70,0,0
152725,294.117647058824,4,2,1,55,1,0
152725,-100,4,2,1,80,0,0
153779,300,4,2,1,55,1,0
153779,-83.3333333333333,4,2,1,85,0,1
153929,300,4,2,1,55,1,0
153929,-83.3333333333333,4,2,1,85,0,1
158954,-83.3333333333333,4,2,1,5,0,1
159029,-83.3333333333333,4,2,1,85,0,1
159254,-83.3333333333333,4,2,1,5,0,1
159329,-83.3333333333333,4,2,1,85,0,1
160154,-83.3333333333333,4,2,1,5,0,1
160229,-83.3333333333333,4,2,1,85,0,1
160454,-83.3333333333333,4,2,1,5,0,1
160529,-83.3333333333333,4,2,1,85,0,1
161354,-83.3333333333333,4,2,1,5,0,1
161429,-83.3333333333333,4,2,1,85,0,1
161954,-83.3333333333333,4,2,1,5,0,1
162029,-83.3333333333333,4,2,1,85,0,1
168554,-83.3333333333333,4,2,1,5,0,1
168629,-83.3333333333333,4,2,1,85,0,1
168854,-83.3333333333333,4,2,1,5,0,1
168929,-83.3333333333333,4,2,1,85,0,1
169754,-83.3333333333333,4,2,1,5,0,1
169829,-83.3333333333333,4,2,1,85,0,1
170054,-83.3333333333333,4,2,1,5,0,1
170129,-83.3333333333333,4,2,1,85,0,1
170954,-83.3333333333333,4,2,1,5,0,1
171029,-83.3333333333333,4,2,1,85,0,1
171554,-83.3333333333333,4,2,1,5,0,1
171629,-83.3333333333333,4,2,1,85,0,1
173054,-83.3333333333333,4,2,1,5,0,1
173129,-83.3333333333333,4,2,1,85,0,1
174254,-83.3333333333333,4,2,1,5,0,1
174329,-83.3333333333333,4,2,1,85,0,1
175754,-83.3333333333333,4,2,1,5,0,1
175829,-83.3333333333333,4,2,1,85,0,1
176054,-83.3333333333333,4,2,1,5,0,1
176129,-83.3333333333333,4,2,1,85,0,1
176354,-83.3333333333333,4,2,1,5,0,1
176429,-83.3333333333333,4,2,1,85,0,1
176654,-83.3333333333333,4,2,1,5,0,1
176729,-83.3333333333333,4,2,1,85,0,1
177854,-83.3333333333333,4,2,1,5,0,1
177929,-83.3333333333333,4,2,1,85,0,1
179054,-83.3333333333333,4,2,1,5,0,1
179129,-83.3333333333333,4,2,1,85,0,1
180554,-83.3333333333333,4,2,1,5,0,1
180629,-83.3333333333333,4,2,1,85,0,1
180854,-83.3333333333333,4,2,1,5,0,1
180929,-83.3333333333333,4,2,1,85,0,1
181154,-83.3333333333333,4,2,1,5,0,1
181229,-83.3333333333333,4,2,1,85,0,1
181454,-83.3333333333333,4,2,1,5,0,1
181529,-83.3333333333333,4,2,1,85,0,1
181754,-83.3333333333333,4,2,1,5,0,1
181829,-83.3333333333333,4,2,1,85,0,1
182054,-83.3333333333333,4,2,1,5,0,1
182129,-83.3333333333333,4,2,1,85,0,1
182729,-90.9090909090909,4,2,1,75,0,0
185054,-90.9090909090909,4,2,1,5,0,0
185129,-90.9090909090909,4,2,1,75,0,0
187454,-90.9090909090909,4,2,1,5,0,0
187529,-90.9090909090909,4,2,1,75,0,0
188654,-90.9090909090909,4,2,1,5,0,0
188729,-90.9090909090909,4,2,1,75,0,0
189929,-83.3333333333333,4,2,1,88,0,1
192254,-83.3333333333333,4,2,1,5,0,1
192329,-99.9999999999999,4,2,1,75,0,0
194654,-100,4,2,1,5,0,0
194729,-100,4,2,1,75,0,0
197129,-125,4,2,1,65,0,0
201629,-142.857142857143,4,2,1,65,0,0
201929,-142.857142857143,4,2,1,35,0,0

[Colours]
Combo1 : 124,132,163
Combo2 : 245,158,196
Combo3 : 172,185,200
Combo4 : 252,171,169

[HitObjects]
32,320,329,6,0,P|76:291|134:298,1,96,2|8,3:2|3:2,0:0:0:0:
198,321,779,2,0,P|245:309|299:299,1,96,2|2,3:2|3:2,0:0:0:0:
372,330,1229,1,8,3:2:0:0:
487,201,1529,6,0,P|438:177|385:189,1,96,2|8,3:2|3:2,0:0:0:0:
315,210,1979,2,0,P|301:154|283:99,1,96,2|2,3:2|3:2,0:0:0:0:
268,33,2429,1,8,3:2:0:0:
140,149,2729,6,0,P|95:136|34:120,1,96,2|8,3:2|3:2,0:0:0:0:
3,198,3179,2,0,P|29:255|24:296,1,96,2|2,3:2|3:2,0:0:0:0:
9,371,3629,1,8,3:2:0:0:
171,311,3929,2,0,P|221:322|267:335,1,96,2|8,0:0|3:2,0:0:0:0:
347,355,4379,6,0,B|378:343|378:343|435:363|435:363|475:348,1,135,2|0,3:2|0:0,0:0:0:0:
498,307,5129,6,0,P|502:279|514:224,1,60,6|0,3:2|0:0,0:0:0:0:
433,186,5429,2,0,P|402:215|331:202,1,120,10|0,3:2|0:0,0:0:0:0:
281,125,5879,1,2,3:2:0:0:
281,125,6029,2,0,L|300:58,1,60,10|0,3:2|0:0,0:0:0:0:
230,5,6329,5,2,3:2:0:0:
230,5,6479,1,0,3:2:0:0:
155,65,6629,2,0,L|171:122,1,60,10|0,3:2|0:0,0:0:0:0:
205,217,6929,1,2,3:2:0:0:
205,217,7079,1,0,3:2:0:0:
295,250,7229,1,10,3:2:0:0:
163,380,7529,6,0,P|130:378|99:354,1,60,0|0,3:2|0:0,0:0:0:0:
50,286,7829,2,0,P|35:227|14:160,1,120,10|0,3:2|0:0,0:0:0:0:
16,78,8279,1,2,3:2:0:0:
16,78,8429,2,0,P|46:83|76:100,1,60,10|2,3:2|0:0,0:0:0:0:
161,144,8729,1,0,3:2:0:0:
161,144,8879,1,0,3:2:0:0:
236,84,9029,2,0,P|290:52|353:66,1,120,10|0,3:2|0:0,0:0:0:0:
443,56,9479,1,2,3:2:0:0:
443,56,9629,2,0,L|412:170,1,90,10|0,3:2|0:0,0:0:0:0:
393,183,9929,6,0,L|406:261,1,60,6|0,3:2|0:0,0:0:0:0:
462,317,10229,2,0,B|426:321|406:352|425:348|398:386|363:385,1,120,10|0,3:2|0:0,0:0:0:0:
294,332,10679,1,2,3:2:0:0:
294,332,10829,2,0,P|265:336|218:351,1,60,10|0,3:2|0:0,0:0:0:0:
164,286,11129,5,2,3:2:0:0:
164,286,11279,1,0,3:2:0:0:
236,222,11429,2,0,L|251:157,1,60,10|0,3:2|0:0,0:0:0:0:
157,177,11729,1,2,3:2:0:0:
157,177,11879,1,0,3:2:0:0:
102,97,12029,1,10,3:2:0:0:
6,263,12329,6,0,L|74:284,1,60,0|0,3:2|0:0,0:0:0:0:
145,332,12629,2,0,P|203:317|279:305,1,120,10|0,3:2|0:0,0:0:0:0:
355,346,13079,1,2,3:2:0:0:
355,346,13229,2,0,P|363:318|379:278,1,60,10|2,3:2|0:0,0:0:0:0:
335,201,13529,5,0,3:2:0:0:
335,201,13679,1,0,3:2:0:0:
395,126,13829,2,0,P|423:128|463:153,1,60,10|8,3:2|3:2,0:0:0:0:
505,221,14129,1,8,3:2:0:0:
479,313,14279,1,10,3:2:0:0:
388,346,14429,2,0,B|362:334|362:334|324:348|324:348|294:336,1,90,14|0,3:2|0:0,0:0:0:0:
266,343,14729,6,0,P|228:320|170:331,1,96,6|8,3:2|3:2,0:0:0:0:
97,360,15179,2,0,P|81:312|59:251,1,96,2|2,3:2|0:0,0:0:0:0:
115,199,15629,1,8,3:2:0:0:
115,199,15779,2,0,P|129:154|150:100,1,96,2|2,0:0|0:0,0:0:0:0:
128,28,16229,1,8,3:2:0:0:
128,28,16379,2,0,P|166:26|219:75,1,96,2|2,0:0|3:2,0:0:0:0:
266,125,16829,1,8,3:2:0:0:
411,32,17129,6,0,P|424:87|439:134,1,96,2|8,3:2|3:2,0:0:0:0:
466,205,17579,2,0,P|434:241|433:299,1,96,2|2,0:0|0:0,0:0:0:0:
460,373,18029,1,8,3:2:0:0:
460,373,18179,2,0,P|422:344|356:355,1,96,2|2,0:0|0:0,0:0:0:0:
297,377,18629,1,10,3:2:0:0:
297,377,18779,2,0,L|275:275,1,96,2|2,0:0|3:2,0:0:0:0:
323,210,19229,1,8,3:2:0:0:
198,90,19529,6,0,P|159:69|96:78,1,96,2|8,3:2|3:2,0:0:0:0:
52,137,19979,2,0,L|72:240,1,96,2|2,3:2|0:0,0:0:0:0:
86,320,20429,1,8,3:2:0:0:
86,320,20579,2,0,B|116:322|138:303|124:299|152:277|181:282,1,96,2|2,0:0|0:0,0:0:0:0:
241,339,21029,1,8,3:2:0:0:
241,339,21179,2,0,P|270:330|342:316,1,96,2|2,0:0|3:2,0:0:0:0:
413,353,21629,1,8,3:2:0:0:
507,208,21929,6,0,P|513:153|485:108,1,96,2|8,3:2|3:2,0:0:0:0:
416,81,22379,2,0,P|374:93|303:112,1,96,2|2,3:2|0:0,0:0:0:0:
247,73,22829,1,8,3:2:0:0:
247,73,22979,2,0,P|197:59|143:47,1,96,2|2,0:0|0:0,0:0:0:0:
75,27,23429,1,10,3:2:0:0:
75,27,23579,2,0,P|64:57|53:84,1,48,2|0,0:0|0:0,0:0:0:0:
17,150,23879,1,2,3:2:0:0:
17,150,24029,2,0,P|28:180|39:207,1,48,8|2,3:2|0:0,0:0:0:0:
69,277,24329,6,0,B|101:275|124:302|108:302|126:323|170:323,1,102.000001945496,6|8,3:2|3:2,0:0:0:0:
233,273,24779,2,0,P|230:248|218:207,1,51.0000009727478,2|0,3:2|0:0,0:0:0:0:
184,140,25079,2,0,P|187:115|199:74,1,51.0000009727478,2|8,0:0|3:2,0:0:0:0:
267,35,25379,2,0,P|309:62|375:59,1,102.000001945496,2|2,0:0|0:0,0:0:0:0:
453,44,25829,1,8,3:2:0:0:
453,44,25979,2,0,P|482:32|508:26,2,51.0000009727478,2|2|2,0:0|0:0|3:2,0:0:0:0:
424,131,26429,1,8,3:2:0:0:
494,305,26729,5,2,3:2:0:0:
494,305,26879,2,0,L|470:372,1,51.0000009727478,2|8,0:0|3:2,0:0:0:0:
384,348,27179,2,0,P|360:340|329:332,1,51.0000009727478,2|0,0:0|0:0,0:0:0:0:
243,348,27479,2,0,P|219:356|188:364,1,51.0000009727478,2|8,0:0|3:2,0:0:0:0:
123,303,27779,2,0,P|137:252|156:200,1,102.000001945496,2|2,0:0|0:0,0:0:0:0:
235,161,28229,1,10,3:2:0:0:
235,161,28379,2,0,P|259:172|301:180,1,51.0000009727478,2|0,0:0|0:0,0:0:0:0:
376,202,28679,1,2,3:2:0:0:
376,202,28829,1,8,3:2:0:0:
273,49,29129,6,0,P|222:61|161:77,1,102.000001945496,2|8,3:2|3:2,0:0:0:0:
83,58,29579,2,0,L|99:119,1,51.0000009727478,2|0,3:2|0:0,0:0:0:0:
35,177,29879,2,0,L|19:238,1,51.0000009727478,2|8,0:0|3:2,0:0:0:0:
74,301,30179,2,0,P|128:310|174:275,1,102.000001945496,2|2,0:0|0:0,0:0:0:0:
228,218,30629,2,0,P|252:205|288:205,1,51.0000009727478,8|2,3:2|0:0,0:0:0:0:
343,272,30929,1,2,3:2:0:0:
343,272,31079,2,0,L|329:323,2,51.0000009727478,2|8|0,3:2|3:2|0:0,0:0:0:0:
409,208,31529,5,2,3:2:0:0:
409,208,31679,2,0,L|385:141,1,51.0000009727478,2|8,0:0|3:2,0:0:0:0:
399,67,31979,2,0,L|340:78,1,51.0000009727478,2|0,3:2|0:0,0:0:0:0:
272,125,32279,1,2,0:0:0:0:
272,125,32429,2,0,L|213:114,1,51.0000009727478,8|0,3:2|0:0,0:0:0:0:
140,84,32729,5,10,3:2:0:0:
140,84,32879,1,10,3:2:0:0:
249,238,33179,1,10,3:2:0:0:
249,238,33329,1,10,3:2:0:0:
113,361,33629,2,0,P|105:336|91:298,1,51.0000009727478,8|0,3:2|3:2,0:0:0:0:
29,239,33929,6,0,B|54:235|72:208|56:208|75:182|110:176,1,96,6|0,3:2|3:2,0:0:0:0:
207,320,34529,1,10,3:2:0:0:
207,320,34679,2,0,P|255:320|306:284,1,96,0|0,3:2|3:2,0:0:0:0:
371,338,35129,6,0,P|388:343|404:348,4,24,10|8|8|8|8,3:2|3:2|3:2|3:2|3:2,0:0:0:0:
303,178,35729,2,0,L|317:124,1,48,8|2,3:2|0:0,0:0:0:0:
365,64,36029,2,0,L|351:10,1,48,2|0,0:0|3:2,0:0:0:0:
459,55,36329,6,0,L|433:147,2,96,10|2|10,3:2|3:2|3:2,0:0:0:0:
365,64,37079,1,0,3:2:0:0:
365,64,37229,2,0,L|309:51,1,48,2|8,0:0|3:2,0:0:0:0:
240,91,37529,6,0,P|234:66|225:40,2,48,10|8|8,3:2|3:3|3:3,0:0:0:0:
183,156,37979,1,0,3:2:0:0:
183,156,38129,2,0,P|153:152|124:133,1,48,10|6,3:2|3:2,0:0:0:0:
81,77,38429,1,2,0:0:0:0:
1,239,38729,6,0,P|15:298|28:355,1,113.999996955872,6|2,3:2|3:2,0:0:0:0:
131,377,39179,1,8,3:2:0:0:
131,377,39329,2,0,P|156:367|188:359,1,56.9999984779358,2|2,0:0|3:2,0:0:0:0:
264,298,39629,2,0,P|289:308|321:316,1,56.9999984779358,10|2,3:2|3:2,0:0:0:0:
400,367,39929,6,0,P|415:318|439:250,1,113.999996955872,6|2,3:2|3:2,0:0:0:0:
512,197,40379,1,10,3:2:0:0:
512,197,40529,2,0,P|475:164|401:166,1,113.999996955872,2|10,0:0|3:2,0:0:0:0:
340,226,40979,1,2,3:2:0:0:
340,226,41129,6,0,P|313:226|281:207,1,56.9999984779358,6|2,3:2|0:0,0:0:0:0:
227,135,41429,2,0,P|217:110|224:72,1,56.9999984779358,2|10,3:2|3:2,0:0:0:0:
287,9,41729,2,0,P|308:-1|345:0,1,56.9999984779358,2|0,0:0|3:2,0:0:0:0:
428,40,42029,1,10,3:2:0:0:
280,195,42329,5,10,3:2:0:0:
280,195,42479,2,0,P|270:228|262:265,1,60,10|8,3:2|3:2,0:0:0:0:
193,326,42779,1,10,3:2:0:0:
106,281,42929,1,10,3:2:0:0:
106,281,43079,2,0,P|96:248|88:211,2,60,10|8|8,3:2|3:2|3:2,0:0:0:0:
46,356,43529,5,2,3:2:0:0:
26,38,45329,6,0,L|94:50,1,60,10|2,3:2|0:0,0:0:0:0:
190,36,45629,6,0,P|174:67|174:116,1,72,8|0,3:3|0:0,0:0:0:0:
205,143,45929,6,0,B|244:148|275:184|251:181|278:221|320:225,1,138.000002632141,6|8,3:2|3:2,0:0:0:0:
393,171,46379,1,2,0:0:0:0:
481,209,46529,2,0,L|498:286,1,69.0000013160706,2|2,3:2|3:2,0:0:0:0:
449,361,46829,2,0,P|416:365|367:340,1,69.0000013160706,10|0,3:2|0:0,0:0:0:0:
289,328,47129,6,0,P|234:337|130:357,1,138.000002632141,2|8,3:2|3:2,0:0:0:0:
58,370,47579,1,2,0:0:0:0:
89,278,47729,2,0,L|75:197,1,69.0000013160706,2|2,3:2|3:2,0:0:0:0:
60,114,48029,1,10,3:2:0:0:
134,52,48179,1,2,0:0:0:0:
227,77,48329,6,0,B|269:89|269:89|300:137|300:137|339:150,2,138.000002632141,2|10|2,3:2|3:2|3:2,0:0:0:0:
134,52,49079,1,0,3:2:0:0:
149,147,49229,2,0,L|221:170,1,69.0000013160706,10|0,3:2|0:0,0:0:0:0:
264,251,49529,6,0,P|327:233|404:217,1,138.000002632141,2|8,3:2|3:2,0:0:0:0:
486,257,49979,2,0,P|448:203|469:124,1,138.000002632141,2|2,0:0|3:2,0:0:0:0:
510,52,50429,2,0,P|475:39|423:26,1,69.0000013160706,10|0,3:2|0:0,0:0:0:0:
347,5,50729,6,0,B|308:10|277:46|301:43|274:83|232:87,1,138.000002632141,2|8,3:2|3:2,0:0:0:0:
152,124,51179,1,2,0:0:0:0:
79,60,51329,2,0,P|52:47|9:36,1,69.0000013160706,2|2,3:2|3:2,0:0:0:0:
166,31,51629,1,10,3:2:0:0:
103,207,51929,6,0,P|78:278|59:349,1,138.000002632141,2|8,3:2|3:2,0:0:0:0:
259,384,52529,2,0,P|243:321|226:238,1,138.000002632141,2|10,3:2|3:2,0:0:0:0:
280,162,52979,1,2,0:0:0:0:
371,193,53129,6,0,B|411:184|411:184|445:140|445:140|497:127,2,138.000002632141,2|10|2,3:2|3:2|3:2,0:0:0:0:
280,162,53879,1,0,3:2:0:0:
183,158,54029,2,0,P|149:147|98:132,1,69.0000013160706,10|0,3:2|0:0,0:0:0:0:
59,59,54329,6,0,P|126:46|196:34,1,138.000002632141,2|12,3:2|3:2,0:0:0:0:
294,47,54779,1,2,0:0:0:0:
294,47,54929,2,0,P|328:39|367:33,1,69.0000013160706,2|8,3:2|3:2,0:0:0:0:
458,21,55229,2,0,P|445:47|438:100,1,69.0000013160706,10|8,3:2|3:2,0:0:0:0:
458,180,55529,6,0,P|474:252|489:328,1,138.000002632141,6|8,3:2|3:2,0:0:0:0:
406,369,55979,1,2,0:0:0:0:
317,330,56129,2,0,P|329:296|342:251,1,69.0000013160706,2|2,3:2|3:2,0:0:0:0:
366,172,56429,1,10,3:2:0:0:
174,200,56729,6,0,P|195:131|213:59,1,138.000002632141,2|8,3:2|3:2,0:0:0:0:
135,6,57179,1,2,0:0:0:0:
55,60,57329,2,0,P|66:100|73:137,1,69.0000013160706,2|2,3:2|3:2,0:0:0:0:
11,211,57629,2,0,P|45:220|84:241,1,69.0000013160706,10|0,3:2|0:0,0:0:0:0:
146,299,57929,6,0,B|184:297|209:250|188:258|208:222|249:216,2,138.000002632141,2|10|2,3:2|3:2|3:2,0:0:0:0:
75,235,58679,1,0,3:2:0:0:
141,160,58829,2,0,P|172:147|216:133,1,69.0000013160706,10|0,3:2|0:0,0:0:0:0:
295,99,59129,6,0,P|359:119|435:136,1,138.000002632141,2|10,3:2|3:2,0:0:0:0:
496,315,59729,2,0,P|459:325|417:340,1,69.0000013160706,2|0,3:2|3:2,0:0:0:0:
343,378,60029,2,0,P|316:358|268:330,1,69.0000013160706,10|0,3:2|0:0,0:0:0:0:
198,296,60329,6,0,B|160:307|160:307|123:355|123:355|77:369,2,138.000002632141,6|10|2,3:2|3:2|3:2,0:0:0:0:
31,209,61229,1,10,3:2:0:0:
31,209,61379,6,0,L|53:128,1,69.0000013160706,2|0,0:0|3:2,0:0:0:0:
109,65,61679,2,0,P|147:70|189:100,1,69.0000013160706,2|8,0:0|3:2,0:0:0:0:
252,139,61979,2,0,P|320:119|389:104,1,138.000002632141,2|0,0:0|3:2,0:0:0:0:
485,92,62429,1,10,3:2:0:0:
485,92,62579,1,2,0:0:0:0:
459,185,62729,6,0,B|448:222|448:222|465:289|465:289|451:331,1,138.000002632141,4|10,3:2|3:2,0:0:0:0:
375,372,63179,2,0,P|347:372|309:345,1,69.0000013160706,2|0,0:0|0:0,0:0:0:0:
265,265,63479,2,0,P|276:233|291:198,1,69.0000013160706,2|8,0:0|3:2,0:0:0:0:
328,112,63779,1,2,0:0:0:0:
235,120,63929,5,2,3:2:0:0:
235,120,64079,2,0,L|158:96,1,69.0000013160706,2|8,0:0|3:2,0:0:0:0:
89,44,64379,2,0,L|65:121,1,69.0000013160706,2|8,3:2|3:2,0:0:0:0:
38,207,64679,1,10,3:2:0:0:
38,207,64754,1,8,3:2:0:0:
38,207,64829,2,0,L|54:279,1,69.0000013160706,2|0,3:2|0:0,0:0:0:0:
73,364,65129,6,0,P|102:350|142:337,1,60,6|0,3:2|0:0,0:0:0:0:
205,282,65429,2,0,B|244:280|271:311|251:309|275:338|318:337,1,120,10|0,3:2|0:0,0:0:0:0:
399,376,65879,1,2,3:2:0:0:
399,376,66029,2,0,P|409:348|433:298,1,60,10|0,3:2|0:0,0:0:0:0:
477,243,66329,5,2,3:2:0:0:
477,243,66479,1,0,3:2:0:0:
402,182,66629,2,0,P|375:195|338:193,1,60,10|0,3:2|0:0,0:0:0:0:
269,145,66929,1,2,3:2:0:0:
269,145,67079,1,0,3:2:0:0:
184,189,67229,1,10,3:2:0:0:
258,12,67529,6,0,P|289:14|328:32,1,60,0|0,3:2|0:0,0:0:0:0:
412,16,67829,2,0,P|395:76|378:142,1,120,10|0,3:2|0:0,0:0:0:0:
439,214,68279,1,2,3:2:0:0:
439,214,68429,2,0,P|452:244|465:278,1,60,10|2,3:2|0:0,0:0:0:0:
415,355,68729,5,0,3:2:0:0:
415,355,68879,1,0,3:2:0:0:
322,329,69029,2,0,P|289:319|252:311,1,60,10|8,3:2|3:2,0:0:0:0:
171,350,69329,2,0,P|165:324|151:284,1,60,8|10,3:2|3:2,0:0:0:0:
95,215,69629,2,0,P|104:186|111:157,1,60,10|10,3:2|3:2,0:0:0:0:
86,62,69929,5,6,3:2:0:0:
86,62,70079,2,0,P|126:67|184:35,1,96,2|2,0:0|0:0,0:0:0:0:
251,0,70529,2,0,P|266:48|286:93,1,96,8|0,3:2|0:0,0:0:0:0:
343,153,70979,2,0,P|382:127|446:138,2,96,2|0|2,0:0|3:2|0:0,0:0:0:0:
292,223,71729,1,10,3:2:0:0:
292,223,71879,1,2,3:2:0:0:
126,191,72329,5,2,3:2:0:0:
126,191,72479,2,0,P|115:252|145:294,1,96,2|2,0:0|0:0,0:0:0:0:
193,340,72929,2,0,P|235:328|308:310,1,96,8|0,3:2|0:0,0:0:0:0:
368,301,73379,2,0,P|416:315|476:331,2,96,2|2|2,0:0|3:2|0:0,0:0:0:0:
315,231,74129,1,8,3:2:0:0:
315,231,74279,1,2,3:2:0:0:
420,115,74729,5,2,3:2:0:0:
420,115,74879,2,0,P|464:98|526:76,1,96,2|2,0:0|0:0,0:0:0:0:
474,0,75329,2,0,P|428:16|384:33,1,96,8|0,3:2|0:0,0:0:0:0:
295,65,75779,2,0,P|254:37|193:41,2,96,2|0|2,0:0|3:2|0:0,0:0:0:0:
325,151,76529,1,10,3:2:0:0:
325,151,76679,1,2,3:2:0:0:
233,301,77129,5,2,3:2:0:0:
233,301,77279,2,0,P|180:315|134:330,1,96,2|2,0:0|0:0,0:0:0:0:
60,358,77729,2,0,P|48:318|28:262,1,96,8|0,3:2|0:0,0:0:0:0:
2,184,78179,1,8,0:0:0:0:
2,184,78329,2,0,P|30:160|75:157,2,72,2|2|2,0:0|0:0|0:0,0:0:0:0:
29,266,78929,2,0,P|59:271|90:281,1,48,10|0,3:2|3:2,0:0:0:0:
150,320,79229,2,0,P|194:306|262:291,1,96,2|2,0:0|0:0,0:0:0:0:
256,192,81929,12,2,83729,3:2:0:0:
382,265,84329,6,0,P|346:232|265:236,1,113.999996955872,6|2,3:2|3:2,0:0:0:0:
200,275,84779,1,8,3:2:0:0:
200,275,84929,2,0,P|183:219|157:146,1,113.999996955872,2|10,0:0|3:2,0:0:0:0:
119,81,85379,1,2,3:2:0:0:
33,126,85529,6,0,P|21:158|15:185,1,56.9999984779358,6|2,3:2|3:2,0:0:0:0:
69,260,85829,2,0,P|81:292|87:319,1,56.9999984779358,2|10,0:0|3:2,0:0:0:0:
172,358,86129,2,0,P|217:322|274:326,1,113.999996955872,2|10,0:0|3:2,0:0:0:0:
358,366,86579,1,2,3:2:0:0:
442,317,86729,6,0,P|457:255|478:184,1,113.999996955872,6|2,3:2|3:2,0:0:0:0:
512,121,87179,1,10,3:2:0:0:
512,121,87329,2,0,B|476:113|462:90|478:92|455:60|414:57,1,113.999996955872,2|10,0:0|3:2,0:0:0:0:
329,91,87779,1,8,3:2:0:0:
329,91,87854,1,8,3:2:0:0:
329,91,87929,6,0,L|246:70,1,60,10|10,3:2|3:2,0:0:0:0:
175,37,88223,2,0,L|104:49,1,60,10|8,3:2|3:2,0:0:0:0:
38,113,88517,1,10,3:2:0:0:
38,113,88664,1,10,3:2:0:0:
79,206,88811,2,0,L|56:287,1,60,8|8,3:2|3:3,0:0:0:0:
177,174,89105,6,0,B|217:183|217:183|246:215|246:215|295:230,1,120,6|8,3:2|3:2,0:0:0:0:
365,282,89555,2,0,L|485:256,1,120,10|8,3:2|3:3,0:0:0:0:
429,169,90005,2,0,L|352:184,1,60,8|8,3:3|3:3,0:0:0:0:
280,225,90305,1,8,3:2:0:0:
280,225,90455,1,2,3:2:0:0:
203,157,90605,2,0,P|155:127|81:148,1,120,6|10,3:2|3:2,0:0:0:0:
30,217,91055,1,10,3:2:0:0:
30,217,91130,1,8,3:2:0:0:
30,217,91205,2,0,L|41:263,3,30,10|8|8|8,3:2|3:2|3:2|3:2,0:0:0:0:
20,298,91529,6,0,B|62:301|89:339|67:337|92:372|135:374,1,138.000002632141,6|8,3:2|3:2,0:0:0:0:
207,316,91979,1,2,0:0:0:0:
299,344,92129,2,0,L|368:329,1,69.0000013160706,2|2,3:2|3:2,0:0:0:0:
463,339,92429,2,0,P|449:307|452:270,1,69.0000013160706,10|0,3:2|0:0,0:0:0:0:
503,192,92729,6,0,L|347:160,1,138.000002632141,2|8,3:2|3:2,0:0:0:0:
283,208,93179,1,2,0:0:0:0:
283,208,93329,2,0,P|272:173|256:136,1,69.0000013160706,2|0,3:2|3:2,0:0:0:0:
283,49,93629,1,10,3:2:0:0:
190,75,93779,1,2,0:0:0:0:
102,33,93929,6,0,P|44:39|6:111,2,138.000002632141,2|10|2,3:2|3:2|3:2,0:0:0:0:
190,75,94679,1,0,3:2:0:0:
190,75,94829,2,0,P|177:113|166:153,1,69.0000013160706,10|0,3:2|0:0,0:0:0:0:
119,223,95129,6,0,P|140:296|157:358,1,138.000002632141,2|8,3:2|3:2,0:0:0:0:
250,380,95579,1,2,0:0:0:0:
327,321,95729,2,0,P|362:311|400:305,1,69.0000013160706,2|2,3:2|3:2,0:0:0:0:
490,314,96029,2,0,P|487:278|459:229,1,69.0000013160706,10|0,3:2|0:0,0:0:0:0:
391,196,96329,6,0,P|325:180|244:165,1,138.000002632141,2|8,3:2|3:2,0:0:0:0:
161,191,96779,1,2,0:0:0:0:
188,91,96929,1,2,3:2:0:0:
188,91,97079,1,2,3:2:0:0:
126,0,97229,1,10,3:2:0:0:
302,79,97529,6,0,B|338:80|366:48|344:48|374:12|416:13,1,138.000002632141,2|8,3:2|3:2,0:0:0:0:
512,141,98129,2,0,P|488:214|468:280,1,138.000002632141,2|10,3:2|3:2,0:0:0:0:
402,346,98579,1,2,0:0:0:0:
301,313,98729,6,0,B|261:322|261:322|225:373|225:373|173:386,2,138.000002632141,2|10|2,3:2|3:2|3:2,0:0:0:0:
371,246,99479,1,0,3:2:0:0:
371,246,99629,2,0,P|369:207|337:165,1,69.0000013160706,10|0,3:2|0:0,0:0:0:0:
268,139,99929,6,0,L|119:114,1,138.000002632141,2|12,3:2|3:2,0:0:0:0:
39,103,100379,1,2,0:0:0:0:
39,103,100529,2,0,P|49:137|61:190,1,69.0000013160706,2|8,3:2|3:2,0:0:0:0:
112,249,100829,2,0,P|99:282|87:319,1,69.0000013160706,10|8,3:2|3:2,0:0:0:0:
164,374,101129,6,0,B|200:372|225:337|203:339|230:301|272:298,1,138.000002632141,6|8,3:2|3:2,0:0:0:0:
363,330,101579,1,2,0:0:0:0:
435,266,101729,2,0,P|426:234|420:193,1,69.0000013160706,2|2,3:2|3:2,0:0:0:0:
490,131,102029,1,10,3:2:0:0:
339,9,102329,6,0,B|299:18|299:18|265:70|265:70|223:82,1,138.000002632141,2|8,3:2|3:2,0:0:0:0:
142,43,102779,1,2,0:0:0:0:
65,101,102929,2,0,P|77:138|88:184,1,69.0000013160706,2|2,3:2|3:2,0:0:0:0:
72,263,103229,2,0,P|104:251|154:244,1,69.0000013160706,10|0,3:2|0:0,0:0:0:0:
218,298,103529,6,0,P|236:235|267:151,2,138.000002632141,2|10|2,3:2|3:2|3:2,0:0:0:0:
290,369,104279,1,0,3:2:0:0:
290,369,104429,2,0,P|322:370|362:346,1,69.0000013160706,10|0,3:2|0:0,0:0:0:0:
451,363,104729,6,0,P|429:303|406:225,1,138.000002632141,2|10,3:2|3:2,0:0:0:0:
502,63,105329,2,0,P|468:57|415:43,1,69.0000013160706,2|0,3:2|3:2,0:0:0:0:
349,2,105629,1,10,3:2:0:0:
197,122,105929,6,0,B|185:80|185:80|142:53|142:53|128:-3,2,138.000002632141,6|10|2,3:2|3:2|3:2,0:0:0:0:
218,216,106679,1,0,3:2:0:0:
295,157,106829,1,10,3:2:0:0:
295,157,106979,6,0,L|374:141,1,69.0000013160706,2|0,0:0|3:2,0:0:0:0:
444,92,107279,2,0,L|460:171,1,69.0000013160706,2|8,0:0|3:2,0:0:0:0:
506,243,107579,2,0,P|460:206|382:251,1,138.000002632141,2|0,0:0|3:2,0:0:0:0:
334,311,108029,1,10,3:2:0:0:
334,311,108179,1,2,0:0:0:0:
240,287,108329,6,0,B|200:283|169:319|192:313|164:352|122:355,1,138.000002632141,4|10,3:2|3:2,0:0:0:0:
45,301,108779,2,0,P|33:271|19:228,1,69.0000013160706,10|0,3:2|0:0,0:0:0:0:
47,142,109079,2,0,P|59:112|73:69,1,69.0000013160706,2|8,3:2|3:2,0:0:0:0:
141,11,109379,1,10,3:2:0:0:
221,73,109529,5,10,3:2:0:0:
221,73,109679,2,0,P|256:76|296:56,1,69.0000013160706,10|8,3:2|3:3,0:0:0:0:
366,9,109979,2,0,P|374:41|388:81,1,69.0000013160706,2|8,0:0|3:3,0:0:0:0:
448,155,110279,1,2,0:0:0:0:
448,155,110429,2,0,P|435:197|423:245,1,69.0000013160706,8|8,3:3|3:3,0:0:0:0:
407,314,110729,5,4,3:3:0:0:
82,75,128729,6,0,L|98:152,1,60,4|8,0:0|3:2,0:0:0:0:
51,219,129029,1,8,3:2:0:0:
128,275,129179,2,0,P|157:277|203:260,1,60,10|8,3:2|3:2,0:0:0:0:
263,211,129479,2,0,P|292:209|338:226,1,60,10|8,3:2|3:2,0:0:0:0:
410,164,129779,1,10,3:2:0:0:
410,164,129929,6,0,P|429:212|447:273,1,107.999996704102,4|8,3:2|3:2,0:0:0:0:
311,370,130529,1,2,3:2:0:0:
311,370,130679,2,0,P|302:342|284:298,1,53.9999983520508,2|8,0:0|3:2,0:0:0:0:
243,242,130979,6,0,P|198:218|107:292,1,161.999995056153,2|8,0:0|3:2,0:0:0:0:
47,342,131579,1,2,0:0:0:0:
12,262,131729,1,2,3:2:0:0:
12,262,131879,2,0,L|28:197,1,53.9999983520508,2|8,0:0|3:2,0:0:0:0:
79,135,132179,6,0,B|116:139|131:167|117:165|135:193|170:195,1,107.999996704102,2|2,0:0|3:2,0:0:0:0:
245,150,132629,1,10,3:2:0:0:
115,27,132929,1,2,3:2:0:0:
115,27,133079,2,0,P|143:17|187:13,1,53.9999983520508,2|8,0:0|3:2,0:0:0:0:
253,44,133379,6,0,P|306:30|374:19,1,107.999996704102,2|2,0:0|0:0,0:0:0:0:
498,114,133979,2,0,P|483:136|474:174,1,53.9999983520508,2|0,0:0|3:2,0:0:0:0:
454,253,134279,2,0,P|475:288|484:317,1,53.9999983520508,2|8,0:0|3:2,0:0:0:0:
406,365,134579,1,2,0:0:0:0:
406,365,134729,6,0,B|372:357|372:357|334:382|334:382|288:370,1,107.999996704102,4|8,3:2|3:2,0:0:0:0:
220,244,135329,1,2,3:2:0:0:
220,244,135479,2,0,P|237:213|265:190,1,53.9999983520508,2|8,0:0|3:2,0:0:0:0:
317,136,135779,6,0,P|286:88|185:94,1,161.999995056153,2|8,0:0|3:2,0:0:0:0:
118,148,136379,1,2,0:0:0:0:
43,103,136529,1,2,3:2:0:0:
43,103,136679,2,0,P|35:133|22:169,1,53.9999983520508,2|8,0:0|3:2,0:0:0:0:
5,243,136979,6,0,P|50:275|107:260,1,107.999996704102,2|2,0:0|3:2,0:0:0:0:
184,300,137429,2,0,P|209:289|240:279,1,53.9999983520508,10|0,3:2|3:2,0:0:0:0:
312,339,137729,1,2,3:2:0:0:
312,339,137879,2,0,P|319:317|336:285,1,53.9999983520508,2|8,0:0|3:2,0:0:0:0:
408,235,138179,6,0,P|392:183|376:117,1,107.999996704102,2|2,0:0|0:0,0:0:0:0:
272,26,138779,2,0,P|264:52|257:84,1,53.9999983520508,2|0,0:0|3:2,0:0:0:0:
206,155,139079,2,0,P|214:181|221:213,1,53.9999983520508,10|0,3:2|3:2,0:0:0:0:
286,279,139379,1,10,3:2:0:0:
286,279,139529,6,0,B|248:285|232:310|246:308|228:340|192:346,1,120,4|8,3:2|3:2,0:0:0:0:
31,283,140129,1,2,3:2:0:0:
31,283,140279,2,0,P|41:252|51:206,1,60,2|8,0:0|3:2,0:0:0:0:
10,136,140579,6,0,P|67:124|144:103,1,120,2|0,0:0|3:2,0:0:0:0:
219,83,141029,1,8,3:2:0:0:
334,197,141329,1,2,3:2:0:0:
334,197,141479,2,0,P|329:230|305:267,1,60,2|8,0:0|3:2,0:0:0:0:
243,315,141779,6,0,P|293:301|339:351,1,120,2|2,0:0|3:2,0:0:0:0:
429,384,142229,2,0,P|446:356|454:310,1,60,10|0,3:2|0:0,0:0:0:0:
507,251,142529,1,2,3:2:0:0:
507,251,142679,2,0,P|491:223|481:175,1,60,2|8,0:0|3:2,0:0:0:0:
423,120,142979,6,0,L|445:56,1,60,2|0,0:0|3:2,0:0:0:0:
366,4,143279,2,0,L|302:26,1,60,2|8,0:0|3:2,0:0:0:0:
213,33,143579,2,0,L|238:104,1,60,2|0,0:0|3:2,0:0:0:0:
266,185,143879,2,0,L|285:241,1,60,2|8,0:0|3:2,0:0:0:0:
218,318,144179,1,2,0:0:0:0:
218,318,144329,6,0,L|91:292,1,120,4|8,3:2|3:2,0:0:0:0:
169,168,144929,1,2,3:2:0:0:
169,168,145079,2,0,P|137:176|98:182,1,60,2|8,0:0|3:2,0:0:0:0:
9,193,145379,2,0,P|-11:132|32:79,1,120,2|0,0:0|3:2,0:0:0:0:
98,26,145829,2,0,P|130:35|162:50,1,60,8|2,3:2|0:0,0:0:0:0:
246,102,146129,1,2,3:2:0:0:
246,102,146279,2,0,P|293:69|363:68,1,120,2|0,0:0|0:0,0:0:0:0:
417,141,146729,5,10,3:2:0:0:
235,214,147190,1,10,3:2:0:0:
468,281,147652,1,10,3:2:0:0:
286,354,148113,1,10,3:2:0:0:
286,354,148575,2,0,P|278:325|269:294,1,48,10|10,3:2|3:2,0:0:0:0:
235,214,148875,6,0,L|259:109,1,90,4|0,3:2|0:0,0:0:0:0:
261,79,149175,6,0,P|242:62|211:52,1,48,2|0,0:0|0:0,0:0:0:0:
135,41,149460,2,0,P|110:48|86:70,1,48,2|0,0:0|0:0,0:0:0:0:
45,135,149757,2,0,P|39:159|46:191,1,48,2|0,0:0|0:0,0:0:0:0:
105,248,150042,2,0,L|91:306,1,48,2|0,0:0|0:0,0:0:0:0:
174,338,150342,2,0,L|185:384,2,48,2|0|2,0:0|0:0|0:0,0:0:0:0:
236,271,150800,2,0,L|288:281,1,48,0|2,0:0|0:0,0:0:0:0:
373,328,151088,5,0,3:2:0:0:
373,328,151232,2,0,L|442:311,1,51.0000009727478,10|0,3:2|3:2,0:0:0:0:
482,231,151521,5,10,3:2:0:0:
482,231,151671,2,0,L|451:103,1,107.999996704102,0|8,3:2|3:2,0:0:0:0:
435,29,152121,1,10,3:2:0:0:
435,29,152271,1,0,3:2:0:0:
337,62,152421,2,0,P|310:53|263:43,1,53.9999983520508,6|2,3:2|0:0,0:0:0:0:
175,81,152725,6,0,P|195:107|205:145,1,60,8|8,3:2|3:2,0:0:0:0:
147,224,153019,2,0,P|114:228|78:217,1,60,8|8,3:2|3:2,0:0:0:0:
76,119,153313,1,8,3:2:0:0:
76,119,153460,1,8,3:2:0:0:
270,242,153779,6,0,B|310:232|310:232|366:259|366:259|413:249,1,143.999995605469,4|2,3:3|3:2,0:0:0:0:
479,329,154229,2,0,L|389:351,1,71.9999978027344,10|0,3:2|0:0,0:0:0:0:
306,379,154529,2,0,P|247:343|158:357,1,143.999995605469,2|10,0:0|3:2,0:0:0:0:
71,381,154979,6,0,P|63:346|48:300,1,71.9999978027344,2|0,0:0|3:2,0:0:0:0:
15,210,155279,2,0,P|23:175|38:129,1,71.9999978027344,2|8,3:2|3:2,0:0:0:0:
120,76,155579,2,0,B|164:75|193:114|172:109|198:145|243:145,1,143.999995605469,2|0,0:0|3:2,0:0:0:0:
326,208,156029,1,8,3:2:0:0:
260,294,156179,6,0,P|324:254|397:276,1,143.999995605469,6|2,3:2|3:2,0:0:0:0:
477,327,156629,2,0,P|488:294|504:255,1,71.9999978027344,8|2,3:2|0:0,0:0:0:0:
498,150,156929,2,0,P|437:121|358:97,1,143.999995605469,2|10,0:0|3:2,0:0:0:0:
270,43,157379,6,0,P|235:55|197:67,1,71.9999978027344,2|0,0:0|3:2,0:0:0:0:
94,48,157679,2,0,P|109:81|123:123,1,71.9999978027344,2|8,3:2|3:2,0:0:0:0:
151,218,157979,2,0,P|115:278|151:352,1,143.999995605469,2|0,0:0|3:2,0:0:0:0:
240,381,158429,1,8,3:2:0:0:
392,227,158729,6,0,B|436:239|436:239|471:286|471:286|521:302,2,143.999995605469,6|10|2,3:2|3:2|0:0,0:0:0:0:
328,145,159479,1,0,3:2:0:0:
328,145,159629,2,0,L|355:65,1,71.9999978027344,8|2,3:2|0:0,0:0:0:0:
272,2,159929,6,0,P|203:-4|146:53,2,143.999995605469,2|10|2,3:2|3:2|0:0,0:0:0:0:
351,76,160679,1,0,3:2:0:0:
351,76,160829,2,0,L|324:156,1,71.9999978027344,10|2,3:2|0:0,0:0:0:0:
240,207,161129,6,0,P|171:187|90:167,1,143.999995605469,2|10,3:2|3:2,0:0:0:0:
18,369,161729,2,0,P|87:349|168:329,1,143.999995605469,2|4,3:2|3:2,0:0:0:0:
369,372,162329,6,0,L|357:325,3,35.9999989013672,10|8|8|8,3:2|3:2|3:2|3:2,0:0:0:0:
345,285,162629,2,0,L|357:238,3,35.9999989013672,8|8|8|8,3:2|3:2|3:2|3:2,0:0:0:0:
389,209,162929,2,0,L|375:130,1,71.9999978027344,10|8,3:2|3:2,0:0:0:0:
408,34,163229,1,8,3:2:0:0:
303,61,163379,6,0,B|263:49|263:49|200:75|200:75|147:62,1,143.999995605469,4|2,3:3|3:2,0:0:0:0:
62,39,163829,2,0,P|73:78|83:117,1,71.9999978027344,10|0,3:2|0:0,0:0:0:0:
67,216,164129,2,0,P|99:199|149:202,1,71.9999978027344,2|0,0:0|3:2,0:0:0:0:
208,283,164429,1,10,3:2:0:0:
208,283,164579,6,0,P|194:324|183:364,2,71.9999978027344,2|0|2,0:0|3:2|3:2,0:0:0:0:
302,231,165029,1,8,3:2:0:0:
234,147,165179,2,0,P|229:76|284:15,1,143.999995605469,2|0,0:0|3:2,0:0:0:0:
361,83,165629,1,8,3:2:0:0:
445,15,165779,6,0,B|460:53|460:53|444:113|444:113|462:156,1,143.999995605469,6|2,3:2|3:2,0:0:0:0:
503,249,166229,2,0,L|483:322,1,71.9999978027344,10|0,3:2|0:0,0:0:0:0:
390,372,166529,2,0,P|339:334|249:352,1,143.999995605469,2|10,0:0|3:2,0:0:0:0:
161,381,166979,6,0,P|139:353|131:307,1,71.9999978027344,2|0,0:0|3:2,0:0:0:0:
66,231,167279,2,0,P|88:203|96:157,1,71.9999978027344,2|8,3:2|3:2,0:0:0:0:
52,68,167579,2,0,P|100:116|189:101,1,143.999995605469,2|0,0:0|3:2,0:0:0:0:
254,42,168029,1,8,3:2:0:0:
395,205,168329,6,0,B|439:193|439:193|474:146|474:146|524:130,2,143.999995605469,6|10|2,3:2|3:2|0:0,0:0:0:0:
302,257,169079,1,0,3:2:0:0:
302,257,169229,2,0,L|230:242,1,71.9999978027344,8|2,3:2|0:0,0:0:0:0:
134,289,169529,6,0,P|91:244|11:250,2,143.999995605469,2|10|2,3:2|3:2|0:0,0:0:0:0:
202,378,170279,1,0,3:2:0:0:
202,378,170429,2,0,L|293:359,1,71.9999978027344,10|2,3:2|0:0,0:0:0:0:
379,380,170729,6,0,P|400:310|432:231,1,143.999995605469,2|8,3:2|3:2,0:0:0:0:
244,126,171329,2,0,P|270:193|291:261,1,143.999995605469,2|8,0:0|3:2,0:0:0:0:
454,120,171929,6,0,P|405:73|309:81,1,143.999995605469,2|8,3:2|3:2,0:0:0:0:
244,126,172379,1,2,3:2:0:0:
244,126,172529,2,0,L|152:108,1,71.9999978027344,10|0,3:2|3:2,0:0:0:0:
106,27,172829,1,10,3:2:0:0:
5,218,173129,6,0,B|43:230|43:230|75:285|75:285|122:301,1,143.999995605469,6|8,3:2|3:2,0:0:0:0:
206,241,173579,1,2,0:0:0:0:
206,241,173729,2,0,P|239:228|281:220,1,71.9999978027344,2|0,3:2|3:2,0:0:0:0:
357,290,174029,2,0,P|390:303|432:311,1,71.9999978027344,10|0,3:2|0:0,0:0:0:0:
504,236,174329,6,0,P|510:160|454:100,1,143.999995605469,2|8,3:2|3:2,0:0:0:0:
363,128,174779,2,0,P|330:115|285:101,1,71.9999978027344,2|0,0:0|0:0,0:0:0:0:
227,19,175079,1,2,3:2:0:0:
123,36,175229,1,10,3:2:0:0:
123,36,175379,1,2,0:0:0:0:
97,141,175529,6,0,P|64:257|54:301,1,143.999995605469,2|10,3:2|3:2,0:0:0:0:
252,376,176129,2,0,P|232:306|208:238,1,143.999995605469,2|10,3:2|3:2,0:0:0:0:
397,342,176729,6,0,P|416:272|440:204,1,143.999995605469,2|10,3:2|3:2,0:0:0:0:
387,115,177179,1,2,0:0:0:0:
387,115,177329,2,0,P|348:118|299:150,1,71.9999978027344,2|2,3:2|3:2,0:0:0:0:
248,207,177629,1,10,3:2:0:0:
70,83,177929,6,0,P|143:73|199:119,1,143.999995605469,6|8,3:2|3:2,0:0:0:0:
248,207,178379,1,2,0:0:0:0:
248,207,178529,2,0,P|235:247|221:294,1,71.9999978027344,2|2,3:2|3:2,0:0:0:0:
299,355,178829,2,0,P|338:355|378:335,1,71.9999978027344,10|0,3:2|0:0,0:0:0:0:
449,270,179129,6,0,P|432:201|417:129,1,143.999995605469,2|8,3:2|3:2,0:0:0:0:
450,26,179579,1,2,0:0:0:0:
346,55,179729,2,0,P|315:39|266:32,1,71.9999978027344,10|2,3:2|0:2,0:0:0:0:
187,91,180029,2,0,P|156:107|107:114,1,71.9999978027344,8|2,3:3|0:0,0:0:0:0:
6,83,180329,6,0,P|22:119|38:169,1,71.9999978027344,6|0,3:2|0:0,0:0:0:0:
101,233,180629,2,0,P|85:269|69:319,1,71.9999978027344,6|0,3:2|0:0,0:0:0:0:
160,365,180929,6,0,P|188:369|238:334,1,71.9999978027344,6|0,3:2|0:0,0:0:0:0:
257,247,181229,2,0,P|246:220|191:194,1,71.9999978027344,6|0,3:2|0:0,0:0:0:0:
153,104,181529,6,0,L|247:83,1,71.9999978027344,6|0,3:2|0:0,0:0:0:0:
317,35,181829,2,0,L|411:56,1,71.9999978027344,4|0,3:2|0:0,0:0:0:0:
467,131,182129,6,0,B|430:129|395:163|422:162|390:210|335:202,1,143.999995605469,10|8,3:2|3:2,0:0:0:0:
271,276,182579,1,2,0:0:0:0:
344,341,182729,6,0,P|406:354|477:377,2,132.00000402832,6|10|2,3:2|3:2|0:0,0:0:0:0:
271,276,183479,1,0,3:2:0:0:
271,276,183629,2,0,P|232:287|196:295,1,66.0000020141602,8|2,3:2|0:0,0:0:0:0:
123,344,183929,6,0,P|157:291|130:206,2,132.00000402832,2|10|2,3:2|3:2|0:0,0:0:0:0:
33,381,184679,1,0,3:2:0:0:
33,381,184829,2,0,P|27:351|17:309,1,66.0000020141602,10|0,3:2|0:0,0:0:0:0:
10,221,185129,5,2,3:2:0:0:
10,221,185279,2,0,P|18:188|34:135,1,66.0000020141602,2|8,0:0|3:2,0:0:0:0:
97,87,185579,2,0,P|164:72|242:58,1,132.00000402832,2|2,0:0|3:2,0:0:0:0:
310,112,186029,2,0,P|325:174|286:224,1,132.00000402832,10|0,3:2|3:2,0:0:0:0:
202,276,186479,5,0,3:2:0:0:
202,276,186629,2,0,P|216:313|224:347,1,66.0000020141602,10|0,3:2|0:0,0:0:0:0:
314,375,186929,2,0,P|343:356|398:356,1,66.0000020141602,2|0,0:0|3:2,0:0:0:0:
469,375,187229,1,10,3:2:0:0:
512,181,187529,6,0,B|477:170|477:170|443:125|443:125|387:109,2,132.00000402832,6|10|2,3:2|3:2|0:0,0:0:0:0:
473,274,188279,1,0,3:2:0:0:
473,274,188429,2,0,L|401:252,1,66.0000020141602,10|0,3:2|0:0,0:0:0:0:
325,201,188729,6,0,P|254:216|182:239,1,132.00000402832,0|10,3:2|3:2,0:0:0:0:
14,308,189329,1,2,0:0:0:0:
14,308,189479,1,0,3:2:0:0:
56,218,189629,2,0,P|48:186|37:151,1,66.0000020141602,10|0,3:2|3:2,0:0:0:0:
12,56,189929,6,0,P|60:21|146:24,1,143.999995605469,6|6,3:2|3:2,0:0:0:0:
228,73,190379,2,0,B|271:76|300:38|279:40|309:3|359:10,1,143.999995605469,8|0,3:2|3:2,0:0:0:0:
434,65,190829,2,0,P|421:105|411:140,1,71.9999978027344,8|2,3:2|0:0,0:0:0:0:
356,218,191129,5,6,3:2:0:0:
356,218,191279,2,0,P|382:243|392:290,1,71.9999978027344,10|0,3:2|0:0,0:0:0:0:
330,356,191579,2,0,P|281:337|161:303,1,143.999995605469,2|2,3:2|3:2,0:0:0:0:
107,364,192029,2,0,P|92:315|70:254,1,107.999996704102,14|0,3:2|0:0,0:0:0:0:
46,217,192329,6,0,P|54:183|64:139,1,60,6|0,3:2|0:0,0:0:0:0:
131,95,192629,2,0,P|181:83|249:73,1,120,10|0,3:2|0:0,0:0:0:0:
329,134,193079,1,2,3:2:0:0:
329,134,193229,2,0,P|343:169|353:204,1,60,10|0,3:2|0:0,0:0:0:0:
305,277,193529,5,2,3:2:0:0:
305,277,193679,1,0,3:2:0:0:
367,349,193829,2,0,P|397:351|430:339,1,60,10|0,3:2|0:0,0:0:0:0:
485,267,194129,1,2,3:2:0:0:
485,267,194279,1,0,3:2:0:0:
441,181,194429,2,0,P|450:152|461:124,1,60,10|0,3:2|0:0,0:0:0:0:
508,40,194729,6,0,P|483:28|445:29,1,60,0|0,3:2|0:0,0:0:0:0:
367,74,195029,2,0,P|314:58|226:42,1,120,10|0,3:2|0:0,0:0:0:0:
161,74,195479,1,2,3:2:0:0:
161,74,195629,2,0,P|127:64|87:56,1,60,10|2,3:2|0:0,0:0:0:0:
7,41,195929,5,0,3:2:0:0:
7,41,196079,1,0,3:2:0:0:
39,131,196229,2,0,L|23:197,1,60,10|8,3:2|3:2,0:0:0:0:
4,289,196529,2,0,P|34:287|76:308,1,60,10|10,3:2|3:2,0:0:0:0:
147,353,196829,2,0,P|177:355|219:334,1,60,10|10,3:2|3:2,0:0:0:0:
282,296,197129,6,0,P|268:249|243:185,2,96,6|2|8,3:2|0:0|3:2,0:0:0:0:
365,343,197879,1,2,0:0:0:0:
365,343,198029,1,2,0:0:0:0:
504,225,198329,2,0,P|495:197|482:164,1,48,0|0,0:0|3:2,0:0:0:0:
450,96,198629,6,0,P|416:66|350:70,1,96,2|8,0:0|3:2,0:0:0:0:
296,119,199079,1,2,3:2:0:0:
296,119,199229,1,2,0:0:0:0:
123,60,199529,6,0,P|77:46|14:29,2,96,2|2|8,3:2|0:0|3:2,0:0:0:0:
177,139,200279,1,2,0:0:0:0:
177,139,200429,1,2,0:0:0:0:
61,280,200729,6,0,P|84:272|121:264,1,48,0|0,0:0|3:2,0:0:0:0:
197,252,201029,2,0,P|238:281|297:264,1,96,2|10,0:0|3:2,0:0:0:0:
365,240,201479,1,0,3:2:0:0:
451,287,201629,6,0,B|458:260|458:260|484:245|484:245|492:212,1,83.9999974365235,6|0,3:2|0:0,0:0:0:0:
