osu file format v14

[General]
AudioFilename: audio.mp3
AudioLeadIn: 0
PreviewTime: 38886
Countdown: 0
SampleSet: Soft
StackLeniency: 0.7
Mode: 2
LetterboxInBreaks: 0
WidescreenStoryboard: 1

[Editor]
DistanceSpacing: 1.1
BeatDivisor: 4
GridSize: 4
TimelineZoom: 1.7

[Metadata]
Title:Desire (TV Size)
TitleUnicode:ディザイア (TV Size)
Artist:PELICAN FANCLUB
ArtistUnicode:PELICAN FANCLUB
Creator:rew0825
Version:Salad
Source:炎炎ノ消防隊 弐ノ章
Tags:Enen Enn no Shouboutai Ni no Shou Fire Force Brigade of Flames Season SS 2 ed ending anime japanese j-rock jrock rock male vocal
BeatmapID:2651899
BeatmapSetID:1276397

[Difficulty]
HPDrainRate:3
CircleSize:3.2
OverallDifficulty:7
ApproachRate:7
SliderMultiplier:1.28
SliderTickRate:1

[Events]
//Background and Video events
0,0,"BG.jpg",0,0
//Break Periods
//Storyboard Layer 0 (Background)
//Storyboard Layer 1 (Fail)
//Storyboard Layer 2 (Pass)
//Storyboard Layer 3 (Foreground)
//Storyboard Layer 4 (Overlay)
//Storyboard Sound Samples

[TimingPoints]
1074,315.789473684211,4,2,1,70,1,0
3600,312.5,4,2,1,70,1,0
4693,324.324324324325,4,2,1,70,1,0
5178,315.789473684211,4,2,1,70,1,0
6125,315.789473684211,4,2,1,55,1,0
9914,310.880829015545,4,2,1,55,1,0
11157,335.195530726257,4,2,1,60,1,0
11492,315.789473684211,4,2,1,60,1,0
12440,315.789473684211,4,2,1,60,1,0
16231,-100,4,2,1,65,0,0
26018,291.26213592233,4,2,1,65,1,0
26339,316.622691292876,4,2,1,70,1,0
27446,312.5,4,2,1,70,1,0
28696,316.622691292876,4,2,1,70,1,0
30754,315.789473684211,4,2,1,70,1,0
31386,315.789473684211,4,2,1,65,1,0
33916,-100,4,2,1,70,0,0
38964,-100,4,2,1,80,0,1
59179,-100,4,2,1,75,0,1
63596,289.855072463768,4,2,1,75,1,1
63885,342.857142857143,4,2,1,75,1,1
64228,315.789473684211,4,2,1,70,1,0
69258,322.58064516129,4,2,1,60,1,0
69895,322.58064516129,4,2,1,60,1,0
70547,315.789473684211,4,2,1,70,1,0
71494,296.296296296297,4,2,1,70,1,0
71790,335.195530726257,4,2,1,80,1,1
72125,315.789473684211,4,2,1,80,1,1
73072,315.789473684211,4,2,1,80,1,1
89335,-100,4,2,1,70,0,0
89810,-100,4,2,1,20,0,0

[Colours]
Combo1 : 211,99,75
Combo2 : 83,153,204
Combo3 : 214,151,73

[HitObjects]
152,304,1074,6,0,P|112:272|152:224,1,128,6|10,1:2|0:2,0:0:0:0:
288,224,1705,1,2,1:2:0:0:
296,152,1863,1,2,1:2:0:0:
224,152,2021,1,8,0:2:0:0:
216,224,2179,1,2,0:2:0:0:
296,224,2337,6,0,P|360:224|376:168,1,128,0|10,1:2|0:2,0:0:0:0:
240,168,2968,1,2,1:2:0:0:
312,168,3126,1,2,1:2:0:0:
352,120,3284,1,10,0:2:0:0:
312,64,3442,1,2,0:2:0:0:
232,168,3600,6,0,P|184:168|152:240,1,128,0|10,1:2|0:2,0:0:0:0:
288,232,4225,1,2,1:2:0:0:
360,232,4381,1,2,1:2:0:0:
288,232,4537,1,10,0:2:0:0:
128,232,4693,6,0,P|88:264|128:312,1,128,2|2,1:2|1:2,0:0:0:0:
200,312,5178,1,10,0:2:0:0:
336,312,5493,1,2,1:2:0:0:
404,312,5651,1,2,1:2:0:0:
336,312,5809,1,10,0:2:0:0:
80,312,6125,6,0,P|48:272|88:216,1,128,2|0,1:2|1:2,0:0:0:0:
160,184,6598,1,2,0:0:0:0:
296,184,6914,2,0,P|360:184|376:128,1,128,2|0,0:0|0:0,0:0:0:0:
304,128,7388,5,2,1:2:0:0:
168,128,7703,1,0,1:2:0:0:
96,128,7861,2,0,P|56:160|96:208,1,128,2|0,0:0|0:0,0:0:0:0:
168,208,8335,1,0,1:2:0:0:
320,208,8651,6,0,P|384:208|400:152,1,128,2|0,1:2|1:2,0:0:0:0:
328,152,9125,1,2,0:0:0:0:
192,152,9440,2,0,P|128:152|112:208,1,128,2|0,0:0|0:0,0:0:0:0:
184,208,9914,5,2,1:2:0:0:
328,208,10224,1,0,1:2:0:0:
184,208,10535,1,2,1:2:0:0:
112,208,10691,1,2,0:2:0:0:
184,208,10846,1,2,1:2:0:0:
420,112,11157,6,0,P|464:136|432:192,1,128,2|0,1:2|1:2,0:0:0:0:
360,192,11649,1,2,0:0:0:0:
224,192,11965,2,0,P|160:192|144:248,1,128,2|0,0:0|0:0,0:0:0:0:
224,248,12439,5,2,1:2:0:0:
360,248,12755,1,0,1:2:0:0:
432,248,12913,2,0,P|472:216|432:168,1,128,2|0,0:0|0:0,0:0:0:0:
360,168,13387,1,0,1:2:0:0:
104,168,13703,6,0,P|64:200|104:248,1,128,2|0,1:2|1:2,0:0:0:0:
176,248,14176,1,2,0:0:0:0:
316,248,14492,1,2,0:0:0:0:
176,248,14808,6,0,L|44:248,1,128,2|2,0:0|0:0,0:0:0:0:
188,248,15440,2,0,P|184:216|108:172,1,128,2|2,0:0|0:0,0:0:0:0:
44,172,15913,1,8,0:2:0:0:
300,168,16229,6,0,L|432:168,2,128,6|8|0,1:2|0:2|0:0,0:0:0:0:
160,168,17176,1,10,0:2:0:0:
416,168,17492,6,0,P|456:204|416:252,1,128,2|10,0:0|0:2,0:0:0:0:
348,252,17966,2,0,L|216:252,1,128,2|0,0:2|1:2,0:0:0:0:
376,252,18597,5,2,0:2:0:0:
448,252,18755,1,0,1:2:0:0:
376,252,18913,1,2,1:2:0:0:
236,252,19229,2,0,P|172:248|140:196,1,128,2|2,0:2|0:2,0:0:0:0:
296,196,19861,6,0,P|360:192|396:140,1,128,2|0,0:2|0:0,0:0:0:0:
256,140,20492,1,2,0:2:0:0:
396,140,20808,2,0,P|436:172|396:220,1,128,2|0,1:2|0:0,0:0:0:0:
232,220,21282,6,0,L|96:220,1,128,2|10,1:2|0:2,0:0:0:0:
176,220,21755,1,2,0:2:0:0:
316,216,22071,2,0,P|356:184|316:136,1,128,2|0,0:2|0:0,0:0:0:0:
240,136,22545,6,0,L|112:136,1,128,2|10,0:0|0:2,0:0:0:0:
184,136,23018,1,2,0:2:0:0:
324,136,23334,1,0,1:2:0:0:
396,136,23492,1,8,0:2:0:0:
140,136,23808,6,0,P|96:160|140:200,1,128,2|10,1:2|0:2,0:0:0:0:
212,200,24282,2,0,L|80:200,1,128,2|2,0:2|0:2,0:0:0:0:
156,200,24755,1,8,0:2:0:0:
412,204,25071,6,0,P|452:172|412:124,1,128,0|8,1:2|0:2,0:0:0:0:
340,124,25545,1,8,0:2:0:0:
264,124,25703,2,0,L|396:124,1,128,0|10,1:2|0:2,0:0:0:0:
320,124,26163,1,0,0:0:0:0:
160,124,26339,5,6,1:2:0:0:
152,196,26497,1,2,1:2:0:0:
292,196,26813,1,2,1:2:0:0:
364,196,26972,2,0,P|408:220|364:260,1,128,2|10,1:2|1:2,0:0:0:0:
292,260,27446,1,2,1:2:0:0:
152,260,27758,5,2,1:2:0:0:
144,188,27914,1,10,1:2:0:0:
284,188,28227,1,2,1:2:0:0:
356,188,28383,1,2,1:2:0:0:
284,188,28539,1,10,0:0:0:0:
124,188,28696,6,0,P|84:152|128:108,1,128,6|2,1:2|1:2,0:0:0:0:
268,108,29329,1,2,1:2:0:0:
192,108,29487,2,0,L|120:108,2,64,2|0|2,1:2|0:0|1:2,0:0:0:0:
352,108,29962,6,0,P|392:136|352:188,1,128,2|2,1:2|1:2,0:0:0:0:
212,188,30595,1,8,0:0:0:0:
136,188,30754,1,0,1:2:0:0:
32,188,30990,1,8,0:3:0:0:
136,188,31227,1,4,0:3:0:0:
296,188,31386,6,0,P|392:184|432:104,1,192,2|2,1:2|1:2,0:0:0:0:
220,108,32333,2,0,P|124:112|84:192,1,192,2|2,1:2|1:2,0:0:0:0:
296,188,33280,5,2,1:2:0:0:
224,188,33438,1,2,1:2:0:0:
300,188,33596,1,12,0:0:0:0:
308,260,33754,1,2,0:0:0:0:
148,260,33912,6,0,P|108:228|148:180,1,128,6|8,1:2|0:0,0:0:0:0:
220,180,34386,1,2,1:2:0:0:
296,180,34543,2,0,P|336:148|296:100,1,128,2|0,0:0|1:2,0:0:0:0:
224,100,35017,1,10,0:0:0:0:
64,100,35175,6,0,P|68:132|148:160,1,128,2|8,1:2|0:0,0:0:0:0:
220,160,35649,1,2,1:2:0:0:
144,160,35807,2,0,P|76:164|48:216,1,128,2|0,0:0|1:2,0:0:0:0:
304,212,36438,6,0,P|344:180|304:132,1,128,6|8,1:2|0:0,0:0:0:0:
232,132,36912,1,2,1:2:0:0:
308,132,37070,2,0,P|372:128|400:76,1,128,2|0,0:0|1:2,0:0:0:0:
144,80,37701,5,14,0:0:0:0:
72,88,37859,1,0,1:2:0:0:
32,148,38017,1,10,0:0:0:0:
72,88,38175,1,0,1:2:0:0:
144,80,38333,1,10,0:0:0:0:
72,88,38491,1,0,1:2:0:0:
408,96,38964,6,0,P|448:136|408:180,1,128,6|10,1:2|0:0,0:0:0:0:
268,180,39596,1,2,1:2:0:0:
340,180,39754,1,0,1:2:0:0:
412,180,39912,1,10,0:0:0:0:
156,180,40228,6,0,P|116:212|156:260,1,128,2|8,1:2|0:0,0:0:0:0:
228,260,40701,1,2,0:0:0:0:
304,260,40859,2,0,P|360:260|384:324,1,128,2|8,1:2|0:0,0:0:0:0:
128,320,41491,6,0,P|88:288|128:240,1,128,6|10,1:2|0:0,0:0:0:0:
268,240,42122,1,2,1:2:0:0:
196,240,42280,1,0,1:2:0:0:
124,240,42438,1,10,0:0:0:0:
380,240,42754,6,0,P|420:208|380:160,1,128,2|8,1:2|0:0,0:0:0:0:
308,160,43228,1,2,0:0:0:0:
228,160,43386,2,0,L|92:160,1,128,2|8,1:2|0:0,0:0:0:0:
356,160,44017,6,0,P|396:128|356:80,1,128,6|10,1:2|0:0,0:0:0:0:
276,80,44491,2,0,L|412:80,1,128,2|0,0:0|1:2,0:0:0:0:
332,80,44964,1,10,0:0:0:0:
172,80,45122,6,0,P|132:112|172:160,1,128,2|0,0:0|1:2,0:0:0:0:
244,160,45596,1,10,0:0:0:0:
320,160,45754,2,0,P|384:164|412:216,1,128,2|0,0:0|1:2,0:0:0:0:
340,216,46228,1,10,0:0:0:0:
84,216,46543,6,0,P|88:184|168:152,1,128,6|8,1:2|0:0,0:0:0:0:
240,152,47017,1,2,0:0:0:0:
164,152,47175,2,0,P|100:148|68:96,1,128,2|8,1:2|0:0,0:0:0:0:
140,100,47649,1,2,0:0:0:0:
300,100,47807,6,0,P|364:96|408:52,1,128,6|8,1:2|0:0,0:0:0:0:
336,52,48280,1,10,0:0:0:0:
176,52,48438,2,0,P|108:56|68:104,1,128,2|8,1:2|0:0,0:0:0:0:
328,104,49070,6,0,P|392:108|424:160,1,128,6|10,1:2|0:0,0:0:0:0:
284,160,49701,1,2,1:2:0:0:
356,160,49859,1,0,1:2:0:0:
424,160,50017,1,10,0:0:0:0:
168,160,50333,6,0,P|128:204|168:248,1,128,2|8,1:2|0:0,0:0:0:0:
236,248,50807,1,2,0:0:0:0:
312,248,50964,2,0,L|456:248,1,128,2|8,1:2|0:0,0:0:0:0:
184,248,51596,6,0,P|120:244|88:192,1,128,6|10,1:2|0:0,0:0:0:0:
228,192,52228,1,2,1:2:0:0:
156,192,52386,1,0,1:2:0:0:
84,192,52543,1,10,0:0:0:0:
340,192,52859,6,0,P|380:160|340:112,1,128,2|8,1:2|0:0,0:0:0:0:
260,112,53333,1,2,0:0:0:0:
340,112,53491,2,0,P|396:112|420:48,1,128,2|8,1:2|0:0,0:0:0:0:
164,52,54122,6,0,P|124:84|164:132,1,128,6|10,1:2|0:0,0:0:0:0:
244,132,54596,2,0,L|376:132,1,128,2|0,0:0|1:2,0:0:0:0:
300,132,55070,1,10,0:0:0:0:
140,132,55228,6,0,P|100:164|140:212,1,128,2|0,0:0|1:2,0:0:0:0:
212,212,55701,1,10,0:0:0:0:
288,212,55859,2,0,P|284:244|204:280,1,128,2|0,0:0|1:2,0:0:0:0:
136,280,56333,1,10,0:0:0:0:
392,280,56649,6,0,P|428:228|388:188,1,128,6|10,1:2|0:0,0:0:0:0:
248,188,57280,1,2,1:2:0:0:
320,188,57438,1,0,1:2:0:0:
392,188,57596,1,10,0:0:0:0:
136,188,57912,6,0,P|100:148|140:96,1,128,2|8,1:2|0:0,0:0:0:0:
280,96,58543,1,10,0:0:0:0:
352,96,58701,1,0,1:2:0:0:
344,164,58859,1,8,0:0:0:0:
272,164,59017,1,10,0:2:0:0:
112,232,59175,6,0,P|72:200|112:152,1,128,4|8,1:2|0:0,0:0:0:0:
256,152,59807,2,0,P|296:120|256:72,1,128,2|8,1:2|0:0,0:0:0:0:
184,72,60280,1,2,0:0:0:0:
264,72,60438,6,0,L|400:72,1,128,0|8,1:2|0:0,0:0:0:0:
255,71,61070,2,0,P|215:103|255:151,1,128,2|8,1:2|0:0,0:0:0:0:
328,152,61543,1,2,0:0:0:0:
248,152,61701,6,0,L|116:152,1,128,0|8,1:2|0:0,0:0:0:0:
376,152,62333,2,0,P|440:156|464:208,1,128,2|8,1:2|0:0,0:0:0:0:
392,208,62807,1,2,0:0:0:0:
232,208,62964,5,0,1:2:0:0:
160,208,63122,1,8,0:0:0:0:
244,208,63280,1,12,0:0:0:0:
384,180,63596,5,2,1:2:0:0:
456,180,63740,1,8,0:0:0:0:
448,112,63885,1,2,1:2:0:0:
376,112,64056,1,8,0:0:0:0:
216,112,64228,6,0,L|88:112,1,128,4|0,1:2|0:0,0:0:0:0:
232,112,64859,1,10,0:0:0:0:
304,112,65017,1,0,1:2:0:0:
160,112,65333,1,2,0:0:0:0:
88,112,65491,6,0,L|216:112,1,128,0|0,1:2|1:2,0:0:0:0:
368,112,66122,1,10,0:0:0:0:
440,112,66280,2,0,L|312:112,1,128,0|2,1:2|0:0,0:0:0:0:
232,112,66754,6,0,P|192:144|232:192,1,128,0|0,1:2|0:0,0:0:0:0:
376,192,67385,1,10,0:0:0:0:
448,192,67543,1,0,1:2:0:0:
192,192,67859,6,0,P|152:224|192:272,1,128,10|0,0:0|1:2,0:0:0:0:
264,272,68333,1,0,1:2:0:0:
184,272,68491,2,0,P|120:272|76:228,1,128,2|0,0:0|1:2,0:0:0:0:
148,276,68964,1,2,0:0:0:0:
380,276,69258,6,0,P|412:228|372:180,1,128,2|2,0:0|0:0,0:0:0:0:
228,180,69895,1,2,0:0:0:0:
376,180,70217,1,2,0:0:0:0:
108,180,70547,5,2,1:2:0:0:
36,180,70704,1,0,1:2:0:0:
44,108,70862,1,8,0:0:0:0:
116,108,71020,1,0,1:2:0:0:
276,108,71178,1,10,0:0:0:0:
284,36,71336,1,0,1:2:0:0:
204,36,71494,1,8,0:0:0:0:
196,108,71642,1,8,0:0:0:0:
356,108,71790,6,0,P|420:112|452:168,1,128,6|10,1:2|0:0,0:0:0:0:
312,164,72440,1,2,1:2:0:0:
384,164,72598,1,0,1:2:0:0:
456,164,72756,1,10,0:0:0:0:
200,164,73072,6,0,P|160:196|200:244,1,128,2|8,1:2|0:0,0:0:0:0:
272,244,73545,1,2,0:0:0:0:
352,244,73703,2,0,P|408:244|432:308,1,128,2|8,1:2|0:0,0:0:0:0:
176,300,74335,6,0,P|136:268|176:220,1,128,6|10,1:2|0:0,0:0:0:0:
256,220,74808,2,0,L|128:220,1,128,2|0,0:0|1:2,0:0:0:0:
200,220,75282,1,10,0:0:0:0:
360,220,75440,6,0,P|400:188|360:140,1,128,2|0,0:0|1:2,0:0:0:0:
288,140,75914,1,10,0:0:0:0:
368,140,76072,2,0,P|436:136|464:84,1,128,2|0,0:0|1:2,0:0:0:0:
392,88,76545,1,10,0:0:0:0:
136,84,76861,6,0,P|96:120|136:168,1,128,6|8,1:2|0:0,0:0:0:0:
208,168,77335,1,2,0:0:0:0:
284,168,77493,2,0,P|348:172|372:228,1,128,2|8,1:2|0:0,0:0:0:0:
116,224,78124,6,0,P|76:188|120:144,1,128,6|8,1:2|0:0,0:0:0:0:
188,144,78598,1,10,0:0:0:0:
348,144,78756,2,0,P|416:148|440:196,1,128,2|8,1:2|0:0,0:0:0:0:
368,200,79229,1,0,1:2:0:0:
208,200,79387,5,2,1:2:0:0:
204,128,79545,1,0,0:0:0:0:
364,128,79703,2,0,L|496:128,2,128,14|2|10,0:0|1:2|0:0,0:0:0:0:
108,124,80650,6,0,P|68:156|108:204,1,128,2|8,1:2|0:0,0:0:0:0:
180,204,81124,1,2,0:0:0:0:
260,204,81282,2,0,P|316:212|340:276,1,128,2|8,1:2|0:0,0:0:0:0:
88,276,81914,6,0,P|52:236|96:188,1,128,2|10,1:2|0:0,0:0:0:0:
236,188,82545,1,2,1:2:0:0:
96,188,82861,1,10,0:0:0:0:
352,192,83177,6,0,P|392:224|352:272,1,128,2|0,1:2|0:0,0:0:0:0:
280,272,83650,1,8,0:0:0:0:
360,272,83808,2,0,P|424:268|452:216,1,128,2|8,1:2|0:0,0:0:0:0:
196,208,84440,6,0,P|156:176|196:128,1,128,6|8,1:2|0:0,0:0:0:0:
276,128,84914,2,0,L|412:128,1,128,2|0,0:0|1:2,0:0:0:0:
332,128,85387,1,10,0:0:0:0:
172,128,85545,6,0,P|132:96|172:48,1,128,2|0,0:0|1:2,0:0:0:0:
244,48,86019,1,10,0:0:0:0:
320,48,86177,2,0,P|384:56|412:112,1,128,2|0,0:0|1:2,0:0:0:0:
340,108,86650,1,8,0:0:0:0:
84,108,86966,6,0,P|48:160|88:200,1,128,6|10,1:2|0:0,0:0:0:0:
240,200,87598,2,0,L|384:200,1,128,2|10,1:2|0:0,0:0:0:0:
296,200,88072,1,2,0:0:0:0:
136,200,88229,6,0,P|100:160|144:108,1,128,2|12,1:2|0:0,0:0:0:0:
208,108,88703,1,2,0:0:0:0:
368,108,88861,1,10,0:0:0:0:
440,108,89019,1,0,1:2:0:0:
368,108,89177,1,0,1:2:0:0:
208,108,89335,6,0,P|128:116|88:212,1,192,6|0,1:2|0:0,0:0:0:0:
