osu file format v14

[General]
AudioFilename: audio.mp3
AudioLeadIn: 0
PreviewTime: 38886
Countdown: 0
SampleSet: Soft
StackLeniency: 0.7
Mode: 2
LetterboxInBreaks: 0
WidescreenStoryboard: 1

[Editor]
DistanceSpacing: 2.4
BeatDivisor: 4
GridSize: 4
TimelineZoom: 1.7

[Metadata]
Title:Desire (TV Size)
TitleUnicode:ディザイア (TV Size)
Artist:PELICAN FANCLUB
ArtistUnicode:PELICAN FANCLUB
Creator:rew0825
Version:Infernal
Source:炎炎ノ消防隊 弐ノ章
Tags:Enen Enn no Shouboutai Ni no Shou Fire Force Brigade of Flames Season SS 2 ed ending anime japanese j-rock jrock rock male vocal
BeatmapID:2666041
BeatmapSetID:1276397

[Difficulty]
HPDrainRate:6
CircleSize:5
OverallDifficulty:9.4
ApproachRate:9.4
SliderMultiplier:2.16
SliderTickRate:2

[Events]
//Background and Video events
0,0,"BG.jpg",0,0
//Break Periods
//Storyboard Layer 0 (Background)
//Storyboard Layer 1 (Fail)
//Storyboard Layer 2 (Pass)
//Storyboard Layer 3 (Foreground)
//Storyboard Layer 4 (Overlay)
//Storyboard Sound Samples

[TimingPoints]
1074,315.789473684211,4,2,1,70,1,0
3600,312.5,4,2,1,70,1,0
4693,324.324324324325,4,2,1,70,1,0
5178,315.789473684211,4,2,1,70,1,0
6125,315.789473684211,4,2,1,55,1,0
7072,-100,4,2,3,45,0,0
7151,-100,4,2,1,55,0,0
8019,-100,4,2,3,45,0,0
8098,-100,4,2,1,55,0,0
9598,-100,4,2,3,45,0,0
9677,-100,4,2,1,55,0,0
9914,310.880829015545,4,2,1,55,1,0
11157,335.195530726257,4,2,1,60,1,0
11492,315.789473684211,4,2,1,60,1,0
12440,315.789473684211,4,2,1,60,1,0
16229,-100,4,2,1,65,0,0
20966,-100,4,2,2,55,0,0
21045,-100,4,2,1,65,0,0
22229,-100,4,2,2,55,0,0
22308,-100,4,2,1,65,0,0
26018,291.26213592233,4,2,1,65,1,0
26339,316.622691292876,4,2,1,70,1,0
27446,312.5,4,2,1,70,1,0
28696,316.622691292876,4,2,1,70,1,0
30754,315.789473684211,4,2,1,70,1,0
31386,315.789473684211,4,2,1,65,1,0
33912,-100,4,2,1,70,0,0
34070,-100,4,2,3,60,0,0
34149,-100,4,2,1,70,0,0
35333,-100,4,2,3,60,0,0
35412,-100,4,2,1,70,0,0
36596,-100,4,2,3,60,0,0
36675,-100,4,2,1,70,0,0
38964,-100,4,2,1,80,0,1
40386,-100,4,2,3,70,0,1
40464,-100,4,2,1,80,0,1
42912,-100,4,2,3,70,0,1
42991,-100,4,2,1,80,0,1
44649,-100,4,2,3,70,0,1
44728,-100,4,2,1,80,0,1
45280,-100,4,2,3,70,0,1
45359,-100,4,2,1,80,0,1
45912,-100,4,2,3,70,0,1
45991,-100,4,2,1,80,0,1
47333,-100,4,2,3,70,0,1
47412,-100,4,2,1,80,0,1
50491,-100,4,2,3,70,0,1
50570,-100,4,2,1,80,0,1
53017,-100,4,2,3,70,0,1
53096,-100,4,2,1,80,0,1
54754,-100,4,2,3,70,0,1
54833,-100,4,2,1,80,0,1
55386,-100,4,2,3,70,0,1
55464,-100,4,2,1,80,0,1
56017,-100,4,2,3,70,0,1
56096,-100,4,2,1,80,0,1
59175,-100,4,2,1,75,0,1
63596,289.855072463768,4,2,1,75,1,1
63885,342.857142857143,4,2,1,75,1,1
64228,315.789473684211,4,2,1,70,1,0
67543,-100,4,2,3,60,0,0
67622,-100,4,2,1,70,0,0
68649,-100,4,2,2,60,0,0
68728,-100,4,2,1,70,0,0
69258,322.58064516129,4,2,1,60,1,0
69895,322.58064516129,4,2,1,60,1,0
70547,315.789473684211,4,2,1,70,1,0
71494,296.296296296297,4,2,1,70,1,0
71790,335.195530726257,4,2,1,80,1,1
72125,315.789473684211,4,2,1,80,1,1
73072,315.789473684211,4,2,1,80,1,1
73229,-100,4,2,3,70,0,1
73308,-100,4,2,1,80,0,1
74966,-100,4,2,3,70,0,1
75045,-100,4,2,1,80,0,1
75598,-100,4,2,3,70,0,1
75677,-100,4,2,1,80,0,1
76229,-100,4,2,3,70,0,1
76308,-100,4,2,1,80,0,1
85703,-100,4,2,3,70,0,1
85782,-100,4,2,1,80,0,1
89335,-100,4,2,1,70,0,0
89808,-100,4,2,1,20,0,0

[Colours]
Combo1 : 211,99,75
Combo2 : 83,153,204
Combo3 : 214,151,73

[HitObjects]
192,312,1074,6,0,L|184:200,1,108,6|2,1:2|1:2,0:0:0:0:
328,200,1389,2,0,L|336:88,1,108,10|2,0:2|0:2,0:0:0:0:
120,88,1705,2,0,L|112:200,1,108,2|2,1:2|1:2,0:0:0:0:
256,192,2021,1,8,0:2:0:0:
112,192,2179,1,2,0:2:0:0:
368,192,2337,6,0,L|256:192,1,108,0|2,1:2|1:2,0:0:0:0:
120,192,2652,2,0,L|232:192,1,108,10|2,0:2|0:2,0:0:0:0:
448,192,2968,2,0,L|456:80,1,108,2|2,1:2|1:2,0:0:0:0:
312,80,3284,1,10,0:2:0:0:
456,80,3442,1,2,0:2:0:0:
200,80,3600,6,0,L|192:192,1,108,0|2,1:2|1:2,0:0:0:0:
336,192,3912,2,0,L|344:304,1,108,10|2,0:2|0:2,0:0:0:0:
128,304,4225,1,2,1:2:0:0:
272,304,4381,1,2,1:2:0:0:
128,304,4537,1,10,0:2:0:0:
384,304,4693,6,0,P|456:264|384:192,1,216,2|2,1:2|1:2,0:0:0:0:
240,192,5179,1,10,0:2:0:0:
384,192,5335,1,2,0:2:0:0:
168,192,5493,1,2,1:2:0:0:
304,192,5651,1,2,1:2:0:0:
88,192,5809,2,0,L|80:80,1,108,10|2,0:2|0:2,0:0:0:0:
344,80,6125,6,0,P|416:120|344:192,1,216,2|0,1:2|1:2,0:0:0:0:
200,192,6598,2,0,L|192:304,1,108,2|0,0:0|1:2,0:0:0:0:
336,304,6914,2,0,P|448:304|472:216,1,216,2|0,0:0|0:0,0:0:0:0:
256,216,7388,6,0,P|184:176|256:104,1,216,2|0,1:2|1:2,0:0:0:0:
400,104,7861,2,0,L|176:104,1,216,2|0,0:0|0:0,0:0:0:0:
328,104,8335,2,0,L|336:216,1,108,0|0,1:2|0:0,0:0:0:0:
80,208,8651,6,0,P|104:296|216:296,1,216,2|0,1:2|1:2,0:0:0:0:
352,296,9125,2,0,L|360:184,1,108,2|0,0:0|1:2,0:0:0:0:
216,192,9440,2,0,P|144:152|216:80,1,216,2|0,0:0|0:0,0:0:0:0:
432,80,9914,6,0,L|208:80,1,216,2|0,1:2|1:2,0:0:0:0:
360,80,10380,2,0,L|368:136,1,54,0|0,0:0|0:0,0:0:0:0:
232,136,10535,1,2,1:2:0:0:
88,136,10691,1,2,0:2:0:0:
232,136,10846,1,2,1:2:0:0:
88,136,11002,1,2,0:2:0:0:
392,136,11157,6,0,P|464:176|392:248,1,216,2|0,1:2|1:2,0:0:0:0:
248,248,11649,2,0,L|240:128,1,108,2|0,0:0|1:2,0:0:0:0:
384,144,11965,1,2,0:0:0:0:
240,144,12123,2,0,L|120:144,1,108,0|0,1:2|0:0,0:0:0:0:
352,144,12440,6,0,P|424:184|352:256,1,216,2|0,1:2|1:2,0:0:0:0:
208,256,12913,1,2,0:0:0:0:
352,256,13071,2,0,L|360:368,1,108,0|0,1:2|0:0,0:0:0:0:
216,360,13387,2,0,L|208:248,1,108,0|0,1:2|0:0,0:0:0:0:
472,248,13703,6,0,L|248:248,1,216,2|0,1:2|1:2,0:0:0:0:
404,248,14176,2,0,L|412:360,1,108,2|0,0:0|1:2,0:0:0:0:
264,360,14492,2,0,L|256:248,1,108,2|0,0:0|1:2,0:0:0:0:
400,248,14808,1,2,0:0:0:0:
184,248,14966,5,0,1:2:0:0:
328,248,15124,2,0,L|336:136,1,108,2|0,0:0|1:2,0:0:0:0:
192,136,15440,2,0,L|304:136,1,108,2|0,0:0|1:2,0:0:0:0:
440,136,15755,1,2,0:0:0:0:
224,136,15913,1,8,0:2:0:0:
84,136,16071,1,2,0:0:0:0:
376,144,16229,5,6,1:2:0:0:
240,144,16387,1,0,1:2:0:0:
376,144,16545,2,0,L|384:256,1,108,8|0,0:2|0:0,0:0:0:0:
240,256,16861,2,0,L|232:368,1,108,0|0,0:0|0:0,0:0:0:0:
448,360,17176,2,0,L|456:248,1,108,10|0,0:2|0:0,0:0:0:0:
240,256,17492,6,0,P|128:256|104:168,1,216,2|10,0:0|0:2,0:0:0:0:
240,168,17966,2,0,L|464:168,1,216,2|0,0:2|1:2,0:0:0:0:
312,168,18440,1,8,0:2:0:0:
56,168,18597,5,2,0:2:0:0:
200,168,18755,1,0,1:2:0:0:
56,168,18913,2,0,L|176:168,1,108,2|8,1:2|0:2,0:0:0:0:
304,168,19229,2,0,L|312:56,1,108,2|0,0:2|0:0,0:0:0:0:
96,56,19545,2,0,L|224:56,1,108,2|8,0:2|0:2,0:0:0:0:
424,56,19861,6,0,L|208:56,1,216,2|0,0:2|0:0,0:0:0:0:
352,56,20334,1,8,0:2:0:0:
208,56,20492,2,0,L|200:168,1,108,2|0,0:2|0:0,0:0:0:0:
416,168,20808,2,0,P|488:208|416:280,1,216,2|0,1:2|0:0,0:0:0:0:
152,280,21282,6,0,L|144:168,1,108,2|0,1:2|1:2,0:0:0:0:
288,168,21597,1,10,0:2:0:0:
144,168,21755,2,0,L|256:168,1,108,2|0,0:2|0:0,0:0:0:0:
392,168,22071,2,0,P|464:128|392:56,1,216,2|0,0:2|0:0,0:0:0:0:
176,64,22545,6,0,L|168:176,1,108,2|0,0:0|0:0,0:0:0:0:
312,168,22861,1,10,0:2:0:0:
168,168,23018,2,0,L|392:168,1,216,2|0,0:2|1:2,0:0:0:0:
240,168,23492,1,8,0:2:0:0:
384,168,23650,1,2,0:2:0:0:
128,168,23808,6,0,L|120:280,1,108,2|0,1:2|1:2,0:0:0:0:
264,272,24124,1,10,0:2:0:0:
120,272,24282,2,0,P|80:216|184:176,1,216,2|2,0:2|0:2,0:0:0:0:
400,176,24755,2,0,L|408:64,1,108,8|0,0:2|0:0,0:0:0:0:
144,64,25071,6,0,P|112:104|144:144,1,108,0|0,1:2|1:2,0:0:0:0:
200,144,25308,1,0,1:2:0:0:
288,144,25387,2,0,P|320:184|288:224,1,108,8|8,0:2|0:2,0:0:0:0:
232,224,25624,1,8,0:2:0:0:
72,224,25703,2,0,L|64:336,1,108,0|0,1:2|1:2,0:0:0:0:
280,336,26018,1,10,0:2:0:0:
328,336,26090,1,0,0:0:0:0:
192,336,26163,1,0,0:0:0:0:
144,336,26236,1,0,0:0:0:0:
336,336,26339,5,6,1:2:0:0:
196,336,26497,2,0,L|204:228,1,108,2|8,1:2|0:0,0:0:0:0:
344,228,26813,1,2,1:2:0:0:
128,228,26972,1,2,1:2:0:0:
272,228,27130,1,0,0:0:0:0:
56,228,27288,1,10,1:2:0:0:
196,228,27446,6,0,L|188:120,1,108,2|0,1:2|0:0,0:0:0:0:
48,120,27758,1,2,1:2:0:0:
264,336,27914,1,10,1:2:0:0:
408,336,28071,1,0,0:0:0:0:
176,336,28227,1,2,1:2:0:0:
320,336,28383,1,2,1:2:0:0:
464,336,28539,1,10,0:0:0:0:
160,336,28696,6,0,L|392:336,1,216,6|2,1:2|1:2,0:0:0:0:
232,336,29170,1,8,0:0:0:0:
376,336,29329,1,2,1:2:0:0:
160,336,29487,1,2,1:2:0:0:
304,336,29645,1,0,0:0:0:0:
160,336,29804,1,2,1:2:0:0:
376,336,29962,6,0,L|384:224,1,108,2|0,1:2|0:0,0:0:0:0:
120,224,30279,1,2,1:2:0:0:
264,224,30437,1,10,1:2:0:0:
120,224,30595,1,8,0:0:0:0:
112,168,30674,1,8,0:0:0:0:
248,168,30754,2,0,L|376:168,1,108,0|0,1:2|0:0,0:0:0:0:
264,168,30990,2,0,L|136:168,1,108,8|0,0:3|0:0,0:0:0:0:
288,168,31227,2,0,L|352:168,1,54,4|0,0:3|0:0,0:0:0:0:
176,168,31386,6,0,P|104:208|176:280,1,216,2|0,1:2|0:0,0:0:0:0:
320,280,31859,2,0,L|96:280,1,216,2|0,1:2|0:0,0:0:0:0:
320,280,32333,6,0,P|392:240|320:168,1,216,2|0,1:2|0:0,0:0:0:0:
176,168,32807,2,0,P|72:168|48:72,1,216,2|2,1:2|0:0,0:0:0:0:
264,72,33280,1,2,1:2:0:0:
120,72,33438,2,0,L|112:128,1,54,2|0,1:2|1:2,0:0:0:0:
304,128,33596,1,12,0:0:0:0:
176,128,33754,1,2,0:0:0:0:
464,128,33912,6,0,P|464:192|336:216,1,216,6|8,1:2|0:0,0:0:0:0:
480,216,34386,1,2,1:2:0:0:
256,216,34543,1,2,0:0:0:0:
112,216,34701,2,0,L|232:216,1,108,8|0,0:0|1:2,0:0:0:0:
360,216,35017,1,10,0:0:0:0:
104,216,35175,6,0,P|32:176|104:104,1,216,2|8,1:2|0:0,0:0:0:0:
248,104,35649,1,2,1:2:0:0:
464,104,35807,2,0,L|472:216,1,108,2|8,0:0|0:0,0:0:0:0:
328,216,36122,1,0,1:2:0:0:
472,216,36280,1,8,0:0:0:0:
168,216,36438,6,0,P|168:280|296:320,1,216,6|8,1:2|0:0,0:0:0:0:
152,320,36912,1,2,1:2:0:0:
368,320,37070,2,0,L|376:208,1,108,2|8,0:0|0:0,0:0:0:0:
232,208,37386,1,0,1:2:0:0:
376,208,37543,1,8,0:0:0:0:
120,208,37701,5,14,0:0:0:0:
112,152,37780,1,0,1:2:0:0:
200,152,37859,1,0,1:2:0:0:
208,96,37938,1,0,1:2:0:0:
72,96,38017,1,10,0:0:0:0:
128,96,38096,1,0,1:2:0:0:
272,96,38175,1,0,1:2:0:0:
216,96,38254,1,0,1:2:0:0:
56,96,38333,1,10,0:0:0:0:
52,156,38412,1,8,0:0:0:0:
252,156,38491,6,0,L|36:156,1,216,0|0,1:2|0:0,0:0:0:0:
296,288,38964,6,0,L|304:176,1,108,6|0,1:2|0:0,0:0:0:0:
88,176,39280,2,0,L|80:288,1,108,10|0,0:0|0:0,0:0:0:0:
296,288,39596,1,2,1:2:0:0:
152,288,39754,1,0,1:2:0:0:
408,288,39912,2,0,L|416:176,1,108,10|0,0:0|0:0,0:0:0:0:
112,176,40228,6,0,L|344:176,1,216,2|8,1:2|0:0,0:0:0:0:
112,176,40701,1,2,0:0:0:0:
368,176,40859,2,0,L|376:288,1,108,2|0,1:2|1:2,0:0:0:0:
160,288,41175,2,0,L|152:176,1,108,8|0,0:0|0:0,0:0:0:0:
456,176,41491,6,0,L|336:176,1,108,6|0,1:2|0:0,0:0:0:0:
128,176,41807,2,0,L|16:176,1,108,10|0,0:0|0:0,0:0:0:0:
280,176,42122,1,2,1:2:0:0:
136,176,42280,1,0,1:2:0:0:
352,176,42438,2,0,L|464:176,1,108,10|0,0:0|0:0,0:0:0:0:
152,176,42754,6,0,P|80:216|152:288,1,216,2|8,1:2|0:0,0:0:0:0:
368,288,43228,1,2,0:0:0:0:
112,288,43386,2,0,L|224:288,1,108,2|0,1:2|1:2,0:0:0:0:
440,288,43701,2,0,L|320:288,1,108,8|0,0:0|0:0,0:0:0:0:
28,288,44017,6,0,P|36:216|160:184,1,216,6|10,1:2|0:0,0:0:0:0:
416,184,44491,2,0,L|200:184,1,216,2|0,0:0|1:2,0:0:0:0:
352,184,44964,1,10,0:0:0:0:
112,184,45122,6,0,P|40:224|112:296,1,216,2|0,0:0|1:2,0:0:0:0:
328,296,45596,1,10,0:0:0:0:
72,296,45754,2,0,L|288:296,1,216,2|0,0:0|1:2,0:0:0:0:
72,296,46228,2,0,L|64:176,1,108,10|0,0:0|0:0,0:0:0:0:
368,184,46543,6,0,L|152:184,1,216,6|8,1:2|0:0,0:0:0:0:
368,184,47017,1,2,0:0:0:0:
112,184,47175,2,0,L|328:184,1,216,2|8,1:2|0:0,0:0:0:0:
112,184,47649,1,2,0:0:0:0:
416,184,47807,6,0,L|424:296,1,108,6|0,1:2|1:2,0:0:0:0:
360,296,48043,1,0,1:2:0:0:
224,296,48122,2,0,L|216:232,1,54,8|0,0:0|0:0,0:0:0:0:
368,240,48280,2,0,L|376:184,1,54,10|8,0:0|0:0,0:0:0:0:
208,184,48438,6,0,L|272:184,1,54,2|0,1:2|1:2,0:0:0:0:
352,184,48596,2,0,L|288:184,1,54,0|0,1:2|1:2,0:0:0:0:
136,184,48754,2,0,L|208:184,1,54,8|0,0:0|1:2,0:0:0:0:
368,184,48912,2,0,L|432:184,1,54,0|0,1:2|0:0,0:0:0:0:
232,184,49070,6,0,L|224:296,1,108,6|0,1:2|0:0,0:0:0:0:
440,296,49386,2,0,L|448:184,1,108,10|0,0:0|0:0,0:0:0:0:
232,184,49701,1,2,1:2:0:0:
376,184,49859,1,0,1:2:0:0:
120,184,50017,2,0,L|112:296,1,108,10|0,0:0|0:0,0:0:0:0:
416,296,50333,6,0,L|176:296,1,216,2|8,1:2|0:0,0:0:0:0:
416,296,50807,1,2,0:0:0:0:
160,296,50964,2,0,L|152:184,1,108,2|0,1:2|1:2,0:0:0:0:
368,192,51280,2,0,L|376:72,1,108,8|0,0:0|0:0,0:0:0:0:
72,88,51596,6,0,L|200:88,1,108,6|0,1:2|0:0,0:0:0:0:
400,88,51912,2,0,L|408:200,1,108,10|0,0:0|0:0,0:0:0:0:
152,192,52228,1,2,1:2:0:0:
296,192,52386,1,0,1:2:0:0:
80,192,52543,2,0,L|72:304,1,108,10|0,0:0|0:0,0:0:0:0:
376,304,52859,6,0,P|448:264|376:192,1,216,2|8,1:2|0:0,0:0:0:0:
160,192,53333,1,2,0:0:0:0:
416,192,53491,2,0,L|296:192,1,108,2|0,1:2|1:2,0:0:0:0:
88,192,53807,2,0,L|80:300,1,108,8|0,0:0|0:0,0:0:0:0:
384,304,54122,6,0,L|164:304,1,216,6|10,1:2|0:0,0:0:0:0:
432,304,54596,2,0,L|200:304,1,216,2|0,0:0|1:2,0:0:0:0:
368,304,55070,1,10,0:0:0:0:
128,304,55228,6,0,P|56:264|128:192,1,216,2|0,0:0|1:2,0:0:0:0:
344,192,55701,1,10,0:0:0:0:
88,192,55859,2,0,L|320:192,1,216,2|0,0:0|1:2,0:0:0:0:
88,192,56333,2,0,L|80:304,1,108,10|0,0:0|1:2,0:0:0:0:
340,304,56649,6,0,L|228:304,1,108,6|0,1:2|0:0,0:0:0:0:
80,304,56964,2,0,L|200:304,1,108,10|0,0:0|0:0,0:0:0:0:
424,304,57280,2,0,L|432:192,1,108,2|0,1:2|1:2,0:0:0:0:
280,192,57596,1,10,0:0:0:0:
432,192,57754,1,0,0:0:0:0:
172,104,57912,6,0,P|180:192|288:192,1,216,2|8,1:2|0:0,0:0:0:0:
128,192,58386,1,0,1:2:0:0:
384,192,58543,2,0,L|392:72,1,108,10|0,0:0|1:2,0:0:0:0:
176,80,58859,1,8,0:0:0:0:
392,88,59017,1,10,0:2:0:0:
88,80,59175,6,0,L|80:192,1,108,4|0,1:2|0:0,0:0:0:0:
224,192,59491,2,0,L|112:192,1,108,8|0,0:0|0:0,0:0:0:0:
336,192,59807,2,0,L|344:80,1,108,2|0,1:2|0:0,0:0:0:0:
200,80,60122,2,0,L|192:192,1,108,8|2,0:0|0:0,0:0:0:0:
456,192,60438,6,0,L|464:304,1,108,0|0,1:2|0:0,0:0:0:0:
320,304,60754,2,0,L|440:304,1,108,8|0,0:0|0:0,0:0:0:0:
208,304,61070,2,0,L|200:192,1,108,2|0,1:2|0:0,0:0:0:0:
344,192,61386,2,0,L|352:72,1,108,8|2,0:0|0:0,0:0:0:0:
88,80,61701,6,0,L|208:80,1,108,0|0,1:2|0:0,0:0:0:0:
336,80,62017,2,0,L|448:80,1,108,8|0,0:0|0:0,0:0:0:0:
216,80,62333,2,0,L|208:192,1,108,2|0,1:2|0:0,0:0:0:0:
352,192,62649,2,0,L|360:304,1,108,8|2,0:0|0:0,0:0:0:0:
216,304,62964,5,0,1:2:0:0:
432,304,63122,1,8,0:0:0:0:
128,304,63280,2,0,L|120:192,1,108,12|0,0:0|0:0,0:0:0:0:
332,192,63596,5,2,1:2:0:0:
416,192,63692,1,8,0:0:0:0:
332,192,63789,1,8,0:0:0:0:
172,192,63885,1,2,1:2:0:0:
260,192,63999,1,0,1:2:0:0:
172,192,64113,1,8,0:0:0:0:
364,192,64228,6,0,P|464:216|432:296,1,216,4|0,1:2|0:0,0:0:0:0:
40,296,64859,1,10,0:0:0:0:
184,296,65017,2,0,P|168:216|48:200,1,216,0|2,1:2|0:0,0:0:0:0:
312,208,65491,6,0,L|320:88,1,108,0|0,1:2|0:0,0:0:0:0:
176,96,65806,2,0,L|168:208,1,108,0|0,1:2|0:0,0:0:0:0:
384,208,66122,1,10,0:0:0:0:
240,208,66280,2,0,L|464:208,1,216,0|2,1:2|0:0,0:0:0:0:
192,208,66754,6,0,P|80:208|56:120,1,216,0|0,1:2|0:0,0:0:0:0:
448,120,67385,2,0,P|476:188|368:236,1,216,10|0,0:0|0:0,0:0:0:0:
152,120,67859,6,0,L|144:232,1,108,10|0,0:0|0:0,0:0:0:0:
288,232,68175,1,0,1:2:0:0:
144,232,68333,1,0,1:2:0:0:
360,232,68491,2,0,P|432:272|360:344,1,216,2|0,0:0|1:2,0:0:0:0:
144,344,68964,2,0,L|24:344,1,108,2|0,0:0|0:0,0:0:0:0:
296,344,69258,6,0,L|304:224,1,108,2|0,0:0|0:0,0:0:0:0:
160,240,69580,2,0,L|272:240,1,108,2|0,0:0|0:0,0:0:0:0:
400,128,69895,2,0,L|280:128,1,108,2|0,0:0|0:0,0:0:0:0:
152,128,70217,2,0,L|144:240,1,108,2|0,0:0|0:0,0:0:0:0:
376,240,70547,5,2,1:2:0:0:
384,184,70625,1,0,1:2:0:0:
296,184,70704,1,0,1:2:0:0:
288,240,70783,1,0,1:2:0:0:
424,240,70862,1,8,0:0:0:0:
368,240,70941,1,0,1:2:0:0:
224,240,71020,1,0,1:2:0:0:
168,240,71099,1,0,1:2:0:0:
328,240,71178,5,10,0:0:0:0:
336,184,71257,1,8,0:0:0:0:
192,184,71336,1,0,1:2:0:0:
184,128,71415,1,0,1:2:0:0:
344,128,71494,1,8,0:0:0:0:
288,128,71568,1,8,0:0:0:0:
120,128,71642,1,8,0:0:0:0:
176,128,71716,1,8,0:0:0:0:
368,128,71790,6,0,L|376:240,1,108,6|0,1:2|0:0,0:0:0:0:
144,236,72125,2,0,L|136:348,1,108,10|0,0:0|0:0,0:0:0:0:
396,344,72440,1,2,1:2:0:0:
252,344,72598,1,0,1:2:0:0:
488,344,72756,2,0,L|496:232,1,108,10|0,0:0|0:0,0:0:0:0:
192,232,73072,6,0,L|416:232,1,216,2|8,1:2|0:0,0:0:0:0:
192,232,73545,1,2,0:0:0:0:
448,232,73703,2,0,L|328:232,1,108,2|0,1:2|1:2,0:0:0:0:
120,232,74019,2,0,L|112:120,1,108,8|0,0:0|0:0,0:0:0:0:
408,120,74335,6,0,L|176:120,1,216,6|10,1:2|0:0,0:0:0:0:
448,120,74808,2,0,L|216:120,1,216,2|0,0:0|1:2,0:0:0:0:
384,120,75282,1,10,0:0:0:0:
144,120,75440,6,0,P|72:160|144:232,1,216,2|0,0:0|1:2,0:0:0:0:
360,232,75914,1,10,0:0:0:0:
104,232,76072,2,0,P|128:320|240:320,1,216,2|0,0:0|1:2,0:0:0:0:
456,320,76545,2,0,L|328:320,1,108,10|0,0:0|0:0,0:0:0:0:
40,320,76861,6,0,L|264:320,1,216,6|8,1:2|0:0,0:0:0:0:
40,320,77335,1,2,0:0:0:0:
296,320,77493,2,0,L|304:208,1,108,2|0,1:2|1:2,0:0:0:0:
88,208,77808,2,0,L|80:96,1,108,8|2,0:0|0:0,0:0:0:0:
384,96,78124,6,0,L|392:208,1,108,6|0,1:2|1:2,0:0:0:0:
328,208,78361,1,0,1:2:0:0:
192,208,78440,1,8,0:0:0:0:
336,208,78598,1,10,0:0:0:0:
120,152,78756,6,0,L|64:152,1,54,2|0,1:2|1:2,0:0:0:0:
142,151,78914,2,0,L|214:151,1,54,0|0,1:2|1:2,0:0:0:0:
344,208,79072,2,0,L|288:208,1,54,8|0,0:0|1:2,0:0:0:0:
136,208,79229,2,0,L|192:208,1,54,0|0,1:2|0:0,0:0:0:0:
368,208,79387,6,0,L|488:208,1,108,2|0,1:2|0:0,0:0:0:0:
168,208,79703,2,0,L|160:96,1,108,14|0,0:0|0:0,0:0:0:0:
304,96,80019,2,0,L|312:208,1,108,2|0,1:2|0:0,0:0:0:0:
96,208,80335,2,0,L|88:320,1,108,10|0,0:0|0:0,0:0:0:0:
344,320,80650,6,0,P|416:280|344:208,1,216,2|8,1:2|0:0,0:0:0:0:
200,208,81124,1,2,0:0:0:0:
416,208,81282,2,0,L|288:208,1,108,2|0,1:2|0:0,0:0:0:0:
168,208,81598,2,0,L|160:88,1,108,8|0,0:0|0:0,0:0:0:0:
424,96,81914,6,0,L|432:208,1,108,2|0,1:2|0:0,0:0:0:0:
288,200,82229,2,0,L|408:200,1,108,10|0,0:0|0:0,0:0:0:0:
256,200,82545,2,0,L|248:312,1,108,2|0,1:2|0:0,0:0:0:0:
464,312,82861,2,0,L|336:312,1,108,10|0,0:0|0:0,0:0:0:0:
96,312,83177,5,2,1:2:0:0:
240,312,83335,2,0,L|232:200,1,108,0|0,1:2|0:0,0:0:0:0:
88,208,83650,1,8,0:0:0:0:
344,208,83808,1,2,1:2:0:0:
200,208,83966,1,0,1:2:0:0:
416,208,84124,2,0,L|424:96,1,108,8|0,0:0|1:2,0:0:0:0:
360,104,84361,1,0,1:2:0:0:
168,104,84440,6,0,L|392:104,1,216,6|8,1:2|0:0,0:0:0:0:
120,104,84914,2,0,P|48:144|120:216,1,216,2|0,0:0|1:2,0:0:0:0:
272,216,85387,1,10,0:0:0:0:
32,216,85545,6,0,L|256:216,1,216,2|0,0:0|1:2,0:0:0:0:
32,216,86019,1,10,0:0:0:0:
288,216,86177,2,0,P|360:256|288:328,1,216,2|0,0:0|1:2,0:0:0:0:
72,328,86650,2,0,L|192:328,1,108,8|0,0:0|1:2,0:0:0:0:
488,328,86966,6,0,L|368:328,1,108,6|0,1:2|0:0,0:0:0:0:
160,328,87282,2,0,L|32:328,1,108,10|0,0:0|0:0,0:0:0:0:
312,328,87598,2,0,L|432:328,1,108,2|0,1:2|1:2,0:0:0:0:
200,328,87914,1,10,0:0:0:0:
416,328,88072,1,2,0:0:0:0:
112,328,88229,6,0,L|220:328,1,108,2|0,1:2|1:2,0:0:0:0:
492,328,88545,1,12,0:0:0:0:
336,328,88703,1,2,0:0:0:0:
64,328,88861,1,10,0:0:0:0:
280,328,89019,1,0,1:2:0:0:
64,328,89177,1,0,1:2:0:0:
368,328,89335,6,0,P|448:272|312:192,1,324,6|0,1:2|0:0,0:0:0:0:
