osu file format v14

[General]
AudioFilename: audio.mp3
AudioLeadIn: 0
PreviewTime: 39656
Countdown: 1
SampleSet: Soft
StackLeniency: 0.3
Mode: 0
LetterboxInBreaks: 0
WidescreenStoryboard: 1

[Editor]
Bookmarks: 16781,29156,40031,46031,64406,75281,87281,98531,110531,123281,131531,131906,144281,151968,161531,168281,169781,173531,197531,204281,210281
DistanceSpacing: 1.1
BeatDivisor: 4
GridSize: 4
TimelineZoom: 2.699999

[Metadata]
Title:HYPER REALIST
TitleUnicode:HYPER REALIST
Artist:PASSEPIED
ArtistUnicode:PASSEPIED
Creator:meddle
Version:Extreme LV8
Source:
Tags:
BeatmapID:2070163
BeatmapSetID:989634

[Difficulty]
HPDrainRate:5
CircleSize:4
OverallDifficulty:8
ApproachRate:9.3
SliderMultiplier:1.80000000596046
SliderTickRate:1

[Events]
//Background and Video events
0,0,"folder.jpg",0,0
//Break Periods
2,64995,67961
2,162495,167741
//Storyboard Layer 0 (Background)
//Storyboard Layer 1 (Fail)
//Storyboard Layer 2 (Pass)
//Storyboard Layer 3 (Foreground)
//Storyboard Layer 4 (Overlay)
//Storyboard Sound Samples

[TimingPoints]
295,375,4,2,0,50,1,0
295,-200,4,2,0,50,0,0
6295,-133.333333333333,4,2,0,50,0,0
10795,-105.263157894737,4,2,0,50,0,0
21295,-90.9090909090909,4,2,0,50,0,0
22795,-100,4,2,0,50,0,0
27295,-90.9090909090909,4,2,0,50,0,0
37795,-76.9230769230769,4,2,0,50,0,0
40045,-166.666666666667,4,2,0,50,0,0
40420,-125,4,2,0,50,0,0
40792,-62.5,4,2,0,50,0,1
43045,-71.4285714285714,4,2,0,50,0,1
43795,-55.5555555555556,4,2,0,50,0,1
45107,-62.5,4,2,0,50,0,1
46045,-71.4285714285714,4,2,0,50,0,1
46795,-62.5,4,2,0,50,0,1
55045,-71.4285714285714,4,2,0,50,0,1
55795,-55.5555555555556,4,2,0,50,0,1
58045,-71.4285714285714,4,2,0,50,0,1
58795,-62.5,4,2,0,50,0,1
64795,-62.5,4,2,0,50,0,0
69295,-71.4285714285714,4,2,0,50,0,0
71545,-62.5,4,2,0,50,0,0
74545,-76.9230769230769,4,2,0,50,0,0
75295,-100,4,2,0,50,0,0
76795,-250,4,2,0,50,0,0
77357,-100,4,2,0,50,0,0
78295,-333.333333333333,4,2,0,50,0,0
79045,-100,4,2,0,50,0,0
79795,-83.3333333333333,4,2,0,50,0,0
81295,-90.9090909090909,4,2,0,50,0,0
96295,-71.4285714285714,4,2,0,50,0,0
98545,-166.666666666667,4,2,0,50,0,0
98920,-125,4,2,0,50,0,0
99295,-55.5555555555556,4,2,0,50,0,1
101545,-71.4285714285714,4,2,0,50,0,1
102295,-50,4,2,0,50,0,1
103607,-55.5555555555556,4,2,0,50,0,1
104545,-71.4285714285714,4,2,0,50,0,1
105295,-55.5555555555556,4,2,0,50,0,1
113545,-62.5,4,2,0,50,0,1
114295,-50,4,2,0,50,0,1
116545,-71.4285714285714,4,2,0,50,0,1
117295,-55.5555555555556,4,2,0,50,0,1
123295,-125,4,2,0,50,0,0
123295,-71.4285714285714,4,2,0,50,0,0
123295,-142.857142857143,4,2,0,50,0,0
126295,-100,4,2,0,50,0,0
144295,-100,4,2,0,50,0,0
144576,-83.3333333333333,4,2,0,50,0,0
145795,-100,4,2,0,50,0,0
146170,-83.3333333333333,4,2,0,50,0,0
147857,-71.4285714285714,4,2,0,50,0,0
149545,-100,4,2,0,50,0,0
150670,-83.3333333333333,4,2,0,50,0,0
154045,-83.3333333333333,4,2,0,50,0,0
154795,-71.4285714285714,4,2,0,50,0,0
155170,-66.6666666666667,4,2,0,50,0,0
155545,-62.5,4,2,0,50,0,0
155920,-58.8235294117647,4,2,0,50,0,0
156295,-83.3333333333333,4,2,0,50,0,0
168295,-66.6666666666667,4,2,0,50,0,0
172795,-142.857142857143,4,2,0,50,0,0
173545,-100,4,2,0,50,0,0
174295,-55.5555555555556,4,2,0,50,0,0
176545,-71.4285714285714,4,2,0,50,0,0
177295,-55.5555555555556,4,2,0,50,0,0
179545,-71.4285714285714,4,2,0,50,0,0
180295,-62.5,4,2,0,50,0,0

[Colours]
Combo1 : 128,128,128
Combo2 : 255,128,255
Combo3 : 192,192,192
Combo4 : 255,0,128

[HitObjects]
142,243,295,6,0,L|137:331,1,45.0000001490116
138,330,670,1,0,0:0:0:0:
229,308,857,1,0,0:0:0:0:
54,352,1045,2,0,L|58:285,1,45.0000001490116
46,276,1420,2,0,L|50:209,1,45.0000001490116
1,105,1795,6,0,P|23:94|62:94,1,45.0000001490116
131,36,2170,2,0,P|154:43|181:71,1,45.0000001490116
271,79,2545,2,0,P|282:101|282:140,1,45.0000001490116
138,246,2920,2,0,P|151:225|185:205,1,45.0000001490116
349,277,3295,6,0,P|324:275|272:224,1,90.0000002980232
367,171,3857,1,0,0:0:0:0:
479,182,4045,2,0,P|477:206|426:259,1,90.0000002980232
367,171,4607,1,0,0:0:0:0:
415,65,4795,6,0,L|477:53,1,45.0000001490116
260,18,5170,2,0,L|322:30,1,45.0000001490116
75,68,5545,2,0,L|167:53,1,90.0000002980232
177,58,6013,1,0,0:0:0:0:
177,58,6107,1,0,0:0:0:0:
122,336,6295,6,0,B|112:287|112:287|139:217,1,101.250004532933
149,216,6670,1,0,0:0:0:0:
0,309,6857,1,0,0:0:0:0:
239,303,7045,2,0,L|316:312,1,67.5000030219556
504,264,7420,2,0,L|427:273,1,67.5000030219556
305,199,7795,6,0,P|281:157|293:104,1,101.250004532933
286,87,8170,2,0,P|318:51|372:46,1,101.250004532933
451,99,8545,2,0,P|431:54|386:34,1,101.250004532933
424,194,8920,2,0,P|461:161|467:112,1,101.250004532933
325,197,9295,2,0,P|368:221|416:211,1,101.250004532933
424,194,9670,1,0,0:0:0:0:
368,124,9857,5,0,0:0:0:0:
205,57,10045,1,0,0:0:0:0:
195,88,10138,1,0,0:0:0:0:
185,119,10232,1,0,0:0:0:0:
11,153,10420,2,0,L|86:147,1,67.5000030219556
378,297,10795,6,0,L|388:202,1,85.4999982831478
239,236,11076,1,0,0:0:0:0:
243,267,11170,1,0,0:0:0:0:
219,60,11357,2,0,L|228:153,1,85.4999982831478
378,297,11732,2,0,L|388:202,1,85.4999982831478
219,60,12107,2,0,L|228:153,1,85.4999982831478
378,297,12482,6,0,L|382:254,1,42.7499991415739
219,60,12670,2,0,L|222:102,1,42.7499991415739
410,101,13045,2,0,P|367:107|324:125,1,85.4999980000256
173,260,13420,2,0,P|215:266|259:284,1,85.4999980000256
410,101,13795,6,0,P|384:102|367:109,1,42.7499990000128
173,260,14076,2,0,P|197:262|217:267,1,42.7499990000128
410,101,14357,2,0,P|384:102|367:109,1,42.7499990000128
219,60,14732,6,0,L|161:128,1,85.4999982831478
30,157,15107,2,0,L|39:245,1,85.4999982831478
219,60,15482,6,0,L|190:94,1,42.7499991415739
30,157,15670,2,0,L|34:201,1,42.7499991415739
186,205,16045,5,0,0:0:0:0:
218,223,16138,2,0,L|272:228,1,42.7499991415739
361,232,16326,1,0,0:0:0:0:
287,168,16420,2,0,P|262:229|280:288,1,128.249997424722
484,243,16795,5,0,0:0:0:0:
484,243,17076,1,0,0:0:0:0:
484,243,17357,1,0,0:0:0:0:
385,97,17545,5,0,0:0:0:0:
411,188,17732,1,0,0:0:0:0:
473,55,17920,2,0,P|448:18|409:3,1,85.4999982831478
198,11,18295,2,0,P|183:37|184:65,1,42.7499991415739
117,106,18576,1,0,0:0:0:0:
118,138,18671,2,0,P|127:157|142:171,1,42.7499991415739
261,240,18857,1,0,0:0:0:0:
251,118,19045,5,0,0:0:0:0:
146,288,19232,1,0,0:0:0:0:
261,240,19420,2,0,P|297:257|321:295,1,85.4999982831478
81,384,19795,6,0,P|66:358|67:330,1,42.7499991415739
0,289,20076,1,0,0:0:0:0:
1,257,20171,2,0,P|10:238|25:224,1,42.7499991415739
142,171,20357,1,0,0:0:0:0:
8,34,20545,5,0,0:0:0:0:
51,137,20732,1,0,0:0:0:0:
185,68,20920,1,0,0:0:0:0:
142,171,21107,1,0,0:0:0:0:
302,102,21295,6,0,P|350:105|393:137,1,99.0000033490656
326,201,21576,1,0,0:0:0:0:
355,207,21670,2,0,P|367:254|350:305,1,99.0000033490656
174,257,22045,1,0,0:0:0:0:
153,231,22138,2,0,P|170:186|214:155,1,99.0000033490656
249,339,22420,2,0,P|208:364|154:364,1,99.0000033490656
37,71,22795,6,0,L|44:169,1,90.000000298023
184,119,23076,1,0,0:0:0:0:
159,141,23170,2,0,L|152:230,1,90.000000298023
45,171,23545,5,0,0:0:0:0:
121,53,23732,1,0,0:0:0:0:
152,244,23920,2,0,P|191:264|241:260,1,90.000000298023
296,95,24295,6,0,L|303:193,1,90.000000298023
441,144,24577,1,0,0:0:0:0:
416,166,24670,2,0,L|409:255,1,90.000000298023
299,303,25045,1,0,0:0:0:0:
302,184,25232,1,0,0:0:0:0:
498,268,25420,2,0,P|484:316|445:339,1,90.000000298023
209,315,25795,6,0,L|322:299,1,90.000000298023
33,254,26076,1,0,0:0:0:0:
62,246,26170,2,0,L|175:262,1,90.000000298023
70,156,26545,1,0,0:0:0:0:
150,258,26732,1,0,0:0:0:0:
170,95,26920,1,0,0:0:0:0:
12,265,27107,1,0,0:0:0:0:
0,67,27295,6,0,P|43:42|93:48,1,99.0000033490656
170,95,27576,1,0,0:0:0:0:
197,113,27670,2,0,P|245:117|287:92,1,99.0000033490656
486,169,28045,5,0,0:0:0:0:
459,151,28139,2,0,P|410:146|368:171,1,99.0000033490656
302,266,28420,2,0,P|253:270|211:245,1,99.0000033490656
412,344,28795,6,0,B|442:305|442:305|433:248,1,99.0000033490656
219,115,29170,6,0,P|243:157|208:249,1,148.500005023598
78,74,29545,2,0,P|149:69|200:120,1,148.500005023598
226,258,29920,2,0,P|171:303|100:292,1,148.500005023598
0,198,30295,2,0,P|18:128|82:96,1,148.500005023598
92,311,30670,2,0,P|31:272|20:200,1,148.500005023598
218,114,31045,2,0,P|245:182|212:245,1,148.500005023598
120,196,31420,1,0,0:0:0:0:
78,75,31607,2,0,P|150:70|201:122,1,148.500005023598
323,32,32076,5,0,0:0:0:0:
332,68,32170,2,0,P|305:135|338:198,1,148.500005023598
512,190,32545,2,0,P|467:133|395:130,1,148.500005023598
316,284,32920,2,0,P|387:273|425:212,1,148.500005023598
431,342,33295,2,0,P|398:279|425:212,1,148.500005023598
432,344,33670,6,0,P|387:287|315:284,1,148.500005023598
247,340,34045,1,0,0:0:0:0:
222,358,34138,2,0,P|150:354|123:320,1,99.0000033490656
209,224,34420,1,0,0:0:0:0:
102,332,34607,2,0,P|75:291|82:243,1,99.0000033490656
186,35,35076,5,0,0:0:0:0:
156,27,35170,2,0,P|100:66|122:138,1,148.500005023598
227,173,35545,2,0,P|187:117|115:139,1,148.500005023598
81,243,35920,2,0,P|136:203|114:131,1,148.500005023598
217,256,36295,6,0,B|297:266|275:204|363:218,1,148.500005023598
424,95,36670,2,0,P|380:135|376:238,1,148.500005023598
326,350,37045,2,0,P|370:310|374:207,1,148.500005023598
279,125,37420,2,0,B|230:117|230:117|197:155,1,99.0000033490656
3,373,37795,6,0,L|17:170,1,175.499992547393
98,61,38170,2,0,L|93:129,1,58.4999975157976
95,171,38357,1,0,0:0:0:0:
117,215,38450,1,0,0:0:0:0:
158,243,38544,1,0,0:0:0:0:
207,249,38638,1,0,0:0:0:0:
253,230,38732,1,0,0:0:0:0:
285,192,38825,1,0,0:0:0:0:
295,144,38920,5,0,0:0:0:0:
303,201,39013,1,0,0:0:0:0:
311,259,39107,1,0,0:0:0:0:
319,317,39201,1,0,0:0:0:0:
403,358,39295,5,0,0:0:0:0:
468,73,40045,6,0,P|430:64|384:75,1,80.9999977962969
467,72,40420,6,0,P|490:120|482:173,1,108.000000357628
233,322,40795,6,0,P|252:205|357:197,1,216.000000715255
322,282,41170,1,0,0:0:0:0:
92,107,41357,2,0,P|65:93|68:123,1,72.0000002384184
165,204,41545,2,0,P|261:134|341:203,1,216.000000715255
254,233,41920,1,0,0:0:0:0:
34,215,42107,5,0,0:0:0:0:
4,287,42201,1,0,0:0:0:0:
62,340,42295,2,0,B|88:279|88:279|65:206|65:206|94:124,1,216.000000715255
162,204,42670,1,0,0:0:0:0:
4,287,42857,1,0,0:0:0:0:
27,37,43045,6,0,P|80:4|148:14,1,125.999996572017
236,284,43420,2,0,P|269:231|259:163,1,125.999996572017
447,21,43795,6,0,P|380:99|421:225,1,242.999993388891
490,128,44170,1,0,0:0:0:0:
162,204,44357,2,0,P|209:194|245:169,1,80.9999977962969
303,65,44545,2,0,P|310:167|428:227,1,242.999993388891
409,110,44920,1,0,0:0:0:0:
64,188,45107,5,0,0:0:0:0:
107,248,45201,1,0,0:0:0:0:
154,303,45295,2,0,B|261:281|261:281|363:317,1,216.000000715255
394,333,45670,1,0,0:0:0:0:
409,110,45857,1,0,0:0:0:0:
32,133,46045,6,0,P|36:198|120:232,1,125.999996572017
207,154,46420,2,0,P|200:85|139:51,1,125.999996572017
193,254,46795,2,0,B|215:286|252:290|252:290|172:305|119:370,1,216.000000715255
105,359,47170,1,0,0:0:0:0:
268,209,47357,1,0,0:0:0:0:
366,371,47545,2,0,P|284:361|219:381,1,144.000000476837
454,140,47920,6,0,P|475:224|466:298,1,144.000000476837
463,300,48201,1,0,0:0:0:0:
451,321,48295,1,0,0:0:0:0:
387,211,48482,1,0,0:0:0:0:
328,94,48670,2,0,P|414:99|481:131,1,144.000000476837
245,199,49045,2,0,P|277:118|328:64,1,144.000000476837
47,248,49420,2,0,P|137:208|283:225,1,216.000000715255
263,227,49795,1,0,0:0:0:0:
134,72,49982,1,0,0:0:0:0:
0,325,50170,6,0,P|21:262|-12:167,1,144.000000476837
61,0,50545,2,0,P|40:63|73:158,1,144.000000476837
421,225,50920,2,0,B|346:209|357:259|281:247,1,144.000000476837
279,232,51201,1,0,0:0:0:0:
279,232,51295,1,0,0:0:0:0:
333,108,51482,1,0,0:0:0:0:
332,338,51670,1,0,0:0:0:0:
146,207,51857,1,0,0:0:0:0:
499,17,52045,6,0,P|440:97|424:231,1,216.000000715255
504,312,52420,1,0,0:0:0:0:
474,355,52513,1,0,0:0:0:0:
426,377,52607,1,0,0:0:0:0:
374,371,52701,1,0,0:0:0:0:
332,338,52795,6,0,B|266:323|179:348|179:348|211:331|232:295,1,216.000000715255
413,264,53170,1,0,0:0:0:0:
316,97,53357,2,0,P|303:138|301:186,1,72.0000002384184
179,348,53545,2,0,B|142:290|63:246|63:246|98:257|138:246,1,216.000000715255
395,146,53920,1,0,0:0:0:0:
195,104,54107,5,0,0:0:0:0:
145,63,54201,1,0,0:0:0:0:
96,26,54295,2,0,P|107:98|97:179,1,144.000000476837
231,24,54670,1,0,0:0:0:0:
226,238,54857,1,0,0:0:0:0:
13,362,55045,6,0,P|39:340|197:364,1,188.999994858026
13,362,55420,2,0,P|46:359|100:281,1,125.999996572017
378,71,55795,6,0,B|366:127|395:191|453:191|453:191|492:167|481:115,1,242.999993388891
462,20,56170,1,0,0:0:0:0:
333,302,56357,2,0,B|360:274|360:274|358:219,1,80.9999977962969
345,52,56545,2,0,P|236:60|290:153,1,242.999993388891
482,121,56920,1,0,0:0:0:0:
110,75,57107,5,0,0:0:0:0:
68,140,57201,1,0,0:0:0:0:
103,209,57295,2,0,B|142:270|142:270|235:261,1,161.999995592594
33,71,57576,1,0,0:0:0:0:
183,350,57857,1,0,0:0:0:0:
498,267,58045,6,0,B|505:329|505:329|474:384,1,125.999996572017
409,252,58420,2,0,B|379:308|379:308|386:370,1,125.999996572017
391,36,58795,6,0,P|456:69|471:140,1,144.000000476837
296,256,59170,2,0,P|303:211|340:177,1,72.0000002384184
377,128,59357,1,0,0:0:0:0:
269,63,59545,2,0,P|317:13|387:16,1,144.000000476837
45,92,59920,2,0,B|200:101,1,144.000000476837
208,114,60201,1,0,0:0:0:0:
208,114,60295,1,0,0:0:0:0:
0,207,60482,1,0,0:0:0:0:
101,328,60670,6,0,P|36:295|21:224,1,144.000000476837
222,300,61045,2,0,P|173:350|103:347,1,144.000000476837
440,265,61420,2,0,B|285:256,1,144.000000476837
277,243,61701,1,0,0:0:0:0:
277,243,61795,1,0,0:0:0:0:
457,143,61982,1,0,0:0:0:0:
225,307,62170,6,0,P|192:238|222:175,1,144.000000476837
457,143,62545,2,0,P|417:206|342:212,1,144.000000476837
198,24,62920,2,0,P|272:26|315:88,1,144.000000476837
199,163,63295,1,0,0:0:0:0:
149,163,63388,1,0,0:0:0:0:
107,184,63482,1,0,0:0:0:0:
7,52,63670,6,0,P|25:109|26:210,1,144.000000476837
140,295,63951,1,0,0:0:0:0:
170,303,64045,2,0,P|152:246|151:145,1,144.000000476837
486,140,64420,2,0,B|384:112|384:224|272:176,1,216.000000715255
455,249,64795,1,0,0:0:0:0:
61,112,69295,6,0,B|84:92|84:92|132:90,1,62.9999982860087
216,28,69576,2,0,B|242:43|242:43|258:88,1,62.9999982860087
343,149,69857,2,0,B|336:178|336:178|298:208,1,62.9999982860087
266,308,70232,6,0,B|235:310|235:310|195:284,1,62.9999982860087
93,284,70607,2,0,B|81:255|81:255|94:209,1,62.9999982860087
191,121,70982,6,0,B|202:149|202:149|189:195,1,62.9999982860087
89,288,71170,2,0,B|77:259|77:259|90:213,1,62.9999982860087
255,64,71545,6,0,L|328:70,1,72.0000002384184
489,158,71920,2,0,L|416:164,1,72.0000002384184
245,106,72295,6,0,L|315:86,1,72.0000002384184
498,115,72576,2,0,L|431:145,1,72.0000002384184
251,149,72857,6,0,L|310:106,1,72.0000002384184
300,265,73232,2,0,L|330:198,1,72.0000002384184
396,335,73607,2,0,L|389:262,1,72.0000002384184
218,384,73982,6,0,L|224:312,1,72.0000002384184
396,258,74170,2,0,L|402:329,1,72.0000002384184
9,173,74545,5,0,0:0:0:0:
41,196,74638,2,0,L|103:201,1,58.4999975157976
201,207,74826,1,0,0:0:0:0:
137,125,74920,2,0,P|101:200|135:284,1,175.499992547393
46,81,75295,5,0,0:0:0:0:
46,81,76045,2,0,P|98:34|173:31,1,135.000000447034
192,41,76420,1,0,0:0:0:0:
110,161,76607,6,0,P|121:141|136:124,1,45.0000001490115
192,41,76795,6,0,P|234:31|285:38,1,90.000000298023
306,162,77357,5,0,0:0:0:0:
212,204,77544,1,0,0:0:0:0:
296,265,77732,1,0,3:0:0:0:
222,101,77920,2,0,P|263:73|280:34,1,90.000000298023
478,213,78295,6,0,L|397:221,1,80.9999977962969
370,356,79045,5,0,0:0:0:0:
489,310,79232,1,0,0:0:0:0:
370,356,79420,1,0,0:0:0:0:
489,310,79607,1,0,0:0:0:0:
296,265,79795,6,0,P|241:272|196:308,1,107.999997061729
128,382,80076,1,0,0:0:0:0:
128,354,80170,2,0,P|94:309|40:288,1,107.999997061729
46,210,80451,1,0,0:0:0:0:
73,200,80545,2,0,P|94:148|85:91,1,107.999997061729
127,0,80826,1,0,0:0:0:0:
137,27,80920,2,0,P|188:48|245:39,1,107.999997061729
422,79,81295,6,0,L|414:201,1,99.0000033490656
271,141,81576,1,0,0:0:0:0:
301,159,81670,2,0,L|307:257,1,99.0000033490656
417,370,82045,1,0,0:0:0:0:
463,262,82232,1,0,0:0:0:0:
314,367,82420,2,0,P|300:333|324:252,1,99.0000033490656
92,170,82795,6,0,L|100:292,1,99.0000033490656
241,220,83076,1,0,0:0:0:0:
213,250,83170,2,0,L|206:348,1,99.0000033490656
92,155,83545,1,0,0:0:0:0:
100,278,83732,1,0,0:0:0:0:
172,79,83920,2,0,P|147:57|79:48,1,99.0000033490656
327,72,84295,6,0,P|352:50|420:41,1,99.0000033490656
419,144,84576,1,0,0:0:0:0:
455,136,84670,2,0,P|483:152|513:214,1,99.0000033490656
394,246,85045,1,0,0:0:0:0:
419,144,85232,1,0,0:0:0:0:
484,326,85420,1,0,0:0:0:0:
282,273,85607,1,0,0:0:0:0:
204,96,85795,6,0,P|247:137|251:184,1,99.0000033490656
135,208,86076,1,0,0:0:0:0:
164,227,86170,2,0,P|165:286|135:322,1,99.0000033490656
22,9,86545,6,0,P|81:7|117:37,1,99.0000033490656
52,136,86826,1,0,0:0:0:0:
86,129,86920,2,0,P|129:170|132:217,1,99.0000033490656
382,361,87295,6,0,L|395:263,1,99.0000033490656
283,44,87670,2,0,P|272:120|212:153,1,148.500005023598
229,150,88045,2,0,P|294:180|311:250,1,148.500005023598
421,180,88420,2,0,P|385:112|414:50,1,148.500005023598
314,235,88795,2,0,P|367:179|435:188,1,148.500005023598
277,30,89170,2,0,P|331:76|402:62,1,148.500005023598
395,263,89545,2,0,L|382:363,1,99.0000033490656
205,384,89920,1,0,0:0:0:0:
307,274,90107,2,0,L|294:374,2,99.0000033490656
16,249,90576,5,0,0:0:0:0:
0,225,90670,2,0,P|71:214|109:153,1,148.500005023598
115,283,91045,2,0,P|82:220|109:153,1,148.500005023598
283,143,91420,2,0,P|244:203|173:213,1,148.500005023598
77,67,91795,6,0,P|148:69|192:126,1,148.500005023598
287,273,92170,2,0,P|215:270|172:213,1,148.500005023598
245,81,92545,1,0,0:0:0:0:
274,96,92638,2,0,P|283:128|257:190,1,99.0000033490656
109,152,92920,1,0,0:0:0:0:
157,304,93107,2,0,P|148:272|174:209,1,99.0000033490656
241,349,93482,1,0,0:0:0:0:
389,250,93670,6,0,P|441:217|447:135,1,148.500005023598
333,75,94045,2,0,P|365:127|447:133,1,148.500005023598
506,21,94420,2,0,P|453:53|447:135,1,148.500005023598
337,373,94795,6,0,B|345:294|290:316|308:231,1,148.500005023598
164,208,95170,2,0,P|255:205|317:222,1,148.500005023598
460,220,95545,2,0,P|386:224|313:208,1,148.500005023598
73,171,95920,2,0,B|63:221|63:221|87:269,1,99.0000033490656
316,19,96295,6,0,L|119:35,1,188.999994858026
86,39,96670,1,0,0:0:0:0:
43,71,96763,1,0,0:0:0:0:
23,120,96857,1,0,0:0:0:0:
31,173,96951,1,0,0:0:0:0:
64,214,97045,1,0,0:0:0:0:
115,232,97138,1,0,0:0:0:0:
167,221,97232,1,0,0:0:0:0:
207,185,97326,1,0,0:0:0:0:
218,132,97420,5,0,0:0:0:0:
174,177,97513,1,0,0:0:0:0:
156,236,97607,1,0,0:0:0:0:
165,298,97701,1,0,0:0:0:0:
266,271,97795,5,0,0:0:0:0:
507,327,98545,6,0,P|457:315|441:289,1,80.9999977962969
507,327,98920,6,0,P|448:330|410:366,1,108.000000357628
224,92,99295,6,0,P|252:191|177:308,1,242.999993388891
109,209,99670,1,0,0:0:0:0:
273,36,99857,2,0,P|273:19|277:40,1,80.9999977962969
352,184,100045,2,0,P|301:273|166:303,1,242.999993388891,0|0,3:0|3:0,3:0:0:0:
210,208,100420,1,0,3:0:0:0:
196,381,100607,5,0,0:0:0:0:
137,384,100701,1,0,0:0:0:0:
84,384,100795,2,0,B|39:348|39:348|57:221|57:221|106:192,1,242.999993388891
147,297,101170,1,0,0:0:0:0:
25,111,101357,1,0,0:0:0:0:
247,340,101545,6,0,P|257:285|223:214,1,125.999996572017
348,238,101920,2,0,P|293:248|222:214,1,125.999996572017
459,18,102295,6,0,P|460:144|354:237,1,270.000000894069
299,144,102670,1,0,0:0:0:0:
375,362,102857,2,0,P|337:362|330:313,1,90.000000298023
367,0,103045,2,0,P|411:118|343:241,1,270.000000894069
290,132,103420,1,0,0:0:0:0:
76,305,103607,5,0,0:0:0:0:
49,272,103701,1,0,0:0:0:0:
23,235,103795,2,0,B|72:120|72:120|185:85,1,242.999993388891
205,169,104170,1,0,0:0:0:0:
3,22,104357,1,0,0:0:0:0:
264,57,104545,6,0,B|334:88|334:88|394:58,1,125.999996572017
512,49,104920,2,0,B|442:18|442:18|381:47,1,125.999996572017
496,231,105295,6,0,B|379:182|381:290|251:231,1,242.999993388891
317,164,105670,1,0,0:0:0:0:
443,342,105857,1,0,0:0:0:0:
244,228,106045,2,0,B|186:285|186:285|191:369,1,161.999995592594
305,156,106420,6,0,P|204:145|162:180,1,161.999995592594
146,198,106701,1,0,0:0:0:0:
131,216,106795,1,0,0:0:0:0:
277,326,106982,1,0,0:0:0:0:
317,164,107170,2,0,P|296:64|249:35,1,161.999995592594
313,177,107545,2,0,P|401:126|414:73,1,161.999995592594
72,123,107920,2,0,P|35:256|107:330,1,242.999993388891
130,309,108295,1,0,0:0:0:0:
96,138,108482,1,0,0:0:0:0:
272,363,108670,6,0,P|346:332|435:353,1,161.999995592594
507,231,109045,2,0,P|433:262|344:241,1,161.999995592594
420,0,109420,2,0,B|446:97|392:71|426:166,1,161.999995592594
430,179,109701,1,0,0:0:0:0:
430,179,109795,1,0,0:0:0:0:
322,145,109982,1,0,0:0:0:0:
512,89,110170,1,0,0:0:0:0:
460,280,110357,1,0,0:0:0:0:
225,46,110545,6,0,P|230:156|139:264,1,242.999993388891
51,158,110920,1,0,0:0:0:0:
48,95,111013,1,0,0:0:0:0:
108,74,111107,1,0,0:0:0:0:
145,122,111201,1,0,0:0:0:0:
110,174,111295,6,0,B|59:217|64:297|122:332|122:332|112:298|126:271,1,242.999993388891
32,347,111670,1,0,0:0:0:0:
194,49,111857,2,0,P|224:75|227:121,1,80.9999977962969
310,208,112045,2,0,B|243:202|190:262|206:328|206:328|223:297|252:287,1,242.999993388891
132,275,112420,1,0,0:0:0:0:
388,117,112607,5,0,0:0:0:0:
401,151,112701,1,0,0:0:0:0:
413,191,112795,2,0,P|415:275|392:362,1,161.999995592594
314,220,113170,1,0,0:0:0:0:
512,137,113357,1,0,0:0:0:0:
157,183,113545,6,0,P|112:152|159:6,1,216.000000715255
273,57,113920,2,0,P|250:108|167:90,1,144.000000476837
512,44,114295,6,0,B|460:43|433:75|433:75|424:131|362:159|362:159|360:108|396:87,1,270.000000894069
511,132,114670,1,0,0:0:0:0:
221,236,114857,2,0,B|265:250|265:250|311:221,1,90.000000298023
382,97,115045,2,0,P|381:217|515:288,1,270.000000894069
492,154,115420,1,0,0:0:0:0:
252,384,115607,5,0,0:0:0:0:
259,329,115701,1,0,0:0:0:0:
264,282,115795,2,0,B|172:267|172:267|90:321,1,180.000000596046
340,345,116170,1,0,0:0:0:0:
82,217,116357,1,0,0:0:0:0:
7,122,116545,6,0,B|-15:189|-15:189|6:269,1,125.999996572017
85,209,116920,2,0,B|107:141|107:141|85:61,1,125.999996572017
311,38,117295,6,0,P|127:72|70:42,1,242.999993388891
185,3,117670,2,0,P|199:47|197:99,1,80.9999977962969
105,140,117857,1,0,0:0:0:0:
311,51,118045,2,0,P|276:126|285:213,1,161.999995592594
511,83,118420,2,0,P|434:91|365:149,1,161.999995592594
370,162,118701,1,0,0:0:0:0:
370,162,118795,1,0,0:0:0:0:
493,231,118982,1,0,0:0:0:0:
442,377,119170,6,0,P|506:300|495:236,1,161.999995592594
276,347,119545,2,0,P|368:384|426:354,1,161.999995592594
53,258,119920,2,0,P|134:237|220:272,1,161.999995592594
214,283,120201,1,0,0:0:0:0:
214,283,120295,1,0,0:0:0:0:
127,355,120482,1,0,0:0:0:0:
71,151,120670,6,0,P|41:77|89:12,1,161.999995592594
222,162,121045,2,0,P|148:192|83:144,1,161.999995592594
233,11,121420,2,0,P|258:59|252:99,1,80.9999977962969
165,75,121607,1,0,0:0:0:0:
330,168,121795,1,0,0:0:0:0:
324,208,121888,1,0,0:0:0:0:
282,226,121982,1,0,0:0:0:0:
358,69,122170,6,0,P|430:124|428:189,1,161.999995592594
283,344,122451,1,0,0:0:0:0:
255,328,122545,2,0,P|266:238|323:207,1,161.999995592594
468,333,122920,2,0,B|426:282|360:300|360:300|399:360|466:346,1,242.999993388891
233,234,123295,6,0,P|205:204|135:200,1,94.4999974290131
126,212,123670,1,0,0:0:0:0:
39,258,123857,1,0,0:0:0:0:
154,194,124045,2,0,P|165:154|134:92,1,94.4999974290131
164,89,124420,2,0,P|130:65|61:76,1,94.4999974290131
173,109,124795,6,0,P|219:111|258:86,1,94.4999974290131
323,143,125170,2,0,P|287:113|276:69,1,94.4999974290131
289,222,125545,2,0,P|305:179|345:154,1,94.4999974290131
203,213,125920,2,0,P|249:215|285:245,1,94.4999974290131
429,104,126295,6,0,L|422:254,1,135.000000447034
414,257,126670,1,0,0:0:0:0:
506,164,126857,1,0,0:0:0:0:
351,19,127045,2,0,L|344:169,1,135.000000447034
336,172,127420,1,0,0:0:0:0:
440,82,127607,1,0,0:0:0:0:
448,63,127701,1,0,0:0:0:0:
351,27,127795,6,0,P|313:44|246:37,1,90.000000298023
150,100,128170,1,0,0:0:0:0:
176,115,128263,2,0,L|183:177,1,45.0000001490115
90,7,128545,1,0,0:0:0:0:
64,22,128638,2,0,L|57:84,1,45.0000001490115
150,100,128826,1,0,0:0:0:0:
176,115,128919,2,0,B|181:164|181:164|142:192|141:242,1,135.000000447034
328,307,129295,6,0,P|290:247|209:238,1,135.000000447034
116,325,129670,1,0,0:0:0:0:
249,150,129857,1,0,0:0:0:0:
430,249,130045,6,0,P|361:266|327:340,1,135.000000447034
440,251,130420,2,0,P|399:199|406:134,1,135.000000447034
508,26,130795,2,0,L|497:179,1,135.000000447034
484,172,131170,1,0,0:0:0:0:
315,137,131357,1,0,0:0:0:0:
219,231,131545,6,0,L|230:78,1,135.000000447034
209,46,131920,2,0,L|204:106,1,45.0000001490115
202,124,132107,1,0,0:0:0:0:
197,165,132200,1,0,0:0:0:0:
217,261,132295,5,0,0:0:0:0:
107,241,132576,5,0,0:0:0:0:
65,258,132670,1,0,0:0:0:0:
315,137,132857,5,0,0:0:0:0:
368,122,132951,1,0,0:0:0:0:
422,111,133045,2,0,L|416:168,1,45.0000001490115
425,264,133232,1,0,0:0:0:0:
390,242,133295,6,0,P|348:275|329:344,1,120.000000397364
197,175,133670,2,2,P|246:208|258:277,1,112.500000372529,0|0,0:0|0:0,0:0:0:0:
119,259,134029,2,0,L|174:251,2,45.0000001490115
29,274,134357,1,0,0:0:0:0:
390,242,134545,5,0,0:0:0:0:
87,149,134920,1,0,0:0:0:0:
152,345,135295,6,0,P|112:328|95:288,1,90.000000298023
258,269,135607,1,0,0:0:0:0:
227,254,135670,2,0,L|183:258,1,45.0000001490115
379,251,135904,1,0,0:0:0:0:
454,240,136045,2,0,L|410:236,1,45.0000001490115
352,159,136232,2,0,P|395:116|441:112,1,90.000000298023
93,122,136607,6,2,P|142:155|154:224,1,112.500000372529,0|0,0:0|0:0,0:0:0:0:
62,124,137029,2,0,L|17:130,2,45.0000001490115
258,269,137357,1,0,0:0:0:0:
421,110,137545,5,0,0:0:0:0:
83,127,137920,1,0,0:0:0:0:
266,80,138295,6,0,L|274:181,1,90.000000298023
402,209,138607,1,0,0:0:0:0:
421,193,138670,2,0,P|435:153|413:98,1,90.000000298023
195,131,139045,2,0,L|199:197,1,60.000000198682
339,266,139232,2,0,P|410:295|470:260,1,150.000000496705
175,317,139607,6,0,B|223:310|223:310|277:334,1,90.000000298023
81,233,139982,2,0,L|90:309,1,60.000000198682
34,354,140170,1,0,0:0:0:0:
12,337,140232,2,0,L|-2:218,1,112.500000372529
37,93,140545,5,0,0:0:0:0:
379,86,140920,1,0,0:0:0:0:
37,93,141295,6,0,P|21:56|36:1,1,90.000000298023
116,184,141607,1,0,0:0:0:0:
87,200,141670,2,0,L|-10:191,1,90.000000298023
111,48,142045,2,0,L|174:54,1,60.000000198682
378,86,142232,2,0,P|362:127|279:160,1,135.000000447034
400,70,142607,6,0,B|444:60|444:60|473:15,1,90.000000298023
507,140,142982,2,0,L|511:212,1,60.000000198682
458,275,143170,1,0,0:0:0:0:
436,258,143232,2,0,L|430:178,2,60.000000198682
245,283,143545,6,0,P|240:249|250:209,1,60.000000198682
341,279,143732,2,0,P|346:313|336:353,1,60.000000198682
232,246,143920,2,0,P|239:212|262:178,1,60.000000198682
353,315,144107,2,0,P|346:349|323:383,1,60.000000198682
112,175,144295,6,0,L|209:165,1,90.000000298023
90,150,144576,2,0,L|97:262,1,107.999997061729
215,38,144857,2,0,L|208:145,1,107.999997061729
118,44,145232,5,0,0:0:0:0:
88,132,145420,1,0,0:0:0:0:
394,44,145607,5,0,0:0:0:0:
421,158,145795,2,0,L|415:211,1,45.0000001490115
165,173,145982,1,0,0:0:0:0:
297,38,146170,2,0,L|304:145,1,107.999997061729
412,257,146451,2,0,L|417:199,2,53.9999985308646
306,249,146732,5,0,0:0:0:0:
424,123,146920,1,0,0:0:0:0:
199,92,147107,1,0,0:0:0:0:
204,266,147295,6,0,P|248:244|318:255,1,107.999997061729
124,229,147576,1,0,0:0:0:0:
106,255,147670,2,0,L|120:324,1,53.9999985308646
169,163,147857,6,0,L|93:149,1,62.9999982860087
49,363,148045,2,0,L|32:284,1,62.9999982860087
179,148,148232,1,0,0:0:0:0:
22,200,148420,5,0,0:0:0:0:
5,120,148514,1,0,0:0:0:0:
70,68,148607,1,0,0:0:0:0:
208,94,148795,5,0,0:0:0:0:
239,147,148888,1,0,0:0:0:0:
213,197,148982,2,0,L|199:259,1,62.9999982860087
351,335,149170,1,0,0:0:0:0:
411,113,149357,2,0,P|393:146|397:184,1,62.9999982860087
467,288,149545,6,0,P|433:279|409:252,2,67.5000002235172
259,140,149920,2,0,L|309:146,1,45.0000001490115
512,32,150107,2,0,L|462:26,1,45.0000001490115
411,256,150295,6,0,L|405:309,1,45.0000001490115
165,173,150482,1,0,0:0:0:0:
185,149,150670,2,0,L|192:261,1,107.999997061729
310,37,150951,2,0,L|303:144,1,107.999997061729
467,288,151232,6,0,P|433:279|409:252,2,67.5000002235172
259,140,151607,2,0,L|309:146,1,45.0000001490115
512,32,151794,2,0,L|462:26,1,45.0000001490115
455,261,151982,6,0,L|402:255,1,45.0000001490115
94,172,152169,1,0,0:0:0:0:
77,141,152263,2,0,L|184:148,1,107.999997061729
191,256,152545,2,0,L|244:252,1,53.9999985308646
463,251,152732,6,0,L|410:255,1,53.9999985308646
303,145,152920,2,0,L|326:96,1,53.9999985308646
475,59,153107,2,0,L|504:103,1,53.9999985308646
298,335,153295,6,0,P|254:302|245:247,1,107.999997061729
303,145,153607,1,0,0:0:0:0:
303,145,153670,2,0,P|337:193|325:267,1,107.999997061729
244,252,153920,1,0,0:0:0:0:
210,177,154045,6,0,L|94:183,1,107.999997061729
85,198,154295,1,0,0:0:0:0:
80,110,154357,2,0,P|97:60|86:8,1,107.999997061729
12,56,154607,1,0,0:0:0:0:
225,82,154795,6,0,L|303:75,1,62.9999982860087
460,191,154982,2,0,L|382:198,1,62.9999982860087
225,82,155170,6,0,L|232:165,1,67.500002798438
466,258,155357,2,0,L|459:188,1,67.500002798438
225,82,155545,6,0,L|307:75,1,72.0000002384184
460,191,155732,2,0,L|375:198,1,72.0000002384184
225,82,155920,6,0,L|234:175,1,76.5000017124413
467,267,156107,2,0,L|459:189,1,76.5000017124413
244,351,156295,5,0,0:0:0:0:
271,334,156388,1,0,0:0:0:0:
298,317,156482,2,0,P|308:295|298:263,1,53.9999985308646
178,249,156670,2,0,P|169:226|139:210,1,53.9999985308646
26,168,156857,2,0,P|19:224|39:278,1,107.999997061729
57,283,157138,1,0,0:0:0:0:
76,297,157232,2,0,L|13:306,1,53.9999985308646
36,154,157420,2,0,L|99:145,1,53.9999985308646
73,306,157607,2,0,L|10:315,1,53.9999985308646
126,61,157795,6,0,P|178:114|183:156,1,107.999997061729
328,254,158076,1,0,0:0:0:0:
300,267,158170,2,0,P|294:228|305:203,1,53.9999985308646
448,71,158357,2,0,L|433:197,1,107.999997061729
410,198,158638,1,0,0:0:0:0:
411,179,158732,2,0,L|417:125,1,53.9999985308646
502,229,158920,2,0,L|496:283,1,53.9999985308646
406,348,159107,2,0,L|412:294,1,53.9999985308646
306,134,159295,5,0,0:0:0:0:
302,174,159388,1,0,0:0:0:0:
210,54,159482,5,0,0:0:0:0:
173,70,159576,2,0,P|169:116|181:142,2,53.9999985308646
82,222,159857,6,0,P|114:254|193:250,1,107.999997061729
302,174,160107,1,0,3:0:0:0:
326,203,160232,2,0,P|297:220|260:210,1,53.9999985308646
49,144,160420,1,0,0:0:0:0:
5,183,160513,1,0,0:0:0:0:
0,242,160607,1,0,0:0:0:0:
29,293,160701,1,0,0:0:0:0:
82,222,160795,5,0,0:0:0:0:
430,222,161170,1,0,0:0:0:0:
239,88,161545,5,0,0:0:0:0:
255,84,161920,1,0,0:0:0:0:
248,315,162295,5,0,0:0:0:0:
130,14,168295,6,0,P|146:111|90:193,1,202.500008395314
65,91,168670,2,0,P|32:82|-1:89,3,67.500002798438
187,219,169045,2,0,P|211:194|221:162,3,67.500002798438
15,260,169420,2,0,P|23:293|46:318,3,67.500002798438
187,219,169795,5,0,0:0:0:0:
222,207,169888,1,0,0:0:0:0:
261,201,169982,1,0,0:0:0:0:
279,204,170076,1,0,0:0:0:0:
298,207,170170,1,0,0:0:0:0:
314,212,170263,1,0,0:0:0:0:
333,215,170357,1,0,0:0:0:0:
352,215,170451,1,0,0:0:0:0:
370,211,170545,5,0,0:0:0:0:
396,163,170638,1,0,0:0:0:0:
393,111,170732,1,0,0:0:0:0:
364,66,170826,1,0,0:0:0:0:
318,56,170920,2,0,P|299:79|303:120,1,67.500002798438
468,218,171107,2,0,P|487:195|483:154,1,67.500002798438
210,67,171295,5,0,0:0:0:0:
165,85,171388,1,0,0:0:0:0:
145,126,171482,1,0,0:0:0:0:
133,176,171576,1,0,0:0:0:0:
87,194,171670,1,0,0:0:0:0:
46,159,171763,1,0,0:0:0:0:
46,105,171857,1,0,0:0:0:0:
86,71,171951,1,0,0:0:0:0:
139,86,172045,5,0,0:0:0:0:
140,141,172138,1,0,0:0:0:0:
103,187,172232,1,0,0:0:0:0:
104,243,172326,1,0,0:0:0:0:
67,289,172420,1,0,0:0:0:0:
68,345,172513,1,0,0:0:0:0:
51,318,172607,2,0,L|137:334,1,67.500002798438
358,197,172795,6,0,L|342:333,1,125.999996572017
357,71,173545,5,0,0:0:0:0:
307,56,173638,1,0,0:0:0:0:
326,88,173732,1,0,0:0:0:0:
337,38,173825,1,0,0:0:0:0:
331,62,173920,2,0,P|282:47|239:64,1,90.000000298023
14,48,174295,6,0,P|90:47|189:188,1,242.999993388891
104,203,174670,1,0,0:0:0:0:
299,185,174857,2,0,P|316:157|284:164,1,80.9999977962969
337,329,175045,6,0,P|413:244|472:238,1,161.999995592594
471,250,175327,1,0,0:0:0:0:
471,250,175420,1,0,0:0:0:0:
477,376,175607,1,0,0:0:0:0:
188,167,175795,2,0,B|160:174|159:205|159:205|184:323,1,161.999995592594
265,269,176170,1,0,0:0:0:0:
80,279,176357,1,0,0:0:0:0:
34,120,176545,6,0,P|88:131|110:197,1,125.999996572017
12,123,176920,2,0,P|66:112|88:46,1,125.999996572017
437,121,177295,6,0,P|337:120|186:172,1,242.999993388891
192,263,177670,1,0,0:0:0:0:
88,50,177857,2,0,P|102:75|104:141,1,80.9999977962969
452,157,178045,2,0,P|337:117|216:115,1,242.999993388891
209,141,178420,1,0,0:0:0:0:
430,320,178607,5,0,0:0:0:0:
450,294,178701,1,0,0:0:0:0:
425,273,178795,2,0,B|418:207|452:157|452:157|483:177|486:199,1,161.999995592594
192,263,179170,1,0,0:0:0:0:
309,220,179357,1,0,0:0:0:0:
192,263,179545,2,0,L|50:313,1,125.999996572017
73,294,179920,2,0,L|191:252,1,125.999996572017
88,50,180295,6,0,P|109:123|101:197,1,144.000000476837
