osu file format v14

[General]
AudioFilename: audio.mp3
AudioLeadIn: 0
PreviewTime: 52694
Countdown: 0
SampleSet: Soft
StackLeniency: 0.3
Mode: 0
LetterboxInBreaks: 0
WidescreenStoryboard: 0

[Editor]
DistanceSpacing: 0.8
BeatDivisor: 4
GridSize: 16
TimelineZoom: 2.4

[Metadata]
Title:Colorful Heart Line
TitleUnicode:カラフル・ハート・ライン
Artist:PARTICLE
ArtistUnicode:PARTICLE
Creator:_Meep_
Version:Expert
Source:りりくる Rainbow Stage!!!
Tags:Fumiya Kimura Juri M.A.O Terui Haruka Miwabe Sakura Ririkuru Lilycle RS Lily Lyric Cycle _Meep_
BeatmapID:1010869
BeatmapSetID:463181

[Difficulty]
HPDrainRate:6
CircleSize:4
OverallDifficulty:8
ApproachRate:9
SliderMultiplier:1.8
SliderTickRate:1

[Events]
//Background and Video events
0,0,"maxresdefault (1).jpg",0,0
Video,0,"りりくる Rainbow Stage!!! オープニングデモムービー.mp4"
//Break Periods
//Storyboard Layer 0 (Background)
//Storyboard Layer 1 (Fail)
//Storyboard Layer 2 (Pass)
//Storyboard Layer 3 (Foreground)
//Storyboard Sound Samples

[TimingPoints]
5819,340.909090909091,4,2,0,60,1,0
5819,-90.9090909090909,4,2,0,60,0,0
7779,-90.9090909090909,4,2,0,5,0,0
7864,-90.9090909090909,4,2,0,60,0,0
9313,-90.9090909090909,4,2,0,5,0,0
9398,-90.9090909090909,4,2,0,60,0,0
16131,-90.9090909090909,4,2,0,5,0,0
16216,-90.9090909090909,4,2,0,60,0,0
16813,-90.9090909090909,4,2,0,5,0,0
16898,-90.9090909090909,4,2,0,60,0,0
17154,-90.9090909090909,4,2,0,5,0,0
17239,-90.9090909090909,4,2,0,60,0,0
18091,-100,4,2,0,60,0,0
32324,-100,4,2,0,5,0,0
32409,-100,4,2,0,60,0,0
42892,-100,4,2,0,5,0,0
42978,-100,4,2,0,60,0,0
43233,-100,4,2,0,5,0,0
43319,-100,4,2,0,60,0,0
50819,-90.9090909090909,4,2,0,60,0,0
51074,-90.9090909090909,4,2,0,5,0,0
51159,-90.9090909090909,4,2,0,60,0,0
51586,-90.9090909090909,4,2,0,5,0,0
51671,-125,4,2,0,60,0,0
51756,-125,4,2,0,5,0,0
51841,-200,4,2,0,60,0,0
51926,-200,4,2,0,5,0,0
52011,-90.9090909090909,4,2,0,60,0,0
52267,-90.9090909090909,4,2,0,5,0,0
52352,-90.9090909090909,4,2,0,60,0,0
52694,-142.857142857143,4,2,0,60,0,0
53546,-76.9230769230769,4,2,0,60,0,1
53801,-76.9230769230769,4,2,0,5,0,1
53886,-76.9230769230769,4,2,0,60,0,1
55165,-76.9230769230769,4,2,0,5,0,1
55250,-76.9230769230769,4,2,0,60,0,1
56529,-76.9230769230769,4,2,0,5,0,1
56614,-76.9230769230769,4,2,0,60,0,1
59000,-76.9230769230769,4,2,0,60,0,0
59341,-58.8235294117647,4,2,0,60,0,1
59597,-58.8235294117647,4,2,0,5,0,0
59682,-58.8235294117647,4,2,0,60,0,0
60023,-58.8235294117647,4,2,0,60,0,1
60279,-58.8235294117647,4,2,0,5,0,0
60364,-76.9230769230769,4,2,0,60,0,0
60705,-58.8235294117647,4,2,0,60,0,1
60961,-58.8235294117647,4,2,0,5,0,0
61046,-76.9230769230769,4,2,0,60,0,0
61387,-58.8235294117647,4,2,0,60,0,1
61643,-58.8235294117647,4,2,0,5,0,0
61728,-76.9230769230769,4,2,0,60,0,0
62069,-76.9230769230769,4,2,0,60,0,1
62409,-76.9230769230769,4,2,0,60,0,0
62750,-76.9230769230769,4,2,0,60,0,1
63090,-76.9230769230769,4,2,0,60,0,0
63176,-76.9230769230769,4,2,0,5,0,0
63262,-100,4,2,0,60,0,0
63347,-100,4,2,0,5,0,0
63432,-142.857142857143,4,2,0,60,0,0
63517,-142.857142857143,4,2,0,5,0,0
63603,-58.8235294117647,4,2,0,60,0,1
64114,-76.9230769230769,4,2,0,60,0,1
64370,-76.9230769230769,4,2,0,60,0,0
64455,-76.9230769230769,4,2,0,60,0,1
64711,-76.9230769230769,4,2,0,5,0,1
64796,-76.9230769230769,4,2,0,60,0,1
66074,-76.9230769230769,4,2,0,5,0,1
66159,-76.9230769230769,4,2,0,60,0,1
67438,-76.9230769230769,4,2,0,5,0,1
67523,-76.9230769230769,4,2,0,60,0,1
75364,-111.111111111111,4,2,0,60,0,1
75961,-111.111111111111,4,2,0,5,0,1
76046,-111.111111111111,4,2,0,60,0,1
76642,-111.111111111111,4,2,0,5,0,1
76727,-111.111111111111,4,2,0,60,0,1
78091,-90.9090909090909,4,2,0,60,0,0
80051,-90.9090909090909,4,2,0,5,0,0
80136,-90.9090909090909,4,2,0,60,0,0
81586,-90.9090909090909,4,2,0,5,0,0
81671,-90.9090909090909,4,2,0,60,0,0
91983,-90.9090909090909,4,2,0,5,0,0
92068,-90.9090909090909,4,2,0,60,0,0
92665,-90.9090909090909,4,2,0,5,0,0
92750,-90.9090909090909,4,2,0,60,0,0

[Colours]
Combo1 : 255,179,142
Combo2 : 123,255,156
Combo3 : 255,172,216
Combo4 : 168,216,255

[HitObjects]
512,192,5819,5,0,0:0:0:0:
455,303,5989,1,0,0:0:0:0:
327,271,6159,1,0,0:0:0:0:
410,219,6330,1,0,0:0:0:0:
366,364,6500,2,0,L|260:356,1,99.0000030212403
84,342,6841,5,0,0:0:0:0:
183,303,7012,1,0,0:0:0:0:
44,247,7182,1,0,0:0:0:0:
63,93,7353,1,0,0:0:0:0:
158,211,7523,2,0,B|224:231|276:175|276:175|232:153,1,148.50000453186
195,115,7864,5,0,0:0:0:0:
297,91,8034,1,0,0:0:0:0:
148,43,8205,1,0,0:0:0:0:
311,13,8375,1,0,0:0:0:0:
237,261,8546,6,0,P|239:211|261:168,1,99.0000030212403
438,139,8887,1,0,0:0:0:0:
350,154,9057,1,0,0:0:0:0:
494,208,9228,2,0,L|500:261,1,49.5000015106202
369,361,9398,1,0,0:0:0:0:
404,277,9569,1,0,0:0:0:0:
467,338,9739,1,0,0:0:0:0:
270,320,9909,6,0,B|237:305|200:301|167:312|141:334|141:334|180:333|218:359,1,198.000006042481
300,241,10421,2,0,P|231:226|98:257,1,198.000006042481
15,86,10932,2,0,P|76:103|111:135,1,99.0000030212403
103,15,11273,5,0,0:0:0:0:
27,189,11444,1,0,0:0:0:0:
195,176,11614,2,0,L|183:66,1,99.0000030212403
363,163,11955,1,0,0:0:0:0:
274,67,12125,1,0,0:0:0:0:
291,268,12296,2,0,P|341:289|409:284,1,99.0000030212403
183,226,12637,5,0,0:0:0:0:
281,170,12807,1,0,0:0:0:0:
188,78,12978,1,0,0:0:0:0:
218,2,13148,1,0,0:0:0:0:
271,96,13319,6,0,P|338:82|373:38,1,99.0000030212403
506,163,13659,1,0,0:0:0:0:
446,89,13830,1,0,0:0:0:0:
377,262,14000,6,0,B|351:301|355:353|355:353|314:314|250:312,1,198.000006042481
171,268,14512,1,0,0:0:0:0:
96,336,14682,1,0,0:0:0:0:
136,363,14767,1,0,0:0:0:0:
185,368,14853,1,0,0:0:0:0:
230,350,14938,1,0,0:0:0:0:
262,312,15023,2,0,P|253:258|264:201,1,99.0000030212403
342,81,15364,5,0,0:0:0:0:
364,177,15534,2,0,L|342:81,1,99.0000030212403
333,47,15790,1,0,0:0:0:0:
325,13,15875,1,0,0:0:0:0:
160,225,16046,6,0,L|174:173,1,49.5000015106202
260,194,16216,1,0,0:0:0:0:
196,97,16387,1,0,0:0:0:0:
324,291,16557,6,0,B|375:336|436:317|436:317|404:298,1,148.50000453186
235,302,16898,2,0,B|211:316|211:316|272:335|323:290,1,148.50000453186
327,205,17239,5,0,0:0:0:0:
235,153,17409,2,0,L|165:159,1,49.5000015106202
67,231,17580,5,0,0:0:0:0:
71,265,17665,1,0,0:0:0:0:
75,299,17750,2,0,L|83:366,1,49.5000015106202
227,370,17921,5,0,0:0:0:0:
231,336,18006,1,0,0:0:0:0:
249,307,18091,1,0,0:0:0:0:
387,326,18262,5,0,0:0:0:0:
323,258,18432,1,0,0:0:0:0:
466,284,18603,2,0,P|485:239|484:198,1,90
324,106,18944,1,0,0:0:0:0:
436,68,19114,1,0,0:0:0:0:
402,148,19284,1,0,0:0:0:0:
246,64,19455,6,0,P|234:116|261:168,1,90
358,26,19796,1,0,0:0:0:0:
330,222,19966,2,0,P|283:188|156:234,1,180
192,380,20478,1,0,0:0:0:0:
250,290,20648,1,0,0:0:0:0:
106,312,20819,6,0,P|69:269|57:215,1,90
250,156,21159,1,0,0:0:0:0:
164,222,21330,1,0,0:0:0:0:
111,123,21500,2,0,B|117:64|170:37|170:37|284:56|272:58,1,180
336,90,22012,1,0,0:0:0:0:
263,263,22182,5,0,0:0:0:0:
262,263,22353,2,0,P|250:310|253:354,1,90
434,360,22694,2,0,B|446:306|425:261|425:261|406:215|431:151,1,180
252,351,23205,1,0,0:0:0:0:
253,219,23375,2,0,P|255:243|263:266,1,45
344,316,23546,1,0,0:0:0:0:
342,172,23716,5,0,0:0:0:0:
262,263,23887,1,0,0:0:0:0:
425,167,24057,2,0,P|420:118|396:73,1,90
184,149,24398,1,0,0:0:0:0:
314,79,24569,1,0,0:0:0:0:
243,34,24739,1,0,0:0:0:0:
341,215,24909,6,0,P|336:263|316:302,1,90
139,339,25250,1,0,0:0:0:0:
203,271,25421,2,0,P|226:315|231:358,1,90
52,312,25762,2,0,P|56:263|78:222,1,90
208,151,26103,1,0,0:0:0:0:
234,130,26188,1,0,0:0:0:0:
257,105,26273,6,0,L|246:7,1,90
331,171,26614,1,0,0:0:0:0:
169,270,26784,2,0,L|180:169,1,90
389,235,27125,2,0,L|400:331,1,90
179,359,27466,2,0,L|167:259,1,90
331,171,27807,5,0,0:0:0:0:
180,171,27978,1,0,0:0:0:0:
306,250,28148,1,0,0:0:0:0:
257,105,28319,1,0,0:0:0:0:
407,171,28489,1,0,0:0:0:0:
306,250,28659,1,0,0:0:0:0:
356,92,28830,1,0,0:0:0:0:
462,248,29000,1,0,0:0:0:0:
365,340,29171,6,0,L|248:328,1,90
232,195,29512,2,0,P|296:242|272:333,1,180
147,293,30023,1,0,0:0:0:0:
224,272,30194,1,0,0:0:0:0:
70,314,30364,6,0,L|81:184,1,90
88,142,30705,1,0,0:0:0:0:
0,53,30875,2,0,L|7:142,1,90
168,141,31216,1,0,0:0:0:0:
85,41,31387,1,0,0:0:0:0:
77,224,31557,1,0,0:0:0:0:
249,170,31728,6,0,P|250:110|230:82,1,90
221,250,32069,2,0,B|251:261|288:246|288:246|325:230|361:246,1,135
381,255,32409,2,0,P|380:195|400:167,1,90
326,321,32750,1,0,0:0:0:0:
455,225,32921,1,0,0:0:0:0:
381,87,33091,6,0,P|380:147|400:175,1,90
455,117,33432,1,0,0:0:0:0:
302,53,33603,2,0,B|233:55|233:55|197:83|197:83|115:88,1,180
168,4,34114,1,0,0:0:0:0:
267,135,34284,2,0,L|328:131,1,45
382,54,34455,1,0,0:0:0:0:
431,234,34625,6,0,P|434:189|423:146,1,90
358,287,34966,2,0,P|405:320|518:247,1,180
346,199,35478,1,0,0:0:0:0:
183,276,35648,1,0,0:0:0:0:
265,315,35819,6,0,P|269:246|235:203,1,90
93,282,36159,1,0,0:0:0:0:
127,118,36330,2,0,P|118:161|132:204,1,90
97,367,36671,2,0,P|101:298|67:255,1,90
0,154,37012,1,0,0:0:0:0:
2,122,37097,1,0,0:0:0:0:
12,92,37182,6,0,P|42:50|80:31,2,90
187,98,37694,2,0,P|142:99|103:119,1,90
251,211,38034,2,0,P|212:188|167:186,1,90
303,297,38375,6,0,P|278:243|360:133,1,180
381,230,38887,1,0,0:0:0:0:
225,364,39057,2,0,P|173:376|117:356,1,90
42,269,39398,1,0,0:0:0:0:
191,182,39569,1,0,0:0:0:0:
83,168,39739,1,0,0:0:0:0:
232,81,39909,6,0,L|220:170,1,90
300,316,40250,1,0,0:0:0:0:
300,228,40421,2,0,L|384:195,1,90
395,104,40762,1,0,0:0:0:0:
320,35,40932,1,0,0:0:0:0:
232,81,41103,1,0,0:0:0:0:
219,170,41273,6,0,P|176:176|97:142,1,90
0,46,41614,1,0,0:0:0:0:
82,4,41784,2,0,P|88:49|79:93,1,90
0,139,42125,1,0,0:0:0:0:
131,165,42296,1,0,0:0:0:0:
56,220,42466,1,0,0:0:0:0:
74,317,42637,6,0,B|125:334|125:334|165:313|216:323,1,135
255,333,42978,2,0,P|241:280|203:321,1,135
331,352,43319,2,0,P|339:294|323:254,1,90
193,165,43659,1,0,0:0:0:0:
269,207,43830,6,0,P|226:194|193:165,1,90
278,108,44171,1,0,0:0:0:0:
362,159,44341,1,0,0:0:0:0:
411,76,44512,1,0,0:0:0:0:
495,127,44682,1,0,0:0:0:0:
467,0,44853,5,0,0:0:0:0:
362,159,45023,2,0,L|384:270,1,90
194,57,45364,6,0,P|143:45|82:67,1,90
278,108,45705,1,0,0:0:0:0:
147,138,45875,2,0,P|189:154|221:186,1,90
22,96,46216,1,0,0:0:0:0:
138,230,46387,1,0,0:0:0:0:
194,57,46557,1,0,0:0:0:0:
194,57,46898,5,0,0:0:0:0:
227,237,47069,1,0,0:0:0:0:
120,138,47239,2,0,L|209:145,1,90
395,93,47580,5,0,0:0:0:0:
320,163,47750,1,0,0:0:0:0:
336,14,47921,1,0,0:0:0:0:
454,172,48091,6,0,L|470:281,1,90
313,287,48432,1,0,0:0:0:0:
397,321,48603,1,0,0:0:0:0:
229,253,48773,6,0,B|164:241|131:288|131:288|174:288,1,135
199,348,49114,1,0,0:0:0:0:
313,287,49284,1,0,0:0:0:0:
98,218,49455,6,0,P|134:193|178:182,1,90
316,79,49796,1,0,0:0:0:0:
401,129,49966,6,0,P|358:170|234:138,1,180
222,120,50392,5,0,0:0:0:0:
210,80,50478,2,0,L|210:9,1,45
87,112,50648,1,0,0:0:0:0:
77,151,50733,1,0,0:0:0:0:
80,191,50819,6,0,B|90:270|149:287|149:287|150:273|135:256,1,148.50000453186
80,191,51159,2,0,P|38:189|-18:236,1,99.0000030212403
22,368,51500,6,0,P|82:348|95:337,1,49.5000015106202
151,266,51671,2,0,B|137:286|147:325,1,36
215,374,51841,2,0,L|251:369,1,22.5
408,367,52012,6,0,B|366:383|321:369|321:369|321:342|303:313,1,148.50000453186
237,370,52353,5,0,0:0:0:0:
260,177,52523,1,0,0:0:0:0:
346,170,52694,6,0,P|387:199|338:214,1,125.999996154785
343,153,53205,1,0,0:0:0:0:
332,236,53375,1,0,0:0:0:0:
106,70,53546,6,0,B|38:80|11:162|11:162|46:171|76:132,1,175.499991966248
128,186,53887,1,0,0:0:0:0:
31,271,54057,2,0,P|37:210|5:157,1,116.999994644165
216,273,54398,1,0,0:0:0:0:
128,186,54569,1,0,0:0:0:0:
126,366,54739,1,0,0:0:0:0:
312,357,54909,6,0,P|339:275|310:194,1,175.499991966248
219,188,55250,1,0,0:0:0:0:
359,96,55421,2,0,P|346:158|298:199,1,116.999994644165
228,32,55762,1,0,0:0:0:0:
444,99,55932,1,0,0:0:0:0:
385,9,56103,1,0,0:0:0:0:
269,113,56273,6,0,B|213:140|164:98|164:98|133:134|77:124,1,175.499991966248
228,32,56614,1,0,0:0:0:0:
167,194,56784,1,0,0:0:0:0:
5,92,56955,2,0,P|67:128|139:110,1,116.999994644165
360,162,57296,1,0,0:0:0:0:
224,18,57466,1,0,0:0:0:0:
137,301,57637,6,0,P|211:344|359:299,1,233.999989288331
172,172,58148,2,0,P|188:247|246:274,1,116.999994644165
58,314,58489,1,0,0:0:0:0:
172,172,58659,2,0,P|156:97|98:70,1,116.999994644165
244,375,59000,5,0,0:0:0:0:
358,294,59171,1,0,0:0:0:0:
261,150,59341,2,0,B|244:100|350:121|341:35|339:4|318:-17|264:-8|257:14|257:14,1,229.500004377365
191,71,59682,5,0,0:0:0:0:
140,292,59853,1,0,0:0:0:0:
261,150,60023,2,0,B|233:95|188:119|149:49|188:-19|233:-6|271:20|271:20|265:-32,1,229.500004377365
319,71,60364,6,0,P|383:69|439:32,1,116.999994644165
175,208,60705,2,0,B|135:280|189:343|189:343|248:335|268:275,1,229.500004377365
175,208,61046,6,0,P|111:210|55:247,1,116.999994644165
338,208,61387,2,0,B|378:280|324:343|324:343|265:335|245:275,1,229.500004377365
338,208,61728,6,0,B|398:216|398:216|453:248,1,116.999994644165
228,112,62069,2,0,B|205:57|205:57|205:-6,1,116.999994644165
201,255,62409,2,0,B|164:302|164:302|109:334,1,116.999994644165
228,112,62750,1,0,0:0:0:0:
256,192,62921,1,0,0:0:0:0:
50,239,63091,6,0,L|120:226,1,58.4999973220826
102,142,63262,2,0,L|32:129,1,45
75,23,63432,2,0,L|77:80,1,31.4999990386963
134,339,63603,6,0,B|214:340|256:259|256:259|305:337|402:345,1,306.000005836487
463,304,64029,1,0,0:0:0:0:
463,304,64114,2,0,P|456:259|472:203,1,58.4999973220826
491,161,64284,2,0,P|498:116|482:60,1,58.4999973220826
358,17,64455,6,0,B|234:34|234:34|270:34|300:72,1,175.499991966248
222,121,64796,1,0,0:0:0:0:
105,105,64966,2,0,L|257:125,1,116.999994644165
234,34,65307,1,0,0:0:0:0:
208,206,65478,1,0,0:0:0:0:
337,135,65648,1,0,0:0:0:0:
146,254,65819,6,0,B|100:316|125:394|125:394|188:355,1,175.499991966248
235,334,66159,1,0,0:0:0:0:
118,144,66330,2,0,P|119:202|145:253,1,116.999994644165
234,167,66671,1,0,0:0:0:0:
5,114,66841,1,0,0:0:0:0:
32,212,67012,1,0,0:0:0:0:
176,66,67182,6,0,B|288:96|288:96|330:165,1,175.499991966248
234,167,67523,1,0,0:0:0:0:
275,10,67694,1,0,0:0:0:0:
347,226,67864,2,0,L|305:382,1,116.999994644165
512,384,68205,1,0,0:0:0:0:
481,270,68375,1,0,0:0:0:0:
316,339,68546,6,0,P|224:333|187:296,1,116.999994644165
73,208,68887,1,0,0:0:0:0:
175,230,69057,2,0,P|170:172|136:126,1,116.999994644165
109,301,69398,1,0,0:0:0:0:
35,121,69569,2,0,P|53:66|99:30,1,116.999994644165
271,65,69909,5,0,0:0:0:0:
309,191,70080,1,0,0:0:0:0:
270,64,70250,2,0,P|328:64|383:85,1,116.999994644165
235,297,70591,5,0,0:0:0:0:
119,284,70762,1,0,0:0:0:0:
235,297,70932,2,0,B|214:263|214:263|223:158,1,116.999994644165
110,368,71273,5,0,0:0:0:0:
227,378,71444,1,0,0:0:0:0:
126,199,71614,1,0,0:0:0:0:
235,297,71784,6,0,B|293:333|349:296|349:296|404:261|467:297,1,233.999989288331
293,222,72296,2,0,P|294:146|322:100,1,116.999994644165
445,12,72637,6,0,B|365:34|365:34|300:14|300:14|206:46,1,233.999989288331
293,222,73148,1,0,0:0:0:0:
367,176,73319,2,0,P|290:133|202:236,1,233.999989288331
441,130,73830,1,0,0:0:0:0:
253,302,74000,5,0,0:0:0:0:
364,263,74171,1,0,0:0:0:0:
206,369,74341,1,0,0:0:0:0:
114,242,74512,6,0,P|108:214|111:181,1,58.4999973220826
64,304,74682,2,0,P|140:315|181:282,1,116.999994644165
195,254,74938,1,0,0:0:0:0:
206,208,75023,1,0,0:0:0:0:
197,162,75108,1,0,0:0:0:0:
165,126,75194,1,0,0:0:0:0:
121,108,75279,1,0,0:0:0:0:
74,110,75364,6,0,B|192:138|259:76|259:76|309:115|373:76,1,283.499991348267
402,45,76046,6,0,B|370:96|298:111|259:76|259:76|249:159|249:159|274:197,1,283.499991348267
313,264,76728,6,0,P|273:214|169:231,1,161.999995056153
358,173,77239,1,0,0:0:0:0:
233,288,77409,2,0,P|223:351|233:388,1,80.9999975280763
313,266,77750,1,0,0:0:0:0:
259,76,77921,1,0,0:0:0:0:
181,219,78091,5,0,0:0:0:0:
100,156,78262,1,0,0:0:0:0:
259,76,78432,1,0,0:0:0:0:
178,13,78603,1,0,0:0:0:0:
229,153,78773,2,0,L|351:142,1,99.0000030212403
506,155,79114,5,0,0:0:0:0:
346,46,79284,1,0,0:0:0:0:
422,108,79455,1,0,0:0:0:0:
479,31,79625,1,0,0:0:0:0:
366,184,79796,2,0,B|343:252|397:304|397:304|411:281,1,148.50000453186
467,226,80137,5,0,0:0:0:0:
440,135,80307,1,0,0:0:0:0:
271,237,80478,1,0,0:0:0:0:
289,144,80648,1,0,0:0:0:0:
114,259,80819,6,0,L|125:372,1,99.0000030212403
289,354,81159,1,0,0:0:0:0:
192,249,81330,1,0,0:0:0:0:
361,219,81500,2,0,L|354:283,1,49.5000015106202
289,144,81671,1,0,0:0:0:0:
420,343,81841,1,0,0:0:0:0:
289,354,82012,1,0,0:0:0:0:
502,328,82182,6,0,B|459:251|489:177|489:177|439:130,1,198.000006042481
312,86,82694,2,0,B|391:90|391:90|430:69|430:69|504:72,1,198.000006042481
251,20,83205,2,0,P|221:76|238:136,1,99.0000030212403
289,249,83546,5,0,0:0:0:0:
113,138,83716,1,0,0:0:0:0:
115,331,83887,2,0,P|137:277|123:217,1,99.0000030212403
27,94,84228,5,0,0:0:0:0:
132,237,84398,1,0,0:0:0:0:
264,72,84569,2,0,P|242:126|256:186,1,99.0000030212403
370,358,84909,5,0,0:0:0:0:
435,210,85080,1,0,0:0:0:0:
350,275,85250,1,0,0:0:0:0:
358,138,85421,1,0,0:0:0:0:
512,249,85591,6,0,L|498:130,1,99.0000030212403
454,317,85932,1,0,0:0:0:0:
268,199,86103,1,0,0:0:0:0:
74,332,86273,6,0,B|117:368|117:368|272:346,1,198.000006042481
358,332,86784,1,0,0:0:0:0:
140,265,86955,1,0,0:0:0:0:
144,215,87040,1,0,0:0:0:0:
148,166,87125,1,0,0:0:0:0:
152,117,87210,1,0,0:0:0:0:
157,67,87296,2,0,P|205:43|294:57,1,99.0000030212403
446,200,87637,5,0,0:0:0:0:
294,129,87807,2,0,L|407:111,1,99.0000030212403
305,296,88148,5,0,0:0:0:0:
153,225,88319,1,0,0:0:0:0:
250,209,88489,1,0,0:0:0:0:
131,327,88659,1,0,0:0:0:0:
74,162,88830,6,0,L|88:57,1,99.0000030212403
302,125,89171,2,0,L|288:20,1,99.0000030212403
193,143,89512,1,0,0:0:0:0:
417,120,89682,2,0,P|475:144|501:193,2,99.0000030212403
283,309,90194,6,0,P|253:253|265:199,1,99.0000030212403
41,365,90534,2,0,P|70:309|58:255,1,99.0000030212403
152,345,90875,1,0,0:0:0:0:
286,141,91046,1,0,0:0:0:0:
392,371,91216,6,0,L|388:321,1,49.5000015106202
466,247,91387,2,0,L|469:197,1,49.5000015106202
410,46,91557,6,0,P|346:18|298:24,1,99.0000030212403
225,209,91898,2,0,L|303:197,1,49.5000015106202
344,122,92069,1,0,0:0:0:0:
120,151,92239,6,0,P|106:198|114:246,1,99.0000030212403
216,359,92580,2,0,L|239:315,1,49.5000015106202
219,93,92750,1,0,0:0:0:0:
0,192,92921,1,0,0:0:0:0:
