osu file format v14

[General]
AudioFilename: audio.ogg
AudioLeadIn: 0
PreviewTime: 119498
Countdown: 0
SampleSet: Soft
StackLeniency: 0.7
Mode: 3
LetterboxInBreaks: 0
SpecialStyle: 0
WidescreenStoryboard: 1

[Editor]
Bookmarks: 113831,120233,143648,167063
DistanceSpacing: 0.8
BeatDivisor: 4
GridSize: 32
TimelineZoom: 0.7999989

[Metadata]
Title:La Chica Vampira
TitleUnicode:La Chica Vampira
Artist:PAPA TOPO
ArtistUnicode:PAPA TOPO
Creator:Chrisse
Version:Facil
Source:
Tags:spanish indie pop rock 80s vampire elefant records band er-282 espaƱol espanol the vampire girl love sick
BeatmapID:4512579
BeatmapSetID:2143329

[Difficulty]
HPDrainRate:6.5
CircleSize:4
OverallDifficulty:6.5
ApproachRate:5
SliderMultiplier:1.4
SliderTickRate:1

[Events]
//Background and Video events
0,0,"bg.jpg",0,0
//Break Periods
//Storyboard Layer 0 (Background)
//Storyboard Layer 1 (Fail)
//Storyboard Layer 2 (Pass)
//Storyboard Layer 3 (Foreground)
//Storyboard Layer 4 (Overlay)
//Storyboard Sound Samples
Sample,108888,0,"Clap.wav",55
Sample,109620,0,"Clap.wav",55
Sample,110351,0,"Clap.wav",55
Sample,110900,0,"Clap.wav",55
Sample,111083,0,"Clap.wav",55
Sample,111815,0,"Clap.wav",55
Sample,112547,0,"Clap.wav",55
Sample,113278,0,"Clap.wav",55
Sample,113827,0,"Clap.wav",55
Sample,114010,0,"Clap.wav",55
Sample,114742,0,"Clap.wav",55
Sample,115473,0,"Clap.wav",55
Sample,116205,0,"Clap.wav",55
Sample,116754,0,"Clap.wav",55
Sample,116937,0,"Clap.wav",55
Sample,117669,0,"Clap.wav",55
Sample,118400,0,"Clap.wav",55
Sample,119132,0,"Clap.wav",55
Sample,119864,0,"Clap.wav",55

[TimingPoints]
230,365.853658536585,4,2,1,50,1,0
32425,-100,4,2,1,50,0,1
55839,-100,4,2,1,50,0,0
85108,-100,4,2,1,50,0,1
108522,-100,4,2,1,50,0,0
120229,-100,4,2,1,50,0,1
167059,-100,4,2,1,50,0,0

[HitObjects]
448,192,230,5,2,0:0:0:0:
64,192,595,1,0,0:0:0:30:snare.wav
320,192,778,1,2,0:0:0:0:
192,192,961,1,2,0:0:0:0:
64,192,1327,1,0,0:0:0:30:snare.wav
448,192,1510,1,2,0:0:0:0:
192,192,1693,1,2,0:0:0:0:
320,192,2059,1,0,0:0:0:30:snare.wav
64,192,2242,1,2,0:0:0:0:
448,192,2425,1,2,0:0:0:0:
192,192,2608,1,8,0:0:0:0:
320,192,2790,128,8,3156:0:0:0:0:
64,192,3156,1,2,0:0:0:0:
448,192,3339,1,2,0:0:0:0:
192,192,3522,1,8,0:0:0:0:
320,192,3888,1,2,0:0:0:0:
64,192,4071,1,2,0:0:0:0:
448,192,4254,1,8,0:0:0:0:
192,192,4437,1,2,0:0:0:0:
192,192,4803,1,2,0:0:0:0:
320,192,4986,1,8,0:0:0:0:
64,192,5351,1,2,0:0:0:0:
448,192,5534,1,2,0:0:0:0:
192,192,5717,1,8,0:0:0:0:
320,192,6083,1,2,0:0:0:0:
64,192,6266,1,2,0:0:0:0:
448,192,6449,1,8,0:0:0:0:
192,192,6815,1,2,0:0:0:0:
320,192,6998,1,2,0:0:0:0:
64,192,7181,1,8,0:0:0:0:
448,192,7364,1,2,0:0:0:0:
448,192,7729,1,2,0:0:0:0:
192,192,7912,1,8,0:0:0:0:
320,192,8278,1,2,0:0:0:0:
64,192,8461,1,8,0:0:0:0:
448,192,8644,128,8,9010:0:0:0:0:
64,192,9010,1,4,0:0:0:0:
192,192,9010,1,2,0:0:0:0:
192,192,9376,1,8,0:0:0:0:
64,192,9742,1,2,0:0:0:0:
448,192,9925,1,2,0:0:0:0:
192,192,10108,1,8,0:0:0:0:
320,192,10290,1,2,0:0:0:0:
320,192,10656,1,2,0:0:0:0:
64,192,10839,1,8,0:0:0:0:
448,192,11205,1,2,0:0:0:0:
192,192,11388,1,2,0:0:0:0:
320,192,11571,1,8,0:0:0:0:
64,192,11754,1,2,0:0:0:0:
448,192,11937,1,2,0:0:0:0:
448,192,12303,1,8,0:0:0:0:
320,192,12669,1,2,0:0:0:0:
192,192,12851,1,2,0:0:0:0:
448,192,13034,1,8,0:0:0:0:
64,192,13217,1,2,0:0:0:0:
64,192,13583,1,2,0:0:0:0:
320,192,13766,1,8,0:0:0:0:
192,192,14132,1,2,0:0:0:0:
448,192,14315,1,2,0:0:0:0:
64,192,14498,1,8,0:0:0:0:
192,192,14681,1,2,0:0:0:0:
320,192,14864,1,2,0:0:0:0:
320,192,15229,1,8,0:0:0:0:
448,192,15595,1,2,0:0:0:0:
64,192,15778,1,2,0:0:0:0:
320,192,15961,1,8,0:0:0:0:
192,192,16144,1,2,0:0:0:0:
192,192,16510,1,2,0:0:0:0:
448,192,16693,1,8,0:0:0:0:
64,192,17059,1,2,0:0:0:0:
320,192,17242,1,2,0:0:0:0:
192,192,17425,1,8,0:0:0:0:
448,192,17608,1,2,0:0:0:0:
64,192,17790,1,2,0:0:0:0:
64,192,18156,1,8,0:0:0:0:
192,192,18522,1,2,0:0:0:0:
320,192,18705,1,2,0:0:0:0:
64,192,18888,1,8,0:0:0:0:
448,192,19071,1,2,0:0:0:0:
448,192,19437,1,2,0:0:0:0:
192,192,19620,1,8,0:0:0:0:
320,192,19986,1,2,0:0:0:0:
64,192,20169,1,2,0:0:0:0:
448,192,20351,1,8,0:0:0:0:
192,192,20534,1,8,0:0:0:0:
320,192,20717,1,2,0:0:0:0:
448,192,20717,1,4,0:0:0:0:
320,192,21083,1,8,0:0:0:0:
192,192,21449,1,2,0:0:0:0:
64,192,21632,1,2,0:0:0:0:
320,192,21815,1,8,0:0:0:0:
192,192,21998,1,2,0:0:0:0:
192,192,22364,1,2,0:0:0:0:
448,192,22547,1,8,0:0:0:0:
64,192,22912,1,2,0:0:0:0:
320,192,23095,1,2,0:0:0:0:
192,192,23278,1,8,0:0:0:0:
448,192,23461,1,2,0:0:0:0:
64,192,23644,1,2,0:0:0:0:
64,192,24010,1,8,0:0:0:0:
192,192,24376,1,2,0:0:0:0:
448,192,24559,1,2,0:0:0:0:
64,192,24742,1,8,0:0:0:0:
320,192,24925,1,2,0:0:0:0:
320,192,25290,1,2,0:0:0:0:
192,192,25473,1,8,0:0:0:0:
64,192,25839,1,2,0:0:0:0:
320,192,26022,1,2,0:0:0:0:
192,192,26205,1,8,0:0:0:0:
64,192,26388,1,2,0:0:0:0:
448,192,26571,1,2,0:0:0:0:
448,192,26937,1,8,0:0:0:0:
320,192,27303,1,2,0:0:0:0:
64,192,27486,1,2,0:0:0:0:
448,192,27669,1,8,0:0:0:0:
192,192,27851,1,2,0:0:0:0:
192,192,28217,1,2,0:0:0:0:
320,192,28400,1,8,0:0:0:0:
64,192,28766,1,2,0:0:0:0:
448,192,28949,1,2,0:0:0:0:
192,192,29132,1,8,0:0:0:0:
320,192,29315,1,2,0:0:0:0:
64,192,29498,1,2,0:0:0:0:
64,192,29864,1,8,0:0:0:0:
320,192,30229,1,2,0:0:0:0:
192,192,30412,1,2,0:0:0:0:
64,192,30595,1,8,0:0:0:0:
448,192,30778,1,2,0:0:0:0:
448,192,31144,1,2,0:0:0:0:
192,192,31327,1,8,0:0:0:0:
320,192,31693,128,8,32059:0:0:0:0:
64,192,32059,128,0,32425:0:0:0:45:Tom3.wav
320,192,32425,1,4,0:0:0:0:
448,192,32425,128,2,32790:0:0:0:0:
192,192,32790,1,8,0:0:0:0:
320,192,33156,1,2,0:0:0:0:
64,192,33339,1,2,0:0:0:0:
448,192,33522,1,8,0:0:0:0:
192,192,33705,128,2,34071:0:0:0:0:
320,192,34071,128,2,34437:0:0:0:0:
64,192,34437,1,0,0:0:0:0:
448,192,34620,128,2,34986:0:0:0:0:
64,192,34986,128,8,35351:0:0:0:0:
320,192,35351,128,2,35717:0:0:0:0:
192,192,35717,1,8,0:0:0:0:
64,192,36083,1,2,0:0:0:0:
448,192,36266,1,2,0:0:0:0:
192,192,36449,1,8,0:0:0:0:
320,192,36632,128,2,36998:0:0:0:0:
64,192,36998,128,2,37364:0:0:0:0:
448,192,37364,1,0,0:0:0:0:
192,192,37547,128,2,37912:0:0:0:0:
320,192,37912,128,8,38278:0:0:0:0:
64,192,38278,128,2,38644:0:0:0:0:
448,192,38644,1,8,0:0:0:0:
192,192,39010,1,2,0:0:0:0:
320,192,39193,1,2,0:0:0:0:
64,192,39376,1,8,0:0:0:0:
448,192,39559,128,2,39925:0:0:0:0:
192,192,39925,128,2,40290:0:0:0:0:
64,192,40290,1,0,0:0:0:0:
320,192,40473,128,2,40839:0:0:0:0:
64,192,40839,128,8,41205:0:0:0:0:
448,192,41205,128,2,41571:0:0:0:0:
192,192,41571,1,8,0:0:0:0:
64,192,41937,1,2,0:0:0:0:
448,192,42120,1,2,0:0:0:0:
192,192,42303,1,8,0:0:0:0:
320,192,42486,128,2,42851:0:0:0:0:
192,192,42851,128,2,43217:0:0:0:0:
64,192,43217,1,0,0:0:0:0:
320,192,43400,1,8,0:0:0:0:
448,192,43400,128,4,43766:0:0:0:0:
192,192,43766,1,4,0:0:0:0:
320,192,43766,128,8,44132:0:0:0:0:
64,192,44132,128,2,44498:0:0:0:0:
192,192,44132,1,4,0:0:0:0:
320,192,44498,1,8,0:0:0:0:
192,192,44864,1,2,0:0:0:0:
448,192,45047,1,2,0:0:0:0:
64,192,45229,1,8,0:0:0:0:
320,192,45412,128,2,45778:0:0:0:0:
192,192,45778,128,2,46144:0:0:0:0:
448,192,46144,1,0,0:0:0:0:
64,192,46327,128,2,46693:0:0:0:0:
448,192,46693,128,8,47059:0:0:0:0:
192,192,47059,128,2,47425:0:0:0:0:
320,192,47425,1,8,0:0:0:0:
448,192,47790,1,2,0:0:0:0:
64,192,47973,1,2,0:0:0:0:
320,192,48156,1,8,0:0:0:0:
192,192,48339,128,2,48705:0:0:0:0:
448,192,48705,128,2,49071:0:0:0:0:
64,192,49071,1,0,0:0:0:0:
320,192,49254,128,2,49620:0:0:0:0:
192,192,49620,128,8,49986:0:0:0:0:
448,192,49986,128,2,50351:0:0:0:0:
64,192,50351,1,8,0:0:0:0:
320,192,50717,1,2,0:0:0:0:
192,192,50900,1,2,0:0:0:0:
448,192,51083,1,8,0:0:0:0:
64,192,51266,128,2,51632:0:0:0:0:
320,192,51632,128,2,51998:0:0:0:0:
448,192,51998,1,0,0:0:0:0:
192,192,52181,128,2,52547:0:0:0:0:
448,192,52547,128,8,52912:0:0:0:0:
64,192,52912,128,2,53278:0:0:0:0:
320,192,53278,1,8,0:0:0:0:
192,192,53644,1,2,0:0:0:0:
448,192,53827,1,2,0:0:0:0:
64,192,54010,1,8,0:0:0:0:
320,192,54193,128,2,54559:0:0:0:0:
192,192,54559,128,2,54925:0:0:0:0:
64,192,54925,1,0,0:0:0:0:
320,192,55108,1,8,0:0:0:0:
448,192,55108,128,4,55473:0:0:0:0:
192,192,55473,1,8,0:0:0:0:
320,192,55473,128,4,55839:0:0:0:0:
64,192,55839,128,4,56205:0:0:0:0:
192,192,55839,1,2,0:0:0:0:
448,192,56205,1,8,0:0:0:0:
320,192,56571,1,2,0:0:0:0:
64,192,56754,1,2,0:0:0:0:
448,192,56937,1,8,0:0:0:0:
192,192,57120,1,2,0:0:0:0:
192,192,57486,1,2,0:0:0:0:
320,192,57669,1,8,0:0:0:0:
64,192,58034,1,2,0:0:0:0:
448,192,58217,1,2,0:0:0:0:
192,192,58400,1,8,0:0:0:0:
320,192,58766,1,2,0:0:0:0:
64,192,58949,1,2,0:0:0:0:
448,192,59132,1,8,0:0:0:0:
192,192,59498,1,2,0:0:0:0:
320,192,59681,1,2,0:0:0:0:
64,192,59864,1,8,0:0:0:0:
448,192,60047,1,2,0:0:0:0:
448,192,60412,1,2,0:0:0:0:
192,192,60595,1,8,0:0:0:0:
320,192,60961,1,2,0:0:0:0:
64,192,61144,1,8,0:0:0:0:
448,192,61327,128,8,61693:0:0:0:0:
64,192,61693,1,2,0:0:0:0:
192,192,61693,1,4,0:0:0:0:
192,192,62059,1,8,0:0:0:0:
64,192,62425,1,2,0:0:0:0:
448,192,62608,1,2,0:0:0:0:
192,192,62790,1,8,0:0:0:0:
320,192,62973,1,2,0:0:0:0:
320,192,63339,1,2,0:0:0:0:
64,192,63522,1,8,0:0:0:0:
448,192,63888,1,2,0:0:0:0:
192,192,64071,1,2,0:0:0:0:
320,192,64254,1,8,0:0:0:0:
64,192,64437,1,2,0:0:0:0:
448,192,64620,1,2,0:0:0:0:
448,192,64986,1,8,0:0:0:0:
320,192,65351,1,2,0:0:0:0:
192,192,65534,1,2,0:0:0:0:
448,192,65717,1,8,0:0:0:0:
64,192,65900,1,2,0:0:0:0:
64,192,66266,1,2,0:0:0:0:
320,192,66449,1,8,0:0:0:0:
192,192,66815,1,2,0:0:0:0:
448,192,66998,1,2,0:0:0:0:
64,192,67181,1,8,0:0:0:0:
192,192,67364,1,2,0:0:0:0:
320,192,67547,1,2,0:0:0:0:
320,192,67912,1,8,0:0:0:0:
448,192,68278,1,2,0:0:0:0:
64,192,68461,1,2,0:0:0:0:
320,192,68644,1,8,0:0:0:0:
192,192,68827,1,2,0:0:0:0:
192,192,69193,1,2,0:0:0:0:
448,192,69376,1,8,0:0:0:0:
64,192,69742,1,2,0:0:0:0:
320,192,69925,1,2,0:0:0:0:
192,192,70108,1,8,0:0:0:0:
448,192,70290,1,2,0:0:0:0:
64,192,70473,1,2,0:0:0:0:
64,192,70839,1,8,0:0:0:0:
192,192,71205,1,2,0:0:0:0:
320,192,71388,1,2,0:0:0:0:
64,192,71571,1,8,0:0:0:0:
448,192,71754,1,2,0:0:0:0:
448,192,72120,1,2,0:0:0:0:
192,192,72303,1,8,0:0:0:0:
320,192,72669,1,2,0:0:0:0:
64,192,72851,1,2,0:0:0:0:
448,192,73034,1,8,0:0:0:0:
192,192,73217,1,8,0:0:0:0:
320,192,73400,1,4,0:0:0:0:
448,192,73400,1,2,0:0:0:0:
320,192,73766,1,8,0:0:0:0:
192,192,74132,1,2,0:0:0:0:
64,192,74315,1,2,0:0:0:0:
320,192,74498,1,8,0:0:0:0:
192,192,74681,1,2,0:0:0:0:
192,192,75047,1,2,0:0:0:0:
448,192,75229,1,8,0:0:0:0:
64,192,75595,1,2,0:0:0:0:
320,192,75778,1,2,0:0:0:0:
192,192,75961,1,8,0:0:0:0:
448,192,76144,1,2,0:0:0:0:
64,192,76327,1,2,0:0:0:0:
64,192,76693,1,8,0:0:0:0:
192,192,77059,1,2,0:0:0:0:
448,192,77242,1,2,0:0:0:0:
64,192,77425,1,8,0:0:0:0:
320,192,77608,1,2,0:0:0:0:
320,192,77973,1,2,0:0:0:0:
192,192,78156,1,8,0:0:0:0:
64,192,78522,1,2,0:0:0:0:
320,192,78705,1,2,0:0:0:0:
192,192,78888,1,8,0:0:0:0:
64,192,79071,1,2,0:0:0:0:
448,192,79254,1,2,0:0:0:0:
448,192,79620,1,8,0:0:0:0:
320,192,79986,1,2,0:0:0:0:
64,192,80169,1,2,0:0:0:0:
448,192,80351,1,8,0:0:0:0:
192,192,80534,1,2,0:0:0:0:
192,192,80900,1,2,0:0:0:0:
320,192,81083,1,8,0:0:0:0:
64,192,81449,1,2,0:0:0:0:
448,192,81632,1,2,0:0:0:0:
192,192,81815,1,8,0:0:0:0:
320,192,81998,1,2,0:0:0:0:
64,192,82181,1,2,0:0:0:0:
64,192,82547,1,8,0:0:0:0:
320,192,82912,1,2,0:0:0:0:
192,192,83095,1,2,0:0:0:0:
64,192,83278,1,8,0:0:0:0:
448,192,83461,1,2,0:0:0:0:
448,192,83827,1,2,0:0:0:0:
192,192,84010,128,8,84376:0:0:0:0:
320,192,84376,128,8,84742:0:0:0:0:
448,192,84742,128,0,85108:0:0:0:45:Tom3.wav
64,192,85108,128,2,85839:0:0:0:0:
192,192,85108,1,4,0:0:0:0:
320,192,85473,1,8,0:0:0:0:
448,192,85839,128,2,86571:0:0:0:0:
192,192,86205,1,8,0:0:0:0:
64,192,86571,1,0,0:0:0:0:
320,192,86754,1,2,0:0:0:0:
192,192,86937,1,8,0:0:0:0:
64,192,87303,1,2,0:0:0:0:
448,192,87486,1,2,0:0:0:0:
192,192,87669,128,8,88034:0:0:0:0:
320,192,88034,128,2,88766:0:0:0:0:
64,192,88400,1,8,0:0:0:0:
192,192,88766,128,2,89498:0:0:0:0:
448,192,89132,1,8,0:0:0:0:
320,192,89498,1,0,0:0:0:0:
64,192,89681,1,2,0:0:0:0:
448,192,89864,128,8,90229:0:0:0:0:
192,192,90229,128,2,90595:0:0:0:0:
320,192,90595,128,8,90961:0:0:0:0:
64,192,90961,128,2,91693:0:0:0:0:
320,192,91327,1,8,0:0:0:0:
448,192,91693,128,2,92425:0:0:0:0:
192,192,92059,1,8,0:0:0:0:
320,192,92425,1,0,0:0:0:0:
64,192,92608,1,2,0:0:0:0:
448,192,92790,1,8,0:0:0:0:
192,192,93156,1,2,0:0:0:0:
320,192,93339,1,2,0:0:0:0:
64,192,93522,128,8,93888:0:0:0:0:
448,192,93888,128,2,94620:0:0:0:0:
64,192,94254,1,8,0:0:0:0:
192,192,94620,128,2,95351:0:0:0:0:
320,192,94986,1,8,0:0:0:0:
448,192,95351,1,0,0:0:0:0:
64,192,95534,1,2,0:0:0:0:
320,192,95717,1,8,0:0:0:0:
64,192,96083,128,4,96449:0:0:0:0:
192,192,96083,1,8,0:0:0:0:
192,192,96449,128,8,96815:0:0:0:0:
320,192,96449,1,4,0:0:0:0:
320,192,96815,1,4,0:0:0:0:
448,192,96815,128,2,97181:0:0:0:0:
192,192,97181,1,8,0:0:0:0:
320,192,97547,1,2,0:0:0:0:
64,192,97729,1,2,0:0:0:0:
448,192,97912,1,8,0:0:0:0:
192,192,98095,128,2,98461:0:0:0:0:
320,192,98461,1,2,0:0:0:0:
64,192,98644,128,8,99010:0:0:0:0:
448,192,99010,128,2,99376:0:0:0:0:
192,192,99376,128,8,99742:0:0:0:0:
320,192,99742,128,2,100108:0:0:0:0:
64,192,100108,1,8,0:0:0:0:
448,192,100473,1,2,0:0:0:0:
192,192,100656,1,2,0:0:0:0:
320,192,100839,1,8,0:0:0:0:
64,192,101022,128,2,101571:0:0:0:0:
448,192,101571,1,8,0:0:0:0:
320,192,101754,128,0,102120:0:0:0:0:
64,192,102120,1,2,0:0:0:0:
192,192,102303,128,8,102669:0:0:0:0:
448,192,102669,128,2,103400:0:0:0:0:
192,192,103034,1,8,0:0:0:0:
64,192,103400,128,2,104132:0:0:0:0:
320,192,103766,1,8,0:0:0:0:
448,192,104132,1,0,0:0:0:0:
192,192,104315,1,2,0:0:0:0:
320,192,104498,1,8,0:0:0:0:
64,192,104864,1,2,0:0:0:0:
448,192,105047,1,2,0:0:0:0:
64,192,105229,128,8,105595:0:0:0:0:
320,192,105595,128,2,106327:0:0:0:0:
192,192,105961,1,8,0:0:0:0:
64,192,106327,128,2,107059:0:0:0:0:
448,192,106693,1,8,0:0:0:0:
320,192,107059,1,0,0:0:0:0:
192,192,107242,1,2,0:0:0:0:
448,192,107425,1,8,0:0:0:0:
64,192,107790,1,4,0:0:0:0:
192,192,107790,1,8,0:0:0:0:
192,192,108156,1,4,0:0:0:0:
320,192,108156,1,8,0:0:0:0:
320,192,108522,1,2,0:0:0:0:
448,192,108522,1,4,0:0:0:0:
64,192,108705,1,2,0:0:0:0:
320,192,108888,1,8,0:0:0:0:
192,192,109254,1,2,0:0:0:0:
448,192,109437,1,2,0:0:0:0:
64,192,109620,1,8,0:0:0:0:
320,192,109803,1,2,0:0:0:0:
320,192,110169,1,2,0:0:0:0:
192,192,110351,1,8,0:0:0:0:
448,192,110717,1,2,0:0:0:0:
64,192,110900,1,2,0:0:0:0:
320,192,111083,1,8,0:0:0:0:
192,192,111449,1,2,0:0:0:0:
448,192,111632,1,2,0:0:0:0:
64,192,111815,1,8,0:0:0:0:
320,192,112181,1,2,0:0:0:0:
192,192,112364,1,2,0:0:0:0:
448,192,112547,1,8,0:0:0:0:
64,192,112729,1,2,0:0:0:0:
64,192,113095,1,2,0:0:0:0:
320,192,113278,1,8,0:0:0:0:
192,192,113644,1,2,0:0:0:0:
448,192,113827,1,2,0:0:0:0:
64,192,114010,1,8,0:0:0:0:
320,192,114376,1,2,0:0:0:0:
192,192,114559,1,2,0:0:0:0:
448,192,114742,1,8,0:0:0:0:
64,192,115108,1,2,0:0:0:0:
320,192,115290,1,2,0:0:0:0:
192,192,115473,1,8,0:0:0:0:
448,192,115656,1,2,0:0:0:0:
448,192,116022,1,2,0:0:0:0:
64,192,116205,1,8,0:0:0:0:
320,192,116571,1,2,0:0:0:0:
192,192,116754,1,2,0:0:0:0:
448,192,116937,1,8,0:0:0:0:
320,192,117303,1,2,0:0:0:0:
64,192,117486,1,2,0:0:0:0:
448,192,117669,1,8,0:0:0:0:
320,192,118034,1,2,0:0:0:0:
64,192,118217,1,2,0:0:0:0:
448,192,118400,1,8,0:0:0:0:
192,192,118583,1,2,0:0:0:0:
192,192,118949,1,2,0:0:0:0:
448,192,119132,1,8,0:0:0:0:
64,192,119315,1,0,0:0:0:55:Clap.wav
192,192,119498,128,8,119864:0:0:0:0:
320,192,119864,128,0,120229:0:0:0:45:Tom3.wav
64,192,120229,128,2,120595:0:0:0:0:
448,192,120229,1,4,0:0:0:0:
320,192,120595,1,8,0:0:0:0:
192,192,120961,1,2,0:0:0:0:
448,192,121144,1,2,0:0:0:0:
64,192,121327,1,8,0:0:0:0:
320,192,121510,128,2,121876:0:0:0:0:
192,192,121876,128,2,122242:0:0:0:0:
448,192,122242,1,0,0:0:0:0:
64,192,122425,128,2,122790:0:0:0:0:
448,192,122790,128,8,123156:0:0:0:0:
192,192,123156,128,2,123522:0:0:0:0:
320,192,123522,1,8,0:0:0:0:
448,192,123888,1,2,0:0:0:0:
64,192,124071,1,2,0:0:0:0:
320,192,124254,1,8,0:0:0:0:
192,192,124437,128,2,124803:0:0:0:0:
448,192,124803,128,2,125169:0:0:0:0:
64,192,125169,1,0,0:0:0:0:
320,192,125351,128,2,125717:0:0:0:0:
192,192,125717,128,8,126083:0:0:0:0:
448,192,126083,128,2,126449:0:0:0:0:
64,192,126449,1,8,0:0:0:0:
320,192,126815,1,2,0:0:0:0:
192,192,126998,1,2,0:0:0:0:
448,192,127181,1,8,0:0:0:0:
64,192,127364,128,2,127729:0:0:0:0:
320,192,127729,128,2,128095:0:0:0:0:
448,192,128095,1,0,0:0:0:0:
192,192,128278,128,2,128644:0:0:0:0:
448,192,128644,128,8,129010:0:0:0:0:
64,192,129010,128,2,129376:0:0:0:0:
320,192,129376,1,8,0:0:0:0:
448,192,129742,1,2,0:0:0:0:
64,192,129925,1,2,0:0:0:0:
320,192,130108,1,8,0:0:0:0:
192,192,130290,128,2,130656:0:0:0:0:
320,192,130656,128,2,131022:0:0:0:0:
448,192,131022,1,0,0:0:0:0:
64,192,131205,128,4,131571:0:0:0:0:
192,192,131205,1,8,0:0:0:0:
192,192,131571,128,8,131937:0:0:0:0:
320,192,131571,1,4,0:0:0:0:
320,192,131937,1,4,0:0:0:0:
448,192,131937,128,2,132303:0:0:0:0:
192,192,132303,1,8,0:0:0:0:
320,192,132669,1,2,0:0:0:0:
64,192,132851,1,2,0:0:0:0:
448,192,133034,1,8,0:0:0:0:
192,192,133217,128,2,133583:0:0:0:0:
320,192,133583,128,2,133949:0:0:0:0:
64,192,133949,1,0,0:0:0:0:
448,192,134132,128,2,134498:0:0:0:0:
64,192,134498,128,8,134864:0:0:0:0:
320,192,134864,128,2,135229:0:0:0:0:
192,192,135229,1,8,0:0:0:0:
64,192,135595,1,2,0:0:0:0:
448,192,135778,1,2,0:0:0:0:
192,192,135961,1,8,0:0:0:0:
320,192,136144,128,2,136510:0:0:0:0:
64,192,136510,128,2,136876:0:0:0:0:
448,192,136876,1,0,0:0:0:0:
192,192,137059,128,2,137425:0:0:0:0:
320,192,137425,128,8,137790:0:0:0:0:
64,192,137790,128,2,138156:0:0:0:0:
448,192,138156,1,8,0:0:0:0:
192,192,138522,1,2,0:0:0:0:
320,192,138705,1,2,0:0:0:0:
64,192,138888,1,8,0:0:0:0:
448,192,139071,128,2,139437:0:0:0:0:
192,192,139437,128,2,139803:0:0:0:0:
64,192,139803,1,0,0:0:0:0:
320,192,139986,128,2,140351:0:0:0:0:
64,192,140351,128,8,140717:0:0:0:0:
448,192,140717,128,2,141083:0:0:0:0:
192,192,141083,1,8,0:0:0:0:
320,192,141449,1,2,0:0:0:0:
64,192,141632,1,2,0:0:0:0:
448,192,141815,1,8,0:0:0:0:
192,192,141998,128,2,142364:0:0:0:0:
320,192,142364,128,2,142729:0:0:0:0:
448,192,142729,1,0,0:0:0:0:
64,192,142912,128,4,143278:0:0:0:0:
192,192,142912,1,8,0:0:0:0:
192,192,143278,128,4,143644:0:0:0:0:
320,192,143278,1,8,0:0:0:0:
320,192,143644,1,4,0:0:0:0:
448,192,143644,128,2,144010:0:0:0:0:
192,192,144010,128,8,144376:0:0:0:0:
320,192,144376,1,2,0:0:0:0:
64,192,144559,1,2,0:0:0:0:
448,192,144742,1,8,0:0:0:0:
192,192,144925,128,2,145290:0:0:0:0:
320,192,145290,128,2,145656:0:0:0:0:
64,192,145656,1,0,0:0:0:0:
448,192,145839,128,2,146205:0:0:0:0:
64,192,146205,128,8,146571:0:0:0:0:
320,192,146571,128,2,146937:0:0:0:0:
192,192,146937,128,8,147303:0:0:0:0:
64,192,147303,1,2,0:0:0:0:
448,192,147486,1,2,0:0:0:0:
192,192,147669,1,8,0:0:0:0:
320,192,147851,128,2,148217:0:0:0:0:
64,192,148217,128,2,148583:0:0:0:0:
448,192,148583,1,0,0:0:0:0:
192,192,148766,128,2,149132:0:0:0:0:
320,192,149132,128,8,149498:0:0:0:0:
64,192,149498,128,2,149864:0:0:0:0:
448,192,149864,128,8,150229:0:0:0:0:
192,192,150229,1,2,0:0:0:0:
320,192,150412,1,2,0:0:0:0:
64,192,150595,1,8,0:0:0:0:
448,192,150778,128,2,151144:0:0:0:0:
192,192,151144,128,2,151510:0:0:0:0:
64,192,151510,1,0,0:0:0:0:
320,192,151693,128,2,152059:0:0:0:0:
64,192,152059,128,8,152425:0:0:0:0:
448,192,152425,128,2,152790:0:0:0:0:
192,192,152790,128,8,153156:0:0:0:0:
64,192,153156,1,2,0:0:0:0:
448,192,153339,1,2,0:0:0:0:
192,192,153522,1,8,0:0:0:0:
320,192,153705,128,2,154071:0:0:0:0:
192,192,154071,128,2,154437:0:0:0:0:
64,192,154437,1,0,0:0:0:0:
320,192,154620,1,8,0:0:0:0:
448,192,154620,128,4,154986:0:0:0:0:
192,192,154986,1,4,0:0:0:0:
320,192,154986,128,8,155351:0:0:0:0:
64,192,155351,128,2,155717:0:0:0:0:
192,192,155351,1,4,0:0:0:0:
320,192,155717,128,8,156083:0:0:0:0:
192,192,156083,1,2,0:0:0:0:
448,192,156266,1,2,0:0:0:0:
64,192,156449,1,8,0:0:0:0:
320,192,156632,128,2,156998:0:0:0:0:
192,192,156998,128,2,157364:0:0:0:0:
448,192,157364,1,0,0:0:0:0:
64,192,157547,128,2,157912:0:0:0:0:
448,192,157912,128,8,158278:0:0:0:0:
192,192,158278,128,2,158644:0:0:0:0:
320,192,158644,128,8,159010:0:0:0:0:
448,192,159010,1,2,0:0:0:0:
64,192,159193,1,2,0:0:0:0:
320,192,159376,1,8,0:0:0:0:
192,192,159559,128,2,159925:0:0:0:0:
448,192,159925,128,2,160290:0:0:0:0:
64,192,160290,1,0,0:0:0:0:
320,192,160473,128,2,160839:0:0:0:0:
192,192,160839,128,8,161205:0:0:0:0:
448,192,161205,128,2,161571:0:0:0:0:
64,192,161571,128,8,161937:0:0:0:0:
320,192,161937,1,2,0:0:0:0:
192,192,162120,1,2,0:0:0:0:
448,192,162303,1,8,0:0:0:0:
64,192,162486,128,2,162851:0:0:0:0:
320,192,162851,128,2,163217:0:0:0:0:
448,192,163217,1,0,0:0:0:0:
192,192,163400,128,2,163766:0:0:0:0:
448,192,163766,128,8,164132:0:0:0:0:
64,192,164132,128,2,164498:0:0:0:0:
320,192,164498,128,8,164864:0:0:0:0:
192,192,164864,1,2,0:0:0:0:
448,192,165047,1,2,0:0:0:0:
64,192,165229,1,8,0:0:0:0:
320,192,165412,128,2,165778:0:0:0:0:
192,192,165778,128,2,166144:0:0:0:0:
64,192,166144,1,0,0:0:0:0:
320,192,166327,1,8,0:0:0:0:
448,192,166327,128,4,166693:0:0:0:0:
192,192,166693,1,8,0:0:0:0:
320,192,166693,128,4,167059:0:0:0:0:
64,192,167059,128,4,167425:0:0:0:0:
192,192,167059,1,2,0:0:0:0:
448,192,167425,1,8,0:0:0:0:
320,192,167790,1,2,0:0:0:0:
64,192,167973,1,2,0:0:0:0:
448,192,168156,1,8,0:0:0:0:
192,192,168339,1,2,0:0:0:0:
192,192,168705,1,2,0:0:0:0:
320,192,168888,1,8,0:0:0:0:
64,192,169254,1,2,0:0:0:0:
448,192,169437,1,2,0:0:0:0:
192,192,169620,1,8,0:0:0:0:
320,192,169986,1,2,0:0:0:0:
64,192,170169,1,2,0:0:0:0:
448,192,170351,1,8,0:0:0:0:
192,192,170717,1,2,0:0:0:0:
320,192,170900,1,2,0:0:0:0:
64,192,171083,1,8,0:0:0:0:
448,192,171266,1,2,0:0:0:0:
448,192,171632,1,2,0:0:0:0:
192,192,171815,1,8,0:0:0:0:
320,192,172181,1,2,0:0:0:0:
64,192,172364,1,2,0:0:0:0:
448,192,172547,1,8,0:0:0:0:
192,192,172912,1,2,0:0:0:0:
320,192,173095,1,2,0:0:0:0:
64,192,173278,1,8,0:0:0:0:
448,192,173644,1,2,0:0:0:0:
192,192,173827,1,2,0:0:0:0:
320,192,174010,1,8,0:0:0:0:
64,192,174193,1,2,0:0:0:0:
64,192,174559,1,2,0:0:0:0:
448,192,174742,1,8,0:0:0:0:
192,192,175108,1,2,0:0:0:0:
320,192,175290,1,2,0:0:0:0:
64,192,175473,1,8,0:0:0:0:
192,192,175839,1,2,0:0:0:0:
448,192,176022,1,2,0:0:0:0:
64,192,176205,1,8,0:0:0:0:
192,192,176571,1,2,0:0:0:0:
448,192,176754,1,2,0:0:0:0:
64,192,176937,1,8,0:0:0:0:
320,192,177120,1,2,0:0:0:0:
320,192,177486,1,2,0:0:0:0:
64,192,177669,1,8,0:0:0:0:
448,192,177851,1,0,0:0:0:0:
320,192,178034,128,8,178400:0:0:0:0:
192,192,178400,128,0,178766:0:0:0:45:Tom3.wav
64,192,178766,1,2,0:0:0:0:
448,192,178766,128,4,181693:0:0:0:0:
